  0
SECTION
  2
HEADER
  9
$ACADVER
  1
AC1015
  9
$ACADMAINTVER
 70
    20
  9
$DWGCODEPAGE
  3
ANSI_932
  9
$INSBASE
 10
0.0
 20
0.0
 30
0.0
  9
$EXTMIN
 10
55.3894276444189
 20
40.89357801817095
 30
-0.0000000000112498
  9
$EXTMAX
 10
677.9480104776411
 20
546.7224243873752
 30
0.0000000000002956
  9
$LIMMIN
 10
0.0
 20
0.0
  9
$LIMMAX
 10
10000.0
 20
10000.0
  9
$ORTHOMODE
 70
     1
  9
$REGENMODE
 70
     1
  9
$FILLMODE
 70
     1
  9
$QTEXTMODE
 70
     0
  9
$MIRRTEXT
 70
     1
  9
$LTSCALE
 40
33.67003367003368
  9
$ATTMODE
 70
     1
  9
$TEXTSIZE
 40
2.5
  9
$TRACEWID
 40
1.0
  9
$TEXTSTYLE
  7
AD-STANDARD
  9
$CLAYER
  8
0
  9
$CELTYPE
  6
BYLAYER
  9
$CECOLOR
 62
   256
  9
$CELTSCALE
 40
1.0
  9
$DISPSILH
 70
     0
  9
$DIMSCALE
 40
3.0
  9
$DIMASZ
 40
2.5
  9
$DIMEXO
 40
1.0
  9
$DIMDLI
 40
0.38
  9
$DIMRND
 40
0.0
  9
$DIMDLE
 40
0.0
  9
$DIMEXE
 40
2.0
  9
$DIMTP
 40
0.0
  9
$DIMTM
 40
0.0
  9
$DIMTXT
 40
3.0
  9
$DIMCEN
 40
-2.0
  9
$DIMTSZ
 40
0.0
  9
$DIMTOL
 70
     0
  9
$DIMLIM
 70
     0
  9
$DIMTIH
 70
     0
  9
$DIMTOH
 70
     0
  9
$DIMSE1
 70
     0
  9
$DIMSE2
 70
     0
  9
$DIMTAD
 70
     1
  9
$DIMZIN
 70
     8
  9
$DIMBLK
  1

  9
$DIMASO
 70
     1
  9
$DIMSHO
 70
     1
  9
$DIMPOST
  1

  9
$DIMAPOST
  1

  9
$DIMALT
 70
     0
  9
$DIMALTD
 70
     2
  9
$DIMALTF
 40
25.4
  9
$DIMLFAC
 40
1.0
  9
$DIMTOFL
 70
     1
  9
$DIMTVP
 40
0.0
  9
$DIMTIX
 70
     0
  9
$DIMSOXD
 70
     0
  9
$DIMSAH
 70
     0
  9
$DIMBLK1
  1

  9
$DIMBLK2
  1

  9
$DIMSTYLE
  2
AD-STANDARD
  9
$DIMCLRD
 70
     9
  9
$DIMCLRE
 70
     9
  9
$DIMCLRT
 70
     2
  9
$DIMTFAC
 40
1.0
  9
$DIMGAP
 40
0.5
  9
$DIMJUST
 70
     0
  9
$DIMSD1
 70
     0
  9
$DIMSD2
 70
     0
  9
$DIMTOLJ
 70
     1
  9
$DIMTZIN
 70
     8
  9
$DIMALTZ
 70
     0
  9
$DIMALTTZ
 70
     0
  9
$DIMUPT
 70
     0
  9
$DIMDEC
 70
     4
  9
$DIMTDEC
 70
     4
  9
$DIMALTU
 70
     2
  9
$DIMALTTD
 70
     2
  9
$DIMTXSTY
  7
AD-STANDARD
  9
$DIMAUNIT
 70
     0
  9
$DIMADEC
 70
     0
  9
$DIMALTRND
 40
0.0
  9
$DIMAZIN
 70
     0
  9
$DIMDSEP
 70
    46
  9
$DIMATFIT
 70
     3
  9
$DIMFRAC
 70
     0
  9
$DIMLDRBLK
  1

  9
$DIMLUNIT
 70
     2
  9
$DIMLWD
 70
    -2
  9
$DIMLWE
 70
    -2
  9
$DIMTMOVE
 70
     0
  9
$LUNITS
 70
     2
  9
$LUPREC
 70
     4
  9
$SKETCHINC
 40
1.0
  9
$FILLETRAD
 40
0.5
  9
$AUNITS
 70
     0
  9
$AUPREC
 70
     0
  9
$MENU
  1
.
  9
$ELEVATION
 40
0.0
  9
$PELEVATION
 40
0.0
  9
$THICKNESS
 40
0.0
  9
$LIMCHECK
 70
     0
  9
$CHAMFERA
 40
336.7003367003367
  9
$CHAMFERB
 40
336.7003367003367
  9
$CHAMFERC
 40
673.4006734006732
  9
$CHAMFERD
 40
0.0
  9
$SKPOLY
 70
     0
  9
$TDCREATE
 40
2450771.449661690
  9
$TDUCREATE
 40
2450771.074661690
  9
$TDUPDATE
 40
2459612.517948392
  9
$TDUUPDATE
 40
2459612.142948392
  9
$TDINDWG
 40
0.4603150694
  9
$TDUSRTIMER
 40
0.4603150694
  9
$USRTIMER
 70
     1
  9
$ANGBASE
 50
0.0
  9
$ANGDIR
 70
     0
  9
$PDMODE
 70
     0
  9
$PDSIZE
 40
0.0
  9
$PLINEWID
 40
0.0
  9
$SPLFRAME
 70
     0
  9
$SPLINETYPE
 70
     6
  9
$SPLINESEGS
 70
     8
  9
$HANDSEED
  5
14398
  9
$SURFTAB1
 70
     6
  9
$SURFTAB2
 70
     6
  9
$SURFTYPE
 70
     6
  9
$SURFU
 70
     6
  9
$SURFV
 70
     6
  9
$UCSBASE
  2

  9
$UCSNAME
  2

  9
$UCSORG
 10
0.0
 20
0.0
 30
0.0
  9
$UCSXDIR
 10
1.0
 20
0.0
 30
0.0
  9
$UCSYDIR
 10
0.0
 20
1.0
 30
0.0
  9
$UCSORTHOREF
  2

  9
$UCSORTHOVIEW
 70
     0
  9
$UCSORGTOP
 10
0.0
 20
0.0
 30
0.0
  9
$UCSORGBOTTOM
 10
0.0
 20
0.0
 30
0.0
  9
$UCSORGLEFT
 10
0.0
 20
0.0
 30
0.0
  9
$UCSORGRIGHT
 10
0.0
 20
0.0
 30
0.0
  9
$UCSORGFRONT
 10
0.0
 20
0.0
 30
0.0
  9
$UCSORGBACK
 10
0.0
 20
0.0
 30
0.0
  9
$PUCSBASE
  2

  9
$PUCSNAME
  2

  9
$PUCSORG
 10
0.0
 20
0.0
 30
0.0
  9
$PUCSXDIR
 10
1.0
 20
0.0
 30
0.0
  9
$PUCSYDIR
 10
0.0
 20
1.0
 30
0.0
  9
$PUCSORTHOREF
  2

  9
$PUCSORTHOVIEW
 70
     0
  9
$PUCSORGTOP
 10
0.0
 20
0.0
 30
0.0
  9
$PUCSORGBOTTOM
 10
0.0
 20
0.0
 30
0.0
  9
$PUCSORGLEFT
 10
0.0
 20
0.0
 30
0.0
  9
$PUCSORGRIGHT
 10
0.0
 20
0.0
 30
0.0
  9
$PUCSORGFRONT
 10
0.0
 20
0.0
 30
0.0
  9
$PUCSORGBACK
 10
0.0
 20
0.0
 30
0.0
  9
$USERI1
 70
     0
  9
$USERI2
 70
     0
  9
$USERI3
 70
     0
  9
$USERI4
 70
     0
  9
$USERI5
 70
     0
  9
$USERR1
 40
0.0
  9
$USERR2
 40
0.0
  9
$USERR3
 40
0.0
  9
$USERR4
 40
0.0
  9
$USERR5
 40
0.0
  9
$WORLDVIEW
 70
     1
  9
$SHADEDGE
 70
     3
  9
$SHADEDIF
 70
    70
  9
$TILEMODE
 70
     1
  9
$MAXACTVP
 70
    16
  9
$PINSBASE
 10
0.0
 20
0.0
 30
0.0
  9
$PLIMCHECK
 70
     0
  9
$PEXTMIN
 10
7.849731390318197
 20
6.345317731877798
 30
-0.0015258207003583
  9
$PEXTMAX
 10
419.4107617439737
 20
295.0330985033474
 30
0.0000000349246037
  9
$PLIMMIN
 10
4.689054530676115
 20
3.159077773078933
  9
$PLIMMAX
 10
424.8473797259886
 20
300.1909076070633
  9
$UNITMODE
 70
     0
  9
$VISRETAIN
 70
     0
  9
$PLINEGEN
 70
     0
  9
$PSLTSCALE
 70
     1
  9
$TREEDEPTH
 70
  3020
  9
$CMLSTYLE
  2
STANDARD
  9
$CMLJUST
 70
     0
  9
$CMLSCALE
 40
1.0
  9
$PROXYGRAPHICS
 70
     1
  9
$MEASUREMENT
 70
     1
  9
$CELWEIGHT
370
    -1
  9
$ENDCAPS
280
     0
  9
$JOINSTYLE
280
     0
  9
$LWDISPLAY
290
     0
  9
$INSUNITS
 70
     0
  9
$HYPERLINKBASE
  1

  9
$STYLESHEET
  1

  9
$XEDIT
290
     1
  9
$CEPSNTYPE
380
     0
  9
$PSTYLEMODE
290
     1
  9
$FINGERPRINTGUID
  2
{86623588-72C1-4EF3-B6FD-E8CBEE47F90E}
  9
$VERSIONGUID
  2
{278ECE27-9079-4B99-B41E-7D1BECCD3928}
  9
$EXTNAMES
290
     1
  9
$PSVPSCALE
 40
0.0
  9
$OLESTARTUP
290
     0
  0
ENDSEC
  0
SECTION
  2
CLASSES
  0
CLASS
  1
ACDBDICTIONARYWDFLT
  2
AcDbDictionaryWithDefault
  3
ObjectDBX Classes
 90
        0
280
     0
281
     0
  0
CLASS
  1
TABLESTYLE
  2
AcDbTableStyle
  3
ObjectDBX Classes
 90
     4095
280
     0
281
     0
  0
CLASS
  1
DICTIONARYVAR
  2
AcDbDictionaryVar
  3
ObjectDBX Classes
 90
        0
280
     0
281
     0
  0
CLASS
  1
SORTENTSTABLE
  2
AcDbSortentsTable
  3
ObjectDBX Classes
 90
        0
280
     0
281
     0
  0
CLASS
  1
PLOTSETTINGS
  2
AcDbPlotSettings
  3
ObjectDBX Classes
 90
    32768
280
     0
281
     0
  0
CLASS
  1
ACDBPLACEHOLDER
  2
AcDbPlaceHolder
  3
ObjectDBX Classes
 90
        0
280
     0
281
     0
  0
CLASS
  1
LAYOUT
  2
AcDbLayout
  3
ObjectDBX Classes
 90
        0
280
     0
281
     0
  0
CLASS
  1
MATERIAL
  2
AcDbMaterial
  3
ObjectDBX Classes
 90
     1153
280
     0
281
     0
  0
CLASS
  1
VISUALSTYLE
  2
AcDbVisualStyle
  3
ObjectDBX Classes
 90
     4095
280
     0
281
     0
  0
CLASS
  1
SCALE
  2
AcDbScale
  3
ObjectDBX Classes
 90
     1153
280
     0
281
     0
  0
CLASS
  1
MLEADERSTYLE
  2
AcDbMLeaderStyle
  3
ACDB_MLEADERSTYLE_CLASS
 90
     4095
280
     0
281
     0
  0
CLASS
  1
CELLSTYLEMAP
  2
AcDbCellStyleMap
  3
ObjectDBX Classes
 90
     1152
280
     0
281
     0
  0
ENDSEC
  0
SECTION
  2
TABLES
  0
TABLE
  2
VPORT
  5
8
330
0
100
AcDbSymbolTable
 70
     1
  0
VPORT
  5
141A1
330
8
100
AcDbSymbolTableRecord
100
AcDbViewportTableRecord
  2
*Active
 70
     0
 10
0.0
 20
0.0
 11
1.0
 21
1.0
 12
366.66871906103
 22
293.8080012027731
 13
0.0
 23
0.0
 14
168.0
 24
168.0
 15
0.0
 25
0.0
 16
0.0
 26
0.0
 36
1.0
 17
0.0
 27
0.0
 37
0.0
 40
509.0370631537869
 41
1.638095238095238
 42
50.0
 43
0.0
 44
0.0
 50
0.0
 51
0.0
 71
     0
 72
   100
 73
     1
 74
     0
 75
     0
 76
     0
 77
     0
 78
     1
281
     0
 65
     1
110
0.0
120
0.0
130
0.0
111
1.0
121
0.0
131
0.0
112
0.0
122
1.0
132
0.0
 79
     0
146
0.0
  0
ENDTAB
  0
TABLE
  2
LTYPE
  5
5
330
0
100
AcDbSymbolTable
 70
     3
  0
LTYPE
  5
14
330
5
100
AcDbSymbolTableRecord
100
AcDbLinetypeTableRecord
  2
BYBLOCK
 70
     0
  3

 72
    65
 73
     0
 40
0.0
  0
LTYPE
  5
15
330
5
100
AcDbSymbolTableRecord
100
AcDbLinetypeTableRecord
  2
BYLAYER
 70
     0
  3

 72
    65
 73
     0
 40
0.0
  0
LTYPE
  5
16
330
5
100
AcDbSymbolTableRecord
100
AcDbLinetypeTableRecord
  2
CONTINUOUS
 70
     0
  3
Solid line
 72
    65
 73
     0
 40
0.0
  0
LTYPE
  5
6E
330
5
100
AcDbSymbolTableRecord
100
AcDbLinetypeTableRecord
  2
CENTER
 70
     0
  3
____ _ ____ _ ____ _ ____ _ ____ _ ____ _ ____ 
 72
    65
 73
     4
 40
2.0
 49
1.25
 74
     0
 49
-0.25
 74
     0
 49
0.25
 74
     0
 49
-0.25
 74
     0
  0
ENDTAB
  0
TABLE
  2
LAYER
  5
2
102
{ACAD_XDICTIONARY
360
12369
102
}
330
0
100
AcDbSymbolTable
 70
     3
  0
LAYER
  5
F
102
{ACAD_XDICTIONARY
360
14382
102
}
330
2
100
AcDbSymbolTableRecord
100
AcDbLayerTableRecord
  2
0
 70
     0
 62
     7
  6
CONTINUOUS
370
    -3
390
12354
  0
LAYER
  5
71
102
{ACAD_XDICTIONARY
360
14384
102
}
330
2
100
AcDbSymbolTableRecord
100
AcDbLayerTableRecord
  2
MEASURE
 70
     0
 62
     8
  6
CONTINUOUS
370
    -3
390
12354
  0
LAYER
  5
72
330
2
100
AcDbSymbolTableRecord
100
AcDbLayerTableRecord
  2
DEFPOINTS
 70
     0
 62
     7
  6
CONTINUOUS
290
     0
370
    -3
390
12354
  0
ENDTAB
  0
TABLE
  2
STYLE
  5
3
330
0
100
AcDbSymbolTable
 70
     2
  0
STYLE
  5
10
330
3
100
AcDbSymbolTableRecord
100
AcDbTextStyleTableRecord
  2
STANDARD
 70
     0
 40
0.0
 41
0.8
 50
0.0
 71
     0
 42
84.17508417508415
  3
TXT
  4
bigfont.shx
  0
STYLE
  5
63
330
3
100
AcDbSymbolTableRecord
100
AcDbTextStyleTableRecord
  2
AD-STANDARD
 70
     0
 40
0.0
 41
0.8
 50
0.0
 71
     0
 42
2.5
  3
C:\Program Files\AutoCAD LT\romans.shx
  4
bigfont.shx
  0
ENDTAB
  0
TABLE
  2
VIEW
  5
6
330
0
100
AcDbSymbolTable
 70
     2
  0
ENDTAB
  0
TABLE
  2
UCS
  5
7
330
0
100
AcDbSymbolTable
 70
     0
  0
ENDTAB
  0
TABLE
  2
APPID
  5
9
330
0
100
AcDbSymbolTable
 70
     5
  0
APPID
  5
11
330
9
100
AcDbSymbolTableRecord
100
AcDbRegAppTableRecord
  2
ACAD
 70
     0
  0
APPID
  5
12363
330
9
100
AcDbSymbolTableRecord
100
AcDbRegAppTableRecord
  2
ACAD_PSEXT
 70
     0
  0
APPID
  5
13A8E
330
9
100
AcDbSymbolTableRecord
100
AcDbRegAppTableRecord
  2
ACAD_DSTYLE_DIMTEXT_FILL
 70
     0
  0
APPID
  5
13D39
330
9
100
AcDbSymbolTableRecord
100
AcDbRegAppTableRecord
  2
ACAD_EXEMPT_FROM_CAD_STANDARDS
 70
     0
  0
APPID
  5
141FC
330
9
100
AcDbSymbolTableRecord
100
AcDbRegAppTableRecord
  2
ACAD_MLEADERVER
 70
     0
  0
ENDTAB
  0
TABLE
  2
DIMSTYLE
  5
A
330
0
100
AcDbSymbolTable
 70
     3
100
AcDbDimStyleTable
 71
     1
340
68
  0
DIMSTYLE
105
1D
330
A
100
AcDbSymbolTableRecord
100
AcDbDimStyleTableRecord
  2
STANDARD
 70
     0
340
10
  0
DIMSTYLE
105
68
102
{ACAD_REACTORS
330
11FFB
330
12018
330
12027
330
12034
330
121F8
330
12205
330
12212
330
13A20
330
13A3D
330
12220
330
14209
330
14216
330
14223
330
14230
330
1423D
102
}
330
A
100
AcDbSymbolTableRecord
100
AcDbDimStyleTableRecord
  2
AD-STANDARD
 70
     0
 41
2.5
 42
1.0
 44
2.0
 73
     0
 74
     0
 77
     1
 78
     8
140
3.5
141
-2.0
147
0.5
172
     1
176
     9
177
     9
178
     2
284
     8
340
63
  0
ENDTAB
  0
TABLE
  2
BLOCK_RECORD
  5
1
330
0
100
AcDbSymbolTable
 70
    25
  0
BLOCK_RECORD
  5
1A
102
{ACAD_XDICTIONARY
360
13F76
102
}
330
1
100
AcDbSymbolTableRecord
100
AcDbBlockTableRecord
  2
*MODEL_SPACE
340
1235B
  0
BLOCK_RECORD
  5
17
330
1
100
AcDbSymbolTableRecord
100
AcDbBlockTableRecord
  2
*PAPER_SPACE
340
1235C
  0
BLOCK_RECORD
  5
11FEF
330
1
100
AcDbSymbolTableRecord
100
AcDbBlockTableRecord
  2
*D0
340
0
  0
BLOCK_RECORD
  5
1200C
330
1
100
AcDbSymbolTableRecord
100
AcDbBlockTableRecord
  2
*D1
340
0
  0
BLOCK_RECORD
  5
12019
330
1
100
AcDbSymbolTableRecord
100
AcDbBlockTableRecord
  2
*D2
340
0
  0
BLOCK_RECORD
  5
12028
330
1
100
AcDbSymbolTableRecord
100
AcDbBlockTableRecord
  2
*D3
340
0
  0
BLOCK_RECORD
  5
121EC
330
1
100
AcDbSymbolTableRecord
100
AcDbBlockTableRecord
  2
*D13
340
0
  0
BLOCK_RECORD
  5
121F9
330
1
100
AcDbSymbolTableRecord
100
AcDbBlockTableRecord
  2
*D14
340
0
  0
BLOCK_RECORD
  5
12206
330
1
100
AcDbSymbolTableRecord
100
AcDbBlockTableRecord
  2
*D15
340
0
  0
BLOCK_RECORD
  5
12214
330
1
100
AcDbSymbolTableRecord
100
AcDbBlockTableRecord
  2
*D16
340
0
  0
BLOCK_RECORD
  5
13A21
330
1
100
AcDbSymbolTableRecord
100
AcDbBlockTableRecord
  2
*D17
340
0
  0
BLOCK_RECORD
  5
13A3E
330
1
100
AcDbSymbolTableRecord
100
AcDbBlockTableRecord
  2
*D18
340
0
  0
BLOCK_RECORD
  5
1420A
330
1
100
AcDbSymbolTableRecord
100
AcDbBlockTableRecord
  2
*D19
340
0
  0
BLOCK_RECORD
  5
14217
330
1
100
AcDbSymbolTableRecord
100
AcDbBlockTableRecord
  2
*D20
340
0
  0
BLOCK_RECORD
  5
14224
330
1
100
AcDbSymbolTableRecord
100
AcDbBlockTableRecord
  2
*D21
340
0
  0
BLOCK_RECORD
  5
14231
330
1
100
AcDbSymbolTableRecord
100
AcDbBlockTableRecord
  2
*D22
340
0
  0
BLOCK_RECORD
  5
1423E
330
1
100
AcDbSymbolTableRecord
100
AcDbBlockTableRecord
  2
*D23
340
0
  0
ENDTAB
  0
ENDSEC
  0
SECTION
  2
BLOCKS
  0
BLOCK
  5
1B
330
1A
100
AcDbEntity
  8
0
100
AcDbBlockBegin
  2
*MODEL_SPACE
 70
     0
 10
0.0
 20
0.0
 30
0.0
  3
*MODEL_SPACE
  1

  0
ENDBLK
  5
1C
330
1A
100
AcDbEntity
  8
0
100
AcDbBlockEnd
  0
BLOCK
  5
18
330
17
100
AcDbEntity
 67
     1
  8
0
100
AcDbBlockBegin
  2
*PAPER_SPACE
 70
     0
 10
0.0
 20
0.0
 30
0.0
  3
*PAPER_SPACE
  1

  0
ENDBLK
  5
19
330
17
100
AcDbEntity
 67
     1
  8
0
100
AcDbBlockEnd
  0
BLOCK
  5
1213B
330
11FEF
100
AcDbEntity
  8
0
100
AcDbBlockBegin
  2
*D0
 70
     1
 10
0.0
 20
0.0
 30
0.0
  3
*D0
  1

  0
LINE
  5
142AB
330
11FEF
100
AcDbEntity
  8
MEASURE
 62
     9
370
    -2
100
AcDbLine
 10
107.1461725350059
 20
340.723042687815
 30
0.0
 11
107.1461725350059
 21
218.7230426878186
 31
0.0
  0
LINE
  5
142AC
330
11FEF
100
AcDbEntity
  8
MEASURE
 62
     9
370
    -2
100
AcDbLine
 10
307.1461725350058
 20
340.7230426878141
 30
0.0
 11
307.1461725350058
 21
218.7230426878186
 31
0.0
  0
LINE
  5
142AD
330
11FEF
100
AcDbEntity
  8
MEASURE
 62
     9
370
    -2
100
AcDbLine
 10
112.1461725350059
 20
222.7230426878186
 30
0.0
 11
302.1461725350059
 21
222.7230426878186
 31
0.0
  0
SOLID
  5
142AE
330
11FEF
100
AcDbEntity
  8
MEASURE
 62
     9
100
AcDbTrace
 10
112.1461725350059
 20
223.5563760211519
 30
0.0
 11
112.1461725350059
 21
221.8897093544853
 31
0.0
 12
107.1461725350059
 22
222.7230426878186
 32
0.0
 13
107.1461725350059
 23
222.7230426878186
 33
0.0
  0
SOLID
  5
142AF
330
11FEF
100
AcDbEntity
  8
MEASURE
 62
     9
100
AcDbTrace
 10
302.1461725350059
 20
223.5563760211519
 30
0.0
 11
302.1461725350059
 21
221.8897093544853
 31
0.0
 12
307.1461725350058
 22
222.7230426878186
 32
0.0
 13
307.1461725350058
 23
222.7230426878186
 33
0.0
  0
MTEXT
  5
142B0
330
11FEF
100
AcDbEntity
  8
MEASURE
 62
     2
100
AcDbMText
 10
207.1461725350059
 20
226.7230426878186
 30
0.0
 40
6.0
 41
0.0
 71
     5
 72
     1
  1
\A1;200
  7
AD-STANDARD
 73
     1
 44
1.0
1001
ACAD
1000
MTEXTBEGIN
1070
    73
1070
     1
1070
    44
1040
1.0
1070
    74
1070
     0
1000
MTEXTEND
  0
POINT
  5
142B1
330
11FEF
100
AcDbEntity
  8
DEFPOINTS
 62
     0
100
AcDbPoint
 10
107.1461725350059
 20
342.723042687815
 30
0.0
  0
POINT
  5
142B2
330
11FEF
100
AcDbEntity
  8
DEFPOINTS
 62
     0
100
AcDbPoint
 10
307.1461725350058
 20
342.7230426878141
 30
0.0
  0
POINT
  5
142B3
330
11FEF
100
AcDbEntity
  8
DEFPOINTS
 62
     0
100
AcDbPoint
 10
307.1461725350058
 20
222.7230426878186
 30
0.0
  0
ENDBLK
  5
12145
330
11FEF
100
AcDbEntity
  8
0
100
AcDbBlockEnd
  0
BLOCK
  5
12130
330
1200C
100
AcDbEntity
  8
0
100
AcDbBlockBegin
  2
*D1
 70
     1
 10
0.0
 20
0.0
 30
0.0
  3
*D1
  1

  0
LINE
  5
14305
330
1200C
100
AcDbEntity
  8
MEASURE
 62
     9
370
    -2
100
AcDbLine
 10
205.1461725350059
 20
252.7230426878186
 30
0.0
 11
73.14617253500483
 21
252.7230426878186
 31
0.0
  0
LINE
  5
14306
330
1200C
100
AcDbEntity
  8
MEASURE
 62
     9
370
    -2
100
AcDbLine
 10
121.0334328098583
 20
487.7230426878158
 30
0.0
 11
73.1461725350049
 21
487.7230426878158
 31
0.0
  0
LINE
  5
14307
330
1200C
100
AcDbEntity
  8
MEASURE
 62
     9
370
    -2
100
AcDbLine
 10
77.14617253500484
 20
257.7230426878186
 30
0.0
 11
77.14617253500489
 21
482.7230426878158
 31
0.0
  0
SOLID
  5
14308
330
1200C
100
AcDbEntity
  8
MEASURE
 62
     9
100
AcDbTrace
 10
76.31283920167151
 20
257.7230426878186
 30
0.0
 11
77.97950586833817
 21
257.7230426878186
 31
0.0
 12
77.14617253500484
 22
252.7230426878186
 32
0.0
 13
77.14617253500484
 23
252.7230426878186
 33
0.0
  0
SOLID
  5
14309
330
1200C
100
AcDbEntity
  8
MEASURE
 62
     9
100
AcDbTrace
 10
76.31283920167156
 20
482.7230426878158
 30
0.0
 11
77.97950586833822
 21
482.7230426878158
 31
0.0
 12
77.14617253500489
 22
487.7230426878158
 32
0.0
 13
77.14617253500489
 23
487.7230426878158
 33
0.0
  0
MTEXT
  5
1430A
330
1200C
100
AcDbEntity
  8
MEASURE
 62
     2
100
AcDbMText
 10
73.14617253500481
 20
370.2230426878173
 30
0.0
 40
6.0
 41
0.0
 71
     5
 72
     1
  1
\A1;235
  7
AD-STANDARD
 11
0.0000000000000001
 21
1.0
 31
0.0
 73
     1
 44
1.0
1001
ACAD
1000
MTEXTBEGIN
1070
    73
1070
     1
1070
    44
1040
1.0
1070
    74
1070
     0
1000
MTEXTEND
  0
POINT
  5
1430B
330
1200C
100
AcDbEntity
  8
DEFPOINTS
 62
     0
100
AcDbPoint
 10
207.1461725350059
 20
252.7230426878186
 30
0.0
  0
POINT
  5
1430C
330
1200C
100
AcDbEntity
  8
DEFPOINTS
 62
     0
100
AcDbPoint
 10
123.0334328098583
 20
487.7230426878158
 30
0.0
  0
POINT
  5
1430D
330
1200C
100
AcDbEntity
  8
DEFPOINTS
 62
     0
100
AcDbPoint
 10
77.14617253500489
 20
487.7230426878158
 30
0.0
  0
ENDBLK
  5
1213A
330
1200C
100
AcDbEntity
  8
0
100
AcDbBlockEnd
  0
BLOCK
  5
12123
330
12019
100
AcDbEntity
  8
0
100
AcDbBlockBegin
  2
*D2
 70
     1
 10
0.0
 20
0.0
 30
0.0
  3
*D2
  1

  0
LINE
  5
1430E
330
12019
100
AcDbEntity
  8
MEASURE
 62
     9
370
    -2
100
AcDbLine
 10
121.0334328098583
 20
487.7230426878158
 30
0.0
 11
73.1461725350049
 21
487.7230426878158
 31
0.0
  0
LINE
  5
1430F
330
12019
100
AcDbEntity
  8
MEASURE
 62
     9
370
    -2
100
AcDbLine
 10
140.1875538001545
 20
505.723042687815
 30
0.0
 11
73.1461725350049
 21
505.723042687815
 31
0.0
  0
LINE
  5
14310
330
12019
100
AcDbEntity
  8
MEASURE
 62
     9
370
    -2
100
AcDbLine
 10
77.14617253500489
 20
492.7230426878158
 30
0.0
 11
77.14617253500489
 21
500.723042687815
 31
0.0
  0
SOLID
  5
14311
330
12019
100
AcDbEntity
  8
MEASURE
 62
     9
100
AcDbTrace
 10
76.31283920167156
 20
492.7230426878158
 30
0.0
 11
77.97950586833822
 21
492.7230426878158
 31
0.0
 12
77.14617253500489
 22
487.7230426878158
 32
0.0
 13
77.14617253500489
 23
487.7230426878158
 33
0.0
  0
SOLID
  5
14312
330
12019
100
AcDbEntity
  8
MEASURE
 62
     9
100
AcDbTrace
 10
76.31283920167156
 20
500.723042687815
 30
0.0
 11
77.97950586833822
 21
500.723042687815
 31
0.0
 12
77.14617253500489
 22
505.723042687815
 32
0.0
 13
77.14617253500489
 23
505.723042687815
 33
0.0
  0
MTEXT
  5
14313
330
12019
100
AcDbEntity
  8
MEASURE
 62
     2
100
AcDbMText
 10
73.14617253500481
 20
496.7230426878154
 30
0.0
 40
6.0
 41
0.0
 71
     5
 72
     1
  1
\A1;18
  7
AD-STANDARD
 11
0.0000000000000001
 21
1.0
 31
0.0
 73
     1
 44
1.0
1001
ACAD
1000
MTEXTBEGIN
1070
    73
1070
     1
1070
    44
1040
1.0
1070
    74
1070
     0
1000
MTEXTEND
  0
POINT
  5
14314
330
12019
100
AcDbEntity
  8
DEFPOINTS
 62
     0
100
AcDbPoint
 10
123.0334328098583
 20
487.7230426878158
 30
0.0
  0
POINT
  5
14315
330
12019
100
AcDbEntity
  8
DEFPOINTS
 62
     0
100
AcDbPoint
 10
142.1875538001545
 20
505.723042687815
 30
0.0
  0
POINT
  5
14316
330
12019
100
AcDbEntity
  8
DEFPOINTS
 62
     0
100
AcDbPoint
 10
77.14617253500489
 20
505.723042687815
 30
0.0
  0
ENDBLK
  5
1212F
330
12019
100
AcDbEntity
  8
0
100
AcDbBlockEnd
  0
BLOCK
  5
12118
330
12028
100
AcDbEntity
  8
0
100
AcDbBlockBegin
  2
*D3
 70
     1
 10
0.0
 20
0.0
 30
0.0
  3
*D3
  1

  0
LINE
  5
14320
330
12028
100
AcDbEntity
  8
MEASURE
 62
     9
370
    -2
100
AcDbLine
 10
82.17606165754887
 20
505.723042687815
 30
0.0
 11
59.14617253500489
 21
505.723042687815
 31
0.0
  0
LINE
  5
14321
330
12028
100
AcDbEntity
  8
MEASURE
 62
     9
370
    -2
100
AcDbLine
 10
82.17606165754887
 20
252.7230426878186
 30
0.0
 11
59.14617253500484
 21
252.7230426878186
 31
0.0
  0
LINE
  5
14322
330
12028
100
AcDbEntity
  8
MEASURE
 62
     9
370
    -2
100
AcDbLine
 10
63.1461725350049
 20
500.723042687815
 30
0.0
 11
63.14617253500483
 21
257.7230426878186
 31
0.0
  0
SOLID
  5
14323
330
12028
100
AcDbEntity
  8
MEASURE
 62
     9
100
AcDbTrace
 10
62.31283920167156
 20
500.723042687815
 30
0.0
 11
63.97950586833823
 21
500.723042687815
 31
0.0
 12
63.1461725350049
 22
505.723042687815
 32
0.0
 13
63.1461725350049
 23
505.723042687815
 33
0.0
  0
SOLID
  5
14324
330
12028
100
AcDbEntity
  8
MEASURE
 62
     9
100
AcDbTrace
 10
62.3128392016715
 20
257.7230426878186
 30
0.0
 11
63.97950586833817
 21
257.7230426878186
 31
0.0
 12
63.14617253500483
 22
252.7230426878186
 32
0.0
 13
63.14617253500483
 23
252.7230426878186
 33
0.0
  0
MTEXT
  5
14325
330
12028
100
AcDbEntity
  8
MEASURE
 62
     2
100
AcDbMText
 10
59.1461725350048
 20
379.2230426878168
 30
0.0
 40
6.0
 41
0.0
 71
     5
 72
     1
  1
\A1;253
  7
AD-STANDARD
 11
0.0000000000000001
 21
1.0
 31
0.0
 73
     1
 44
1.0
1001
ACAD
1000
MTEXTBEGIN
1070
    73
1070
     1
1070
    44
1040
1.0
1070
    74
1070
     0
1000
MTEXTEND
  0
POINT
  5
14326
330
12028
100
AcDbEntity
  8
DEFPOINTS
 62
     0
100
AcDbPoint
 10
84.17606165754888
 20
505.723042687815
 30
0.0
  0
POINT
  5
14327
330
12028
100
AcDbEntity
  8
DEFPOINTS
 62
     0
100
AcDbPoint
 10
84.17606165754888
 20
252.7230426878186
 30
0.0
  0
POINT
  5
14328
330
12028
100
AcDbEntity
  8
DEFPOINTS
 62
     0
100
AcDbPoint
 10
63.14617253500483
 20
252.7230426878186
 30
0.0
  0
ENDBLK
  5
12122
330
12028
100
AcDbEntity
  8
0
100
AcDbBlockEnd
  0
BLOCK
  5
122E9
330
121EC
100
AcDbEntity
  8
0
100
AcDbBlockBegin
  2
*D13
 70
     1
 10
0.0
 20
0.0
 30
0.0
  3
*D13
  1

  0
LINE
  5
142E1
330
121EC
100
AcDbEntity
  8
MEASURE
 62
     9
370
    -2
100
AcDbLine
 10
107.1461725350041
 20
419.7230426877521
 30
0.0
 11
107.1461725350041
 21
539.723042687815
 31
0.0
  0
LINE
  5
142E2
330
121EC
100
AcDbEntity
  8
MEASURE
 62
     9
370
    -2
100
AcDbLine
 10
207.1461725350041
 20
470.8792042509231
 30
0.0
 11
207.1461725350041
 21
539.723042687815
 31
0.0
  0
LINE
  5
142E3
330
121EC
100
AcDbEntity
  8
MEASURE
 62
     9
370
    -2
100
AcDbLine
 10
112.1461725350041
 20
535.723042687815
 30
0.0
 11
202.1461725350041
 21
535.723042687815
 31
0.0
  0
SOLID
  5
142E4
330
121EC
100
AcDbEntity
  8
MEASURE
 62
     9
100
AcDbTrace
 10
112.1461725350041
 20
536.5563760211483
 30
0.0
 11
112.1461725350041
 21
534.8897093544816
 31
0.0
 12
107.1461725350041
 22
535.723042687815
 32
0.0
 13
107.1461725350041
 23
535.723042687815
 33
0.0
  0
SOLID
  5
142E5
330
121EC
100
AcDbEntity
  8
MEASURE
 62
     9
100
AcDbTrace
 10
202.1461725350041
 20
536.5563760211483
 30
0.0
 11
202.1461725350041
 21
534.8897093544816
 31
0.0
 12
207.1461725350041
 22
535.723042687815
 32
0.0
 13
207.1461725350041
 23
535.723042687815
 33
0.0
  0
MTEXT
  5
142E6
330
121EC
100
AcDbEntity
  8
MEASURE
 62
     2
100
AcDbMText
 10
157.1461725350041
 20
541.2944712592435
 30
0.0
 40
6.0
 41
0.0
 71
     5
 72
     1
  1
\A1;(100)
  7
AD-STANDARD
 73
     1
 44
1.0
1001
ACAD
1000
MTEXTBEGIN
1070
    73
1070
     1
1070
    44
1040
1.0
1070
    74
1070
     0
1000
MTEXTEND
  0
POINT
  5
142E7
330
121EC
100
AcDbEntity
  8
DEFPOINTS
 62
     0
100
AcDbPoint
 10
107.1461725350041
 20
417.7230426877521
 30
0.0
  0
POINT
  5
142E8
330
121EC
100
AcDbEntity
  8
DEFPOINTS
 62
     0
100
AcDbPoint
 10
207.1461725350041
 20
468.8792042509231
 30
0.0
  0
POINT
  5
142E9
330
121EC
100
AcDbEntity
  8
DEFPOINTS
 62
     0
100
AcDbPoint
 10
207.1461725350041
 20
535.723042687815
 30
0.0
  0
ENDBLK
  5
122F3
330
121EC
100
AcDbEntity
  8
0
100
AcDbBlockEnd
  0
BLOCK
  5
122F4
330
121F9
100
AcDbEntity
  8
0
100
AcDbBlockBegin
  2
*D14
 70
     1
 10
0.0
 20
0.0
 30
0.0
  3
*D14
  1

  0
LINE
  5
142EA
330
121F9
100
AcDbEntity
  8
MEASURE
 62
     9
370
    -2
100
AcDbLine
 10
307.1461725350058
 20
419.7230426877431
 30
0.0
 11
307.1461725350058
 21
539.6213390395481
 31
0.0
  0
LINE
  5
142EB
330
121F9
100
AcDbEntity
  8
MEASURE
 62
     9
370
    -2
100
AcDbLine
 10
207.1461725350041
 20
537.6213390395482
 30
0.0
 11
207.1461725350041
 21
539.6213390395481
 31
0.0
  0
LINE
  5
142EC
330
121F9
100
AcDbEntity
  8
MEASURE
 62
     9
370
    -2
100
AcDbLine
 10
302.1461725350059
 20
535.6213390395481
 30
0.0
 11
212.146172535004
 21
535.6213390395481
 31
0.0
  0
SOLID
  5
142ED
330
121F9
100
AcDbEntity
  8
MEASURE
 62
     9
100
AcDbTrace
 10
302.1461725350059
 20
536.4546723728815
 30
0.0
 11
302.1461725350059
 21
534.7880057062147
 31
0.0
 12
307.1461725350058
 22
535.6213390395481
 32
0.0
 13
307.1461725350058
 23
535.6213390395481
 33
0.0
  0
SOLID
  5
142EE
330
121F9
100
AcDbEntity
  8
MEASURE
 62
     9
100
AcDbTrace
 10
212.146172535004
 20
536.4546723728815
 30
0.0
 11
212.146172535004
 21
534.7880057062147
 31
0.0
 12
207.1461725350041
 22
535.6213390395481
 32
0.0
 13
207.1461725350041
 23
535.6213390395481
 33
0.0
  0
MTEXT
  5
142EF
330
121F9
100
AcDbEntity
  8
MEASURE
 62
     2
100
AcDbMText
 10
257.146172535005
 20
541.1927676109767
 30
0.0
 40
6.0
 41
0.0
 71
     5
 72
     1
  1
\A1;(100)
  7
AD-STANDARD
 73
     1
 44
1.0
1001
ACAD
1000
MTEXTBEGIN
1070
    73
1070
     1
1070
    44
1040
1.0
1070
    74
1070
     0
1000
MTEXTEND
  0
POINT
  5
142F0
330
121F9
100
AcDbEntity
  8
DEFPOINTS
 62
     0
100
AcDbPoint
 10
307.1461725350058
 20
417.7230426877431
 30
0.0
  0
POINT
  5
142F1
330
121F9
100
AcDbEntity
  8
DEFPOINTS
 62
     0
100
AcDbPoint
 10
207.1461725350041
 20
535.6213390395481
 30
0.0
  0
POINT
  5
142F2
330
121F9
100
AcDbEntity
  8
DEFPOINTS
 62
     0
100
AcDbPoint
 10
207.1461725350041
 20
535.6213390395481
 30
0.0
  0
ENDBLK
  5
122FE
330
121F9
100
AcDbEntity
  8
0
100
AcDbBlockEnd
  0
BLOCK
  5
12279
330
12206
100
AcDbEntity
  8
0
100
AcDbBlockBegin
  2
*D15
 70
     1
 10
0.0
 20
0.0
 30
0.0
  3
*D15
  1

  0
LINE
  5
142C6
330
12206
100
AcDbEntity
  8
MEASURE
 62
     9
370
    -2
100
AcDbLine
 10
293.2589122601535
 20
487.7230426878177
 30
0.0
 11
341.1461725350059
 21
487.7230426878177
 31
0.0
  0
LINE
  5
142C7
330
12206
100
AcDbEntity
  8
MEASURE
 62
     9
370
    -2
100
AcDbLine
 10
288.2437169475775
 20
406.7230426878158
 30
0.0
 11
341.1461725350059
 21
406.7230426878158
 31
0.0
  0
LINE
  5
142C8
330
12206
100
AcDbEntity
  8
MEASURE
 62
     9
370
    -2
100
AcDbLine
 10
337.1461725350059
 20
482.7230426878176
 30
0.0
 11
337.1461725350059
 21
411.7230426878157
 31
0.0
  0
SOLID
  5
142C9
330
12206
100
AcDbEntity
  8
MEASURE
 62
     9
100
AcDbTrace
 10
336.3128392016725
 20
482.7230426878176
 30
0.0
 11
337.9795058683392
 21
482.7230426878176
 31
0.0
 12
337.1461725350059
 22
487.7230426878177
 32
0.0
 13
337.1461725350059
 23
487.7230426878177
 33
0.0
  0
SOLID
  5
142CA
330
12206
100
AcDbEntity
  8
MEASURE
 62
     9
100
AcDbTrace
 10
336.3128392016725
 20
411.7230426878157
 30
0.0
 11
337.9795058683392
 21
411.7230426878157
 31
0.0
 12
337.1461725350059
 22
406.7230426878158
 32
0.0
 13
337.1461725350059
 23
406.7230426878158
 33
0.0
  0
MTEXT
  5
142CB
330
12206
100
AcDbEntity
  8
MEASURE
 62
     2
100
AcDbMText
 10
331.5747439635772
 20
447.2230426878168
 30
0.0
 40
6.0
 41
0.0
 71
     5
 72
     1
  1
\A1;(81)
  7
AD-STANDARD
 11
0.0000000000000001
 21
1.0
 31
0.0
 73
     1
 44
1.0
1001
ACAD
1000
MTEXTBEGIN
1070
    73
1070
     1
1070
    44
1040
1.0
1070
    74
1070
     0
1000
MTEXTEND
  0
POINT
  5
142CC
330
12206
100
AcDbEntity
  8
DEFPOINTS
 62
     0
100
AcDbPoint
 10
291.2589122601535
 20
487.7230426878177
 30
0.0
  0
POINT
  5
142CD
330
12206
100
AcDbEntity
  8
DEFPOINTS
 62
     0
100
AcDbPoint
 10
286.2437169475775
 20
406.7230426878158
 30
0.0
  0
POINT
  5
142CE
330
12206
100
AcDbEntity
  8
DEFPOINTS
 62
     0
100
AcDbPoint
 10
337.1461725350059
 20
406.7230426878158
 30
0.0
  0
ENDBLK
  5
12283
330
12206
100
AcDbEntity
  8
0
100
AcDbBlockEnd
  0
BLOCK
  5
122DD
330
12214
100
AcDbEntity
  8
0
100
AcDbBlockBegin
  2
*D16
 70
     1
 10
0.0
 20
0.0
 30
0.0
  3
*D16
  1

  0
LINE
  5
142CF
330
12214
100
AcDbEntity
  8
MEASURE
 62
     9
370
    -2
100
AcDbLine
 10
209.1461725350059
 20
252.7230426878186
 30
0.0
 11
341.1461725350058
 21
252.7230426878186
 31
0.0
  0
LINE
  5
142D0
330
12214
100
AcDbEntity
  8
MEASURE
 62
     9
370
    -2
100
AcDbLine
 10
335.1461725350059
 20
406.7230426878158
 30
0.0
 11
333.1461725350059
 21
406.7230426878158
 31
0.0
  0
LINE
  5
142D1
330
12214
100
AcDbEntity
  8
MEASURE
 62
     9
370
    -2
100
AcDbLine
 10
337.1461725350058
 20
257.7230426878186
 30
0.0
 11
337.1461725350059
 21
401.7230426878158
 31
0.0
  0
SOLID
  5
142D2
330
12214
100
AcDbEntity
  8
MEASURE
 62
     9
100
AcDbTrace
 10
336.3128392016725
 20
257.7230426878186
 30
0.0
 11
337.9795058683391
 21
257.7230426878186
 31
0.0
 12
337.1461725350058
 22
252.7230426878186
 32
0.0
 13
337.1461725350058
 23
252.7230426878186
 33
0.0
  0
SOLID
  5
142D3
330
12214
100
AcDbEntity
  8
MEASURE
 62
     9
100
AcDbTrace
 10
336.3128392016725
 20
401.7230426878158
 30
0.0
 11
337.9795058683392
 21
401.7230426878158
 31
0.0
 12
337.1461725350059
 22
406.7230426878158
 32
0.0
 13
337.1461725350059
 23
406.7230426878158
 33
0.0
  0
MTEXT
  5
142D4
330
12214
100
AcDbEntity
  8
MEASURE
 62
     2
100
AcDbMText
 10
330.8128392016724
 20
329.7230426878173
 30
0.0
 40
7.0
 41
0.0
 71
     5
 72
     1
  1
\A1;(154)
  7
AD-STANDARD
 11
0.0000000000000001
 21
1.0
 31
0.0
 73
     1
 44
1.0
1001
ACAD
1000
MTEXTBEGIN
1070
    73
1070
     1
1070
    44
1040
1.0
1070
    74
1070
     0
1000
MTEXTEND
  0
POINT
  5
142D5
330
12214
100
AcDbEntity
  8
DEFPOINTS
 62
     0
100
AcDbPoint
 10
207.1461725350059
 20
252.7230426878186
 30
0.0
  0
POINT
  5
142D6
330
12214
100
AcDbEntity
  8
DEFPOINTS
 62
     0
100
AcDbPoint
 10
337.1461725350059
 20
406.7230426878158
 30
0.0
  0
POINT
  5
142D7
330
12214
100
AcDbEntity
  8
DEFPOINTS
 62
     0
100
AcDbPoint
 10
337.1461725350059
 20
406.7230426878158
 30
0.0
  0
ENDBLK
  5
122E7
330
12214
100
AcDbEntity
  8
0
100
AcDbBlockEnd
  0
BLOCK
  5
13A2B
330
13A21
100
AcDbEntity
  8
0
100
AcDbBlockBegin
  2
*D17
 70
     1
 10
0.0
 20
0.0
 30
0.0
  3
*D17
  1

  0
LINE
  5
142FC
330
13A21
100
AcDbEntity
  8
MEASURE
 62
     9
370
    -2
100
AcDbLine
 10
150.7461725350053
 20
148.3427528496358
 30
0.0
 11
73.14617253500485
 21
148.3427528496358
 31
0.0
  0
LINE
  5
142FD
330
13A21
100
AcDbEntity
  8
MEASURE
 62
     9
370
    -2
100
AcDbLine
 10
116.646172535005
 20
76.34275284964044
 30
0.0
 11
73.14617253500483
 21
76.34275284964044
 31
0.0
  0
LINE
  5
142FE
330
13A21
100
AcDbEntity
  8
MEASURE
 62
     9
370
    -2
100
AcDbLine
 10
77.14617253500485
 20
143.3427528496358
 30
0.0
 11
77.14617253500484
 21
81.34275284964045
 31
0.0
  0
SOLID
  5
142FF
330
13A21
100
AcDbEntity
  8
MEASURE
 62
     9
100
AcDbTrace
 10
76.31283920167152
 20
143.3427528496358
 30
0.0
 11
77.97950586833818
 21
143.3427528496358
 31
0.0
 12
77.14617253500485
 22
148.3427528496358
 32
0.0
 13
77.14617253500485
 23
148.3427528496358
 33
0.0
  0
SOLID
  5
14300
330
13A21
100
AcDbEntity
  8
MEASURE
 62
     9
100
AcDbTrace
 10
76.31283920167151
 20
81.34275284964045
 30
0.0
 11
77.97950586833817
 21
81.34275284964045
 31
0.0
 12
77.14617253500484
 22
76.34275284964044
 32
0.0
 13
77.14617253500484
 23
76.34275284964044
 33
0.0
  0
MTEXT
  5
14301
330
13A21
100
AcDbEntity
  8
MEASURE
 62
     2
100
AcDbMText
 10
73.14617253500482
 20
112.3427528496381
 30
0.0
 40
6.0
 41
0.0
 71
     5
 72
     1
  1
\A1;72
  7
AD-STANDARD
 11
0.0000000000000001
 21
1.0
 31
0.0
 73
     1
 44
1.0
1001
ACAD
1000
MTEXTBEGIN
1070
    73
1070
     1
1070
    44
1040
1.0
1070
    74
1070
     0
1000
MTEXTEND
  0
POINT
  5
14302
330
13A21
100
AcDbEntity
  8
DEFPOINTS
 62
     0
100
AcDbPoint
 10
152.7461725350053
 20
148.3427528496358
 30
0.0
  0
POINT
  5
14303
330
13A21
100
AcDbEntity
  8
DEFPOINTS
 62
     0
100
AcDbPoint
 10
118.646172535005
 20
76.34275284964044
 30
0.0
  0
POINT
  5
14304
330
13A21
100
AcDbEntity
  8
DEFPOINTS
 62
     0
100
AcDbPoint
 10
77.14617253500484
 20
76.34275284964044
 30
0.0
  0
ENDBLK
  5
13A2C
330
13A21
100
AcDbEntity
  8
0
100
AcDbBlockEnd
  0
BLOCK
  5
13A48
330
13A3E
100
AcDbEntity
  8
0
100
AcDbBlockBegin
  2
*D18
 70
     1
 10
0.0
 20
0.0
 30
0.0
  3
*D18
  1

  0
LINE
  5
14299
330
13A3E
100
AcDbEntity
  8
MEASURE
 62
     9
370
    -2
100
AcDbLine
 10
151.4003936221147
 20
143.4075854767061
 30
0.0
 11
151.4003936221147
 21
182.3427528496404
 31
0.0
  0
LINE
  5
1429A
330
13A3E
100
AcDbEntity
  8
MEASURE
 62
     9
370
    -2
100
AcDbLine
 10
262.8919514478962
 20
143.4075854767061
 30
0.0
 11
262.8919514478962
 21
182.3427528496404
 31
0.0
  0
LINE
  5
1429B
330
13A3E
100
AcDbEntity
  8
MEASURE
 62
     9
370
    -2
100
AcDbLine
 10
156.4003936221147
 20
178.3427528496404
 30
0.0
 11
257.8919514478962
 21
178.3427528496404
 31
0.0
  0
SOLID
  5
1429C
330
13A3E
100
AcDbEntity
  8
MEASURE
 62
     9
100
AcDbTrace
 10
156.4003936221147
 20
179.1760861829737
 30
0.0
 11
156.4003936221147
 21
177.509419516307
 31
0.0
 12
151.4003936221147
 22
178.3427528496404
 32
0.0
 13
151.4003936221147
 23
178.3427528496404
 33
0.0
  0
SOLID
  5
1429D
330
13A3E
100
AcDbEntity
  8
MEASURE
 62
     9
100
AcDbTrace
 10
257.8919514478962
 20
179.1760861829737
 30
0.0
 11
257.8919514478962
 21
177.509419516307
 31
0.0
 12
262.8919514478962
 22
178.3427528496404
 32
0.0
 13
262.8919514478962
 23
178.3427528496404
 33
0.0
  0
MTEXT
  5
1429E
330
13A3E
100
AcDbEntity
  8
MEASURE
 62
     2
100
AcDbMText
 10
207.1461725350054
 20
182.3427528496404
 30
0.0
 40
6.0
 41
0.0
 71
     5
 72
     1
  1
\A1;%%C111.5
  7
AD-STANDARD
 73
     1
 44
1.0
1001
ACAD
1000
MTEXTBEGIN
1070
    73
1070
     1
1070
    44
1040
1.0
1070
    74
1070
     0
1000
MTEXTEND
  0
POINT
  5
1429F
330
13A3E
100
AcDbEntity
  8
DEFPOINTS
 62
     0
100
AcDbPoint
 10
151.4003936221147
 20
141.4075854767061
 30
0.0
  0
POINT
  5
142A0
330
13A3E
100
AcDbEntity
  8
DEFPOINTS
 62
     0
100
AcDbPoint
 10
262.8919514478962
 20
141.4075854767061
 30
0.0
  0
POINT
  5
142A1
330
13A3E
100
AcDbEntity
  8
DEFPOINTS
 62
     0
100
AcDbPoint
 10
262.8919514478962
 20
178.3427528496404
 30
0.0
  0
ENDBLK
  5
13A49
330
13A3E
100
AcDbEntity
  8
0
100
AcDbBlockEnd
  0
BLOCK
  5
1420B
330
1420A
100
AcDbEntity
  8
0
100
AcDbBlockBegin
  2
*D19
 70
     1
 10
0.0
 20
0.0
 30
0.0
  3
*D19
  1

  0
LINE
  5
14371
330
1420A
100
AcDbEntity
  8
MEASURE
 62
     9
370
    -2
100
AcDbLine
 10
123.1461725350068
 20
73.34275284963974
 30
0.0
 11
123.1461725350068
 21
41.34275284963973
 31
0.0
  0
LINE
  5
14372
330
1420A
100
AcDbEntity
  8
MEASURE
 62
     9
370
    -2
100
AcDbLine
 10
291.146172535005
 20
73.34275284963974
 30
0.0
 11
291.146172535005
 21
41.34275284963973
 31
0.0
  0
LINE
  5
14373
330
1420A
100
AcDbEntity
  8
MEASURE
 62
     9
370
    -2
100
AcDbLine
 10
128.1461725350067
 20
45.34275284963974
 30
0.0
 11
286.146172535005
 21
45.34275284963974
 31
0.0
  0
SOLID
  5
14374
330
1420A
100
AcDbEntity
  8
MEASURE
 62
     9
100
AcDbTrace
 10
128.1461725350067
 20
46.17608618297307
 30
0.0
 11
128.1461725350067
 21
44.5094195163064
 31
0.0
 12
123.1461725350068
 22
45.34275284963974
 32
0.0
 13
123.1461725350068
 23
45.34275284963974
 33
0.0
  0
SOLID
  5
14375
330
1420A
100
AcDbEntity
  8
MEASURE
 62
     9
100
AcDbTrace
 10
286.146172535005
 20
46.17608618297307
 30
0.0
 11
286.146172535005
 21
44.5094195163064
 31
0.0
 12
291.146172535005
 22
45.34275284963974
 32
0.0
 13
291.146172535005
 23
45.34275284963974
 33
0.0
  0
MTEXT
  5
14376
330
1420A
100
AcDbEntity
  8
MEASURE
 62
     2
100
AcDbMText
 10
207.1461725350059
 20
49.34275284963973
 30
0.0
 40
6.0
 41
0.0
 71
     5
 72
     1
  1
\A1;168
  7
AD-STANDARD
 73
     1
 44
1.0
1001
ACAD
1000
MTEXTBEGIN
1070
    73
1070
     1
1070
    44
1040
1.0
1070
    74
1070
     0
1000
MTEXTEND
  0
POINT
  5
14377
330
1420A
100
AcDbEntity
  8
DEFPOINTS
 62
     0
100
AcDbPoint
 10
123.1461725350068
 20
75.34275284963974
 30
0.0
  0
POINT
  5
14378
330
1420A
100
AcDbEntity
  8
DEFPOINTS
 62
     0
100
AcDbPoint
 10
291.146172535005
 20
75.34275284963974
 30
0.0
  0
POINT
  5
14379
330
1420A
100
AcDbEntity
  8
DEFPOINTS
 62
     0
100
AcDbPoint
 10
291.146172535005
 20
45.34275284963974
 30
0.0
  0
ENDBLK
  5
1420C
330
1420A
100
AcDbEntity
  8
0
100
AcDbBlockEnd
  0
BLOCK
  5
14218
330
14217
100
AcDbEntity
  8
0
100
AcDbBlockBegin
  2
*D20
 70
     1
 10
0.0
 20
0.0
 30
0.0
  3
*D20
  1

  0
LINE
  5
14368
330
14217
100
AcDbEntity
  8
MEASURE
 62
     9
370
    -2
100
AcDbLine
 10
491.6842006994756
 20
73.34275284963974
 30
0.0
 11
491.6842006994756
 21
41.34275284963973
 31
0.0
  0
LINE
  5
14369
330
14217
100
AcDbEntity
  8
MEASURE
 62
     9
370
    -2
100
AcDbLine
 10
663.6842006994758
 20
73.34275284963974
 30
0.0
 11
663.6842006994758
 21
41.34275284963973
 31
0.0
  0
LINE
  5
1436A
330
14217
100
AcDbEntity
  8
MEASURE
 62
     9
370
    -2
100
AcDbLine
 10
496.6842006994756
 20
45.34275284963974
 30
0.0
 11
658.6842006994758
 21
45.34275284963974
 31
0.0
  0
SOLID
  5
1436B
330
14217
100
AcDbEntity
  8
MEASURE
 62
     9
100
AcDbTrace
 10
496.6842006994756
 20
46.17608618297307
 30
0.0
 11
496.6842006994756
 21
44.5094195163064
 31
0.0
 12
491.6842006994756
 22
45.34275284963974
 32
0.0
 13
491.6842006994756
 23
45.34275284963974
 33
0.0
  0
SOLID
  5
1436C
330
14217
100
AcDbEntity
  8
MEASURE
 62
     9
100
AcDbTrace
 10
658.6842006994758
 20
46.17608618297307
 30
0.0
 11
658.6842006994758
 21
44.5094195163064
 31
0.0
 12
663.6842006994758
 22
45.34275284963974
 32
0.0
 13
663.6842006994758
 23
45.34275284963974
 33
0.0
  0
MTEXT
  5
1436D
330
14217
100
AcDbEntity
  8
MEASURE
 62
     2
100
AcDbMText
 10
577.6842006994757
 20
49.34275284963973
 30
0.0
 40
6.0
 41
0.0
 71
     5
 72
     1
  1
\A1;172
  7
AD-STANDARD
 73
     1
 44
1.0
1001
ACAD
1000
MTEXTBEGIN
1070
    73
1070
     1
1070
    44
1040
1.0
1070
    74
1070
     0
1000
MTEXTEND
  0
POINT
  5
1436E
330
14217
100
AcDbEntity
  8
DEFPOINTS
 62
     0
100
AcDbPoint
 10
491.6842006994756
 20
75.34275284963974
 30
0.0
  0
POINT
  5
1436F
330
14217
100
AcDbEntity
  8
DEFPOINTS
 62
     0
100
AcDbPoint
 10
663.6842006994758
 20
75.34275284963974
 30
0.0
  0
POINT
  5
14370
330
14217
100
AcDbEntity
  8
DEFPOINTS
 62
     0
100
AcDbPoint
 10
663.6842006994758
 20
45.34275284963974
 30
0.0
  0
ENDBLK
  5
14219
330
14217
100
AcDbEntity
  8
0
100
AcDbBlockEnd
  0
BLOCK
  5
14225
330
14224
100
AcDbEntity
  8
0
100
AcDbBlockBegin
  2
*D21
 70
     1
 10
0.0
 20
0.0
 30
0.0
  3
*D21
  1

  0
LINE
  5
1435F
330
14224
100
AcDbEntity
  8
MEASURE
 62
     9
370
    -2
100
AcDbLine
 10
486.8857661639929
 20
291.5328442387008
 30
0.0
 11
518.885766163993
 21
291.5328442387008
 31
0.0
  0
LINE
  5
14360
330
14224
100
AcDbEntity
  8
MEASURE
 62
     9
370
    -2
100
AcDbLine
 10
486.8857661639955
 20
457.5328442387008
 30
0.0
 11
518.885766163993
 21
457.5328442387008
 31
0.0
  0
LINE
  5
14361
330
14224
100
AcDbEntity
  8
MEASURE
 62
     9
370
    -2
100
AcDbLine
 10
514.8857661639929
 20
296.5328442387008
 30
0.0
 11
514.8857661639929
 21
452.5328442387007
 31
0.0
  0
SOLID
  5
14362
330
14224
100
AcDbEntity
  8
MEASURE
 62
     9
100
AcDbTrace
 10
514.0524328306596
 20
296.5328442387008
 30
0.0
 11
515.7190994973263
 21
296.5328442387008
 31
0.0
 12
514.8857661639929
 22
291.5328442387008
 32
0.0
 13
514.8857661639929
 23
291.5328442387008
 33
0.0
  0
SOLID
  5
14363
330
14224
100
AcDbEntity
  8
MEASURE
 62
     9
100
AcDbTrace
 10
514.0524328306596
 20
452.5328442387007
 30
0.0
 11
515.7190994973263
 21
452.5328442387007
 31
0.0
 12
514.8857661639929
 22
457.5328442387008
 32
0.0
 13
514.8857661639929
 23
457.5328442387008
 33
0.0
  0
MTEXT
  5
14364
330
14224
100
AcDbEntity
  8
MEASURE
 62
     2
100
AcDbMText
 10
510.8857661639929
 20
374.5328442387009
 30
0.0
 40
6.0
 41
0.0
 71
     5
 72
     1
  1
\A1;166
  7
AD-STANDARD
 11
0.0000000000000001
 21
1.0
 31
0.0
 73
     1
 44
1.0
1001
ACAD
1000
MTEXTBEGIN
1070
    73
1070
     1
1070
    44
1040
1.0
1070
    74
1070
     0
1000
MTEXTEND
  0
POINT
  5
14365
330
14224
100
AcDbEntity
  8
DEFPOINTS
 62
     0
100
AcDbPoint
 10
484.885766163993
 20
291.5328442387008
 30
0.0
  0
POINT
  5
14366
330
14224
100
AcDbEntity
  8
DEFPOINTS
 62
     0
100
AcDbPoint
 10
484.8857661639955
 20
457.5328442387008
 30
0.0
  0
POINT
  5
14367
330
14224
100
AcDbEntity
  8
DEFPOINTS
 62
     0
100
AcDbPoint
 10
514.8857661639929
 20
457.5328442387008
 30
0.0
  0
ENDBLK
  5
14226
330
14224
100
AcDbEntity
  8
0
100
AcDbBlockEnd
  0
BLOCK
  5
14232
330
14231
100
AcDbEntity
  8
0
100
AcDbBlockBegin
  2
*D22
 70
     1
 10
0.0
 20
0.0
 30
0.0
  3
*D22
  1

  0
LINE
  5
14356
330
14231
100
AcDbEntity
  8
MEASURE
 62
     9
370
    -2
100
AcDbLine
 10
486.8857661639929
 20
291.5328442387008
 30
0.0
 11
518.885766163993
 21
291.5328442387008
 31
0.0
  0
LINE
  5
14357
330
14231
100
AcDbEntity
  8
MEASURE
 62
     9
370
    -2
100
AcDbLine
 10
464.3857661639969
 20
252.5328442387005
 30
0.0
 11
518.8857661639929
 21
252.5328442387005
 31
0.0
  0
LINE
  5
14358
330
14231
100
AcDbEntity
  8
MEASURE
 62
     9
370
    -2
100
AcDbLine
 10
514.8857661639929
 20
286.5328442387008
 30
0.0
 11
514.8857661639929
 21
257.5328442387005
 31
0.0
  0
SOLID
  5
14359
330
14231
100
AcDbEntity
  8
MEASURE
 62
     9
100
AcDbTrace
 10
514.0524328306596
 20
286.5328442387008
 30
0.0
 11
515.7190994973263
 21
286.5328442387008
 31
0.0
 12
514.8857661639929
 22
291.5328442387008
 32
0.0
 13
514.8857661639929
 23
291.5328442387008
 33
0.0
  0
SOLID
  5
1435A
330
14231
100
AcDbEntity
  8
MEASURE
 62
     9
100
AcDbTrace
 10
514.0524328306596
 20
257.5328442387005
 30
0.0
 11
515.7190994973263
 21
257.5328442387005
 31
0.0
 12
514.8857661639929
 22
252.5328442387005
 32
0.0
 13
514.8857661639929
 23
252.5328442387005
 33
0.0
  0
MTEXT
  5
1435B
330
14231
100
AcDbEntity
  8
MEASURE
 62
     2
100
AcDbMText
 10
510.8857661639929
 20
272.0328442387008
 30
0.0
 40
6.0
 41
0.0
 71
     5
 72
     1
  1
\A1;39
  7
AD-STANDARD
 11
0.0000000000000001
 21
1.0
 31
0.0
 73
     1
 44
1.0
1001
ACAD
1000
MTEXTBEGIN
1070
    73
1070
     1
1070
    44
1040
1.0
1070
    74
1070
     0
1000
MTEXTEND
  0
POINT
  5
1435C
330
14231
100
AcDbEntity
  8
DEFPOINTS
 62
     0
100
AcDbPoint
 10
484.885766163993
 20
291.5328442387008
 30
0.0
  0
POINT
  5
1435D
330
14231
100
AcDbEntity
  8
DEFPOINTS
 62
     0
100
AcDbPoint
 10
462.3857661639968
 20
252.5328442387005
 30
0.0
  0
POINT
  5
1435E
330
14231
100
AcDbEntity
  8
DEFPOINTS
 62
     0
100
AcDbPoint
 10
514.8857661639929
 20
252.5328442387005
 30
0.0
  0
ENDBLK
  5
14233
330
14231
100
AcDbEntity
  8
0
100
AcDbBlockEnd
  0
BLOCK
  5
1423F
330
1423E
100
AcDbEntity
  8
0
100
AcDbBlockBegin
  2
*D23
 70
     1
 10
0.0
 20
0.0
 30
0.0
  3
*D23
  1

  0
LINE
  5
1434D
330
1423E
100
AcDbEntity
  8
MEASURE
 62
     9
370
    -2
100
AcDbLine
 10
486.8857661639955
 20
457.5328442387008
 30
0.0
 11
518.885766163993
 21
457.5328442387008
 31
0.0
  0
LINE
  5
1434E
330
1423E
100
AcDbEntity
  8
MEASURE
 62
     9
370
    -2
100
AcDbLine
 10
442.885766163994
 20
487.5328442386998
 30
0.0
 11
518.885766163993
 21
487.5328442386998
 31
0.0
  0
LINE
  5
1434F
330
1423E
100
AcDbEntity
  8
MEASURE
 62
     9
370
    -2
100
AcDbLine
 10
514.8857661639929
 20
462.5328442387008
 30
0.0
 11
514.8857661639929
 21
482.5328442386998
 31
0.0
  0
SOLID
  5
14350
330
1423E
100
AcDbEntity
  8
MEASURE
 62
     9
100
AcDbTrace
 10
514.0524328306596
 20
462.5328442387008
 30
0.0
 11
515.7190994973263
 21
462.5328442387008
 31
0.0
 12
514.8857661639929
 22
457.5328442387008
 32
0.0
 13
514.8857661639929
 23
457.5328442387008
 33
0.0
  0
SOLID
  5
14351
330
1423E
100
AcDbEntity
  8
MEASURE
 62
     9
100
AcDbTrace
 10
514.0524328306596
 20
482.5328442386998
 30
0.0
 11
515.7190994973263
 21
482.5328442386998
 31
0.0
 12
514.8857661639929
 22
487.5328442386998
 32
0.0
 13
514.8857661639929
 23
487.5328442386998
 33
0.0
  0
MTEXT
  5
14352
330
1423E
100
AcDbEntity
  8
MEASURE
 62
     2
100
AcDbMText
 10
510.8857661639929
 20
472.5328442387004
 30
0.0
 40
6.0
 41
0.0
 71
     5
 72
     1
  1
\A1;30
  7
AD-STANDARD
 11
0.0000000000000001
 21
1.0
 31
0.0
 73
     1
 44
1.0
1001
ACAD
1000
MTEXTBEGIN
1070
    73
1070
     1
1070
    44
1040
1.0
1070
    74
1070
     0
1000
MTEXTEND
  0
POINT
  5
14353
330
1423E
100
AcDbEntity
  8
DEFPOINTS
 62
     0
100
AcDbPoint
 10
484.8857661639955
 20
457.5328442387008
 30
0.0
  0
POINT
  5
14354
330
1423E
100
AcDbEntity
  8
DEFPOINTS
 62
     0
100
AcDbPoint
 10
440.885766163994
 20
487.5328442386998
 30
0.0
  0
POINT
  5
14355
330
1423E
100
AcDbEntity
  8
DEFPOINTS
 62
     0
100
AcDbPoint
 10
514.8857661639929
 20
487.5328442386998
 30
0.0
  0
ENDBLK
  5
14240
330
1423E
100
AcDbEntity
  8
0
100
AcDbBlockEnd
  0
ENDSEC
  0
SECTION
  2
ENTITIES
  0
MTEXT
  5
3ADF
330
1A
100
AcDbEntity
  8
MEASURE
 62
     2
100
AcDbMText
 10
3054.554201207315
 20
4995.708229070817
 30
0.0
 40
3.5
 41
0.0
 71
     7
 72
     5
  1

  7
AD-STANDARD
 73
     1
 44
1.0
1001
ACAD
1000
MTEXTBEGIN
1070
    73
1070
     1
1070
    44
1040
1.0
1070
    74
1070
     0
1000
MTEXTEND
  0
MTEXT
  5
BEF5
330
1A
100
AcDbEntity
  8
MEASURE
 62
     2
100
AcDbMText
 10
5901.138189244232
 20
6136.234878769201
 30
0.0
 40
3.5
 41
0.0
 71
     7
 72
     5
  1

  7
AD-STANDARD
 73
     1
 44
1.0
1001
ACAD
1000
MTEXTBEGIN
1070
    73
1070
     1
1070
    44
1040
1.0
1070
    74
1070
     0
1000
MTEXTEND
  0
LINE
  5
10373
330
1A
100
AcDbEntity
  8
0
 48
0.3
100
AcDbLine
 10
119.1970371112006
 20
80.34275284963769
 30
0.0
 11
295.0953079588094
 21
80.34275284963678
 31
0.0
  0
LINE
  5
1037B
330
1A
100
AcDbEntity
  8
0
 48
0.3
100
AcDbLine
 10
107.146172535005
 20
97.84275284963678
 30
0.0
 11
305.3461725350048
 21
97.84275284963678
 31
0.0
  0
LINE
  5
1037D
330
1A
100
AcDbEntity
  8
0
 48
0.3
100
AcDbLine
 10
128.2601893538208
 20
77.34275284963587
 30
0.0
 11
286.0321557161865
 21
77.34275284963678
 31
0.0
  0
ARC
  5
10385
330
1A
100
AcDbEntity
  8
0
 48
0.3
100
AcDbCircle
 10
267.3339534733609
 20
101.7140850993446
 30
0.0
 40
40.0
100
AcDbArc
 50
337.7254963323288
 51
354.4460312229911
  0
LINE
  5
10386
330
1A
100
AcDbEntity
  8
0
 48
0.3
100
AcDbLine
 10
295.095307958813
 20
80.34275284963497
 30
0.0
 11
301.1461725350059
 21
80.34275284963769
 31
0.0
  0
LINE
  5
1038E
330
1A
100
AcDbEntity
  8
0
 48
0.3
100
AcDbLine
 10
307.146172535005
 20
97.84275284963769
 30
0.0
 11
307.09376323268
 21
98.8427528496377
 31
0.0
  0
LINE
  5
1038F
330
1A
100
AcDbEntity
  8
0
 48
0.3
100
AcDbLine
 10
305.3461725350048
 20
97.84275284963678
 30
0.0
 11
307.146172535005
 21
97.84275284963678
 31
0.0
  0
ARC
  5
10393
330
1A
100
AcDbEntity
  8
0
 48
0.3
100
AcDbCircle
 10
295.0953079588094
 20
90.34275284963678
 30
0.0
 40
10.0
100
AcDbArc
 50
270.0
 51
337.7254963323318
  0
POINT
  5
103C9
330
1A
100
AcDbEntity
  8
0
100
AcDbPoint
 10
275.7791519783445
 20
77.56858424764594
 30
0.0
  0
POINT
  5
103CA
330
1A
100
AcDbEntity
  8
0
100
AcDbPoint
 10
275.6921986722923
 20
77.5049847090404
 30
0.0
  0
LINE
  5
103D1
330
1A
100
AcDbEntity
  8
0
 48
0.3
100
AcDbLine
 10
237.146172535005
 20
79.34275284963678
 30
0.0
 11
254.146172535005
 21
79.34275284963678
 31
0.0
  0
LINE
  5
103D2
330
1A
100
AcDbEntity
  8
0
 48
0.3
100
AcDbLine
 10
254.146172535005
 20
77.34275284963678
 30
0.0
 11
254.146172535005
 21
80.34275284963678
 31
0.0
  0
LINE
  5
103D3
330
1A
100
AcDbEntity
  8
0
 48
0.3
100
AcDbLine
 10
237.146172535005
 20
77.34275284963678
 30
0.0
 11
237.146172535005
 21
80.34275284963678
 31
0.0
  0
ARC
  5
103D4
330
1A
100
AcDbEntity
  8
0
 48
0.3
100
AcDbCircle
 10
275.146172535005
 20
78.34275284963678
 30
0.0
 40
1.0
100
AcDbArc
 50
270.0
 51
0.0
  0
LINE
  5
103D5
330
1A
100
AcDbEntity
  8
0
 48
0.3
100
AcDbLine
 10
276.146172535005
 20
78.34275284963678
 30
0.0
 11
276.146172535005
 21
80.34275284963678
 31
0.0
  0
POINT
  5
1040B
330
1A
100
AcDbEntity
  8
0
100
AcDbPoint
 10
139.1461725350059
 20
78.34275284963678
 30
0.0
  0
POINT
  5
1040C
330
1A
100
AcDbEntity
  8
0
100
AcDbPoint
 10
138.408612191793
 20
77.66747161924469
 30
0.0
  0
POINT
  5
1040D
330
1A
100
AcDbEntity
  8
0
100
AcDbPoint
 10
122.6461725350077
 20
78.3427528496386
 30
0.0
  0
POINT
  5
1040E
330
1A
100
AcDbEntity
  8
0
100
AcDbPoint
 10
121.9151338392598
 20
77.66041684346692
 30
0.0
  0
LINE
  5
10414
330
1A
100
AcDbEntity
  8
0
 48
0.3
100
AcDbLine
 10
160.146172535005
 20
79.34275284963678
 30
0.0
 11
177.146172535005
 21
79.34275284963678
 31
0.0
  0
LINE
  5
10415
330
1A
100
AcDbEntity
  8
0
 48
0.3
100
AcDbLine
 10
160.146172535005
 20
77.34275284963678
 30
0.0
 11
160.146172535005
 21
80.34275284963678
 31
0.0
  0
LINE
  5
10416
330
1A
100
AcDbEntity
  8
0
 48
0.3
100
AcDbLine
 10
177.146172535005
 20
77.34275284963678
 30
0.0
 11
177.146172535005
 21
80.34275284963678
 31
0.0
  0
ARC
  5
1041D
330
1A
100
AcDbEntity
  8
0
 48
0.3
100
AcDbCircle
 10
139.146172535005
 20
78.34275284963678
 30
0.0
 40
1.0
100
AcDbArc
 50
180.0
 51
270.0
  0
LINE
  5
1041E
330
1A
100
AcDbEntity
  8
0
 48
0.3
100
AcDbLine
 10
138.146172535005
 20
78.34275284963678
 30
0.0
 11
138.146172535005
 21
80.34275284963678
 31
0.0
  0
LINE
  5
10433
330
1A
100
AcDbEntity
  8
0
 48
0.3
100
AcDbLine
 10
107.146172535005
 20
97.84275284963678
 30
0.0
 11
107.19858183733
 21
98.84275284963678
 31
0.0
  0
ARC
  5
1043B
330
1A
100
AcDbEntity
  8
0
 48
0.3
100
AcDbCircle
 10
119.1970371112006
 20
90.34275284963678
 30
0.0
 40
10.0
100
AcDbArc
 50
202.2745036676681
 51
270.0
  0
LINE
  5
1043E
330
1A
100
AcDbEntity
  8
0
 48
0.3
100
AcDbLine
 10
119.1970371112006
 20
80.34275284963678
 30
0.0
 11
121.646172535005
 21
80.34275284963678
 31
0.0
  0
ARC
  5
1043F
330
1A
100
AcDbEntity
  8
0
 48
0.3
100
AcDbCircle
 10
146.9583915966491
 20
101.7140850993446
 30
0.0
 40
40.0
100
AcDbArc
 50
185.5539687770089
 51
202.2745036676711
  0
LINE
  5
10444
330
1A
100
AcDbEntity
  8
0
 48
0.3
100
AcDbLine
 10
113.1461725350059
 20
80.34275284963769
 30
0.0
 11
119.1970371112006
 21
80.34275284963769
 31
0.0
  0
LINE
  5
10591
330
1A
100
AcDbEntity
  8
0
100
AcDbLine
 10
306.4889725350063
 20
414.9653801867161
 30
0.0
 11
306.4889725350063
 21
342.7230426878141
 31
0.0
  0
LINE
  5
10592
330
1A
100
AcDbEntity
  8
0
100
AcDbLine
 10
306.9889725350062
 20
415.1814068569509
 30
0.0
 11
306.9889725350062
 21
342.7230426878141
 31
0.0
  0
LINE
  5
10593
330
1A
100
AcDbEntity
  8
0
100
AcDbLine
 10
306.0193725350059
 20
414.7624879380308
 30
0.0
 11
306.0193725350059
 21
342.7230426878141
 31
0.0
  0
LINE
  5
10596
330
1A
100
AcDbEntity
  8
0
100
AcDbLine
 10
297.1461725350059
 20
477.7230426878168
 30
0.0
 11
297.1461725350059
 21
323.7230426878177
 31
0.0
  0
LINE
  5
10597
330
1A
100
AcDbEntity
  8
0
100
AcDbLine
 10
117.1461725350041
 20
477.7230426878168
 30
0.0
 11
117.1461725350059
 21
323.7230426878177
 31
0.0
  0
LINE
  5
10598
330
1A
100
AcDbEntity
  8
0
100
AcDbLine
 10
295.1461725350059
 20
469.7230426878185
 30
0.0
 11
295.1461725350059
 21
343.7230426878177
 31
0.0
  0
LINE
  5
10599
330
1A
100
AcDbEntity
  8
0
100
AcDbLine
 10
119.1461725350041
 20
469.7230426878176
 30
0.0
 11
119.1461725350041
 21
343.7230426878177
 31
0.0
  0
LINE
  5
1059A
330
1A
100
AcDbEntity
  8
0
100
AcDbLine
 10
107.1461725350041
 20
417.7230426877521
 30
0.0
 11
107.1461725350059
 21
342.723042687815
 31
0.0
  0
LINE
  5
1059B
330
1A
100
AcDbEntity
  8
0
100
AcDbLine
 10
307.1461725350058
 20
417.7230426877431
 30
0.0
 11
307.1461725350058
 21
342.7230426878141
 31
0.0
  0
LINE
  5
1059E
330
1A
100
AcDbEntity
  8
0
100
AcDbLine
 10
126.5430738078289
 20
315.7230426878168
 30
0.0
 11
287.7492712621829
 21
315.7230426878168
 31
0.0
  0
ARC
  5
1059F
330
1A
100
AcDbEntity
  8
0
100
AcDbCircle
 10
207.1461725350059
 20
1252.723042687819
 30
0.0
 40
993.0
100
AcDbArc
 50
265.8674488632576
 51
274.1325511367424
  0
LINE
  5
105A0
330
1A
100
AcDbEntity
  8
0
100
AcDbLine
 10
122.1461725350059
 20
318.7230426878177
 30
0.0
 11
292.1461725350058
 21
318.7230426878177
 31
0.0
  0
ARC
  5
105A1
330
1A
100
AcDbEntity
  8
0
100
AcDbCircle
 10
207.1461725350059
 20
1252.723042687819
 30
0.0
 40
992.7604
100
AcDbArc
 50
265.8650999880258
 51
274.1349000119742
  0
LINE
  5
105AA
330
1A
100
AcDbEntity
  8
0
100
AcDbLine
 10
123.8138790282742
 20
307.7230426878186
 30
0.0
 11
290.4784660417358
 21
307.7230426878168
 31
0.0
  0
LINE
  5
105AB
330
1A
100
AcDbEntity
  8
0
100
AcDbLine
 10
124.1928664783158
 20
305.7230426878168
 30
0.0
 11
290.0994785916942
 21
305.7230426878168
 31
0.0
  0
LINE
  5
105AC
330
1A
100
AcDbEntity
  8
0
100
AcDbLine
 10
124.1461725350041
 20
338.7230426878176
 30
0.0
 11
290.1461725350058
 21
338.7230426878176
 31
0.0
  0
ARC
  5
105AD
330
1A
100
AcDbEntity
  8
0
100
AcDbCircle
 10
207.1461725350059
 20
1252.723042687819
 30
0.0
 40
1000.0
100
AcDbArc
 50
265.3612565494736
 51
274.6387434505264
  0
LINE
  5
105B4
330
1A
100
AcDbEntity
  8
0
100
AcDbLine
 10
122.5609077620361
 20
311.3457449489833
 30
0.0
 11
122.8183375168269
 21
308.6287182531096
 31
0.0
  0
ARC
  5
105C7
330
1A
100
AcDbEntity
  8
0
100
AcDbCircle
 10
607.1461725350059
 20
342.7230426878177
 30
0.0
 40
487.0
100
AcDbArc
 50
182.8005618967505
 51
190.274022534846
  0
ARC
  5
105C8
330
1A
100
AcDbEntity
  8
0
100
AcDbCircle
 10
122.1461725350059
 20
323.7230426878177
 30
0.0
 40
5.0
100
AcDbArc
 50
180.0
 51
270.0
  0
ARC
  5
105C9
330
1A
100
AcDbEntity
  8
0
100
AcDbCircle
 10
124.1461725350041
 20
343.7230426878177
 30
0.0
 40
5.0
100
AcDbArc
 50
180.0
 51
270.0
  0
LINE
  5
105CA
330
1A
100
AcDbEntity
  8
0
100
AcDbLine
 10
119.4693341213901
 20
341.9546585516791
 30
0.0
 11
117.4693341213919
 21
321.9546585516801
 31
0.0
  0
ARC
  5
105CB
330
1A
100
AcDbEntity
  8
0
100
AcDbCircle
 10
136.2842414812226
 20
272.5207214625079
 30
0.0
 40
10.0
100
AcDbArc
 50
185.4124381717181
 51
265.865099988029
  0
ARC
  5
105CD
330
1A
100
AcDbEntity
  8
0
100
AcDbCircle
 10
136.3071589702654
 20
272.2788402177457
 30
0.0
 40
10.0
100
AcDbArc
 50
185.4124381717181
 51
265.8674488632609
  0
ARC
  5
105CE
330
1A
100
AcDbEntity
  8
0
100
AcDbCircle
 10
126.5430738078289
 20
311.7230426878168
 30
0.0
 40
4.0
100
AcDbArc
 50
90.0
 51
185.412438171725
  0
ARC
  5
105CF
330
1A
100
AcDbEntity
  8
0
100
AcDbCircle
 10
124.1928664783158
 20
304.7230426878168
 30
0.0
 40
1.0
100
AcDbArc
 50
90.0
 51
185.412438171715
  0
ARC
  5
105D0
330
1A
100
AcDbEntity
  8
0
100
AcDbCircle
 10
123.8138790282742
 20
308.7230426878186
 30
0.0
 40
1.0
100
AcDbArc
 50
185.4124381717118
 51
270.0
  0
LINE
  5
105D1
330
1A
100
AcDbEntity
  8
0
100
AcDbLine
 10
123.1973249668667
 20
304.6287182531078
 30
0.0
 11
126.3517438557796
 21
271.3355958706598
 31
0.0
  0
ARC
  5
105D5
330
1A
100
AcDbEntity
  8
0
100
AcDbCircle
 10
127.4863378713985
 20
270.9494889895286
 30
0.0
 40
15.0
100
AcDbArc
 50
188.5102713581352
 51
265.3612565494736
  0
ARC
  5
105D6
330
1A
100
AcDbEntity
  8
0
100
AcDbCircle
 10
607.1461725350059
 20
342.7230426878177
 30
0.0
 40
500.0
100
AcDbArc
 50
180.0
 51
188.5102713581352
  0
LINE
  5
10600
330
1A
100
AcDbEntity
  8
0
100
AcDbLine
 10
306.8688345852429
 20
331.7646785186826
 30
0.0
 11
305.9080293084138
 21
332.1835974376018
 31
0.0
  0
ARC
  5
10601
330
1A
100
AcDbEntity
  8
0
100
AcDbCircle
 10
-192.8538274649941
 20
342.7230426878177
 30
0.0
 40
499.3428
100
AcDbArc
 50
358.7673016055969
 51
0.0
  0
ARC
  5
10602
330
1A
100
AcDbEntity
  8
0
100
AcDbCircle
 10
-192.8538274649941
 20
342.7230426878177
 30
0.0
 40
499.8428
100
AcDbArc
 50
358.7437683905918
 51
0.0
  0
ARC
  5
10603
330
1A
100
AcDbEntity
  8
0
100
AcDbCircle
 10
-192.8538274649941
 20
342.7230426878177
 30
0.0
 40
498.8731999999997
100
AcDbArc
 50
358.7894505843537
 51
0.0
  0
LINE
  5
10604
330
1A
100
AcDbEntity
  8
0
100
AcDbLine
 10
291.7314373079758
 20
311.3457449489806
 30
0.0
 11
291.4740075531831
 21
308.6287182531078
 31
0.0
  0
ARC
  5
10620
330
1A
100
AcDbEntity
  8
0
100
AcDbCircle
 10
-192.8538274649941
 20
342.7230426878177
 30
0.0
 40
487.0
100
AcDbArc
 50
349.7259774651539
 51
357.1994381032495
  0
ARC
  5
10621
330
1A
100
AcDbEntity
  8
0
100
AcDbCircle
 10
292.1461725350058
 20
323.7230426878177
 30
0.0
 40
5.0
100
AcDbArc
 50
270.0
 51
0.0
  0
ARC
  5
10622
330
1A
100
AcDbEntity
  8
0
100
AcDbCircle
 10
290.1461725350058
 20
343.7230426878177
 30
0.0
 40
5.0
100
AcDbArc
 50
270.0
 51
0.0
  0
LINE
  5
10623
330
1A
100
AcDbEntity
  8
0
100
AcDbLine
 10
294.8230109486199
 20
341.9546585516791
 30
0.0
 11
296.8230109486199
 21
321.9546585516791
 31
0.0
  0
ARC
  5
10624
330
1A
100
AcDbEntity
  8
0
100
AcDbCircle
 10
278.0081035887856
 20
272.5207214625079
 30
0.0
 40
10.0
100
AcDbArc
 50
274.134900011971
 51
354.5875618282882
  0
ARC
  5
1068F
330
1A
100
AcDbEntity
  8
0
100
AcDbCircle
 10
277.9851860997464
 20
272.2788402177457
 30
0.0
 40
10.0
100
AcDbArc
 50
274.1325511367392
 51
354.5875618282882
  0
ARC
  5
10690
330
1A
100
AcDbEntity
  8
0
100
AcDbCircle
 10
287.7492712621829
 20
311.7230426878168
 30
0.0
 40
4.0
100
AcDbArc
 50
354.5875618282685
 51
90.0
  0
ARC
  5
10691
330
1A
100
AcDbEntity
  8
0
100
AcDbCircle
 10
290.0994785916942
 20
304.7230426878168
 30
0.0
 40
1.0
100
AcDbArc
 50
354.5875618282849
 51
90.0
  0
ARC
  5
10692
330
1A
100
AcDbEntity
  8
0
100
AcDbCircle
 10
290.4784660417358
 20
308.7230426878168
 30
0.0
 40
1.0
100
AcDbArc
 50
270.0
 51
354.5875618282817
  0
LINE
  5
10693
330
1A
100
AcDbEntity
  8
0
100
AcDbLine
 10
291.0950201031432
 20
304.6287182531078
 30
0.0
 11
287.9406012142304
 21
271.3355958706598
 31
0.0
  0
ARC
  5
1069B
330
1A
100
AcDbEntity
  8
0
100
AcDbCircle
 10
286.8060071986133
 20
270.9494889895286
 30
0.0
 40
15.0
100
AcDbArc
 50
274.6387434505264
 51
351.4897286418648
  0
ARC
  5
1069C
330
1A
100
AcDbEntity
  8
0
100
AcDbCircle
 10
-192.8538274649941
 20
342.7230426878177
 30
0.0
 40
500.0
100
AcDbArc
 50
351.4897286418648
 51
0.0
  0
LINE
  5
1069D
330
1A
100
AcDbEntity
  8
0
100
AcDbLine
 10
123.0334328098583
 20
487.7230426878158
 30
0.0
 11
291.2589122601535
 21
487.7230426878177
 31
0.0
  0
LINE
  5
1069E
330
1A
100
AcDbEntity
  8
0
100
AcDbLine
 10
122.1461725350041
 20
482.7230426878168
 30
0.0
 11
292.1461725350058
 21
482.7230426878168
 31
0.0
  0
LINE
  5
1069F
330
1A
100
AcDbEntity
  8
0
100
AcDbLine
 10
124.1461725350041
 20
474.7230426878176
 30
0.0
 11
290.1461725350058
 21
474.7230426878186
 31
0.0
  0
LINE
  5
106A0
330
1A
100
AcDbEntity
  8
0
100
AcDbLine
 10
108.0353757044217
 20
472.9644615396573
 30
0.0
 11
107.1461725350059
 21
417.7230426878177
 31
0.0
  0
ARC
  5
106A2
330
1A
100
AcDbEntity
  8
0
100
AcDbCircle
 10
124.1461725350041
 20
469.7230426878176
 30
0.0
 40
5.0
100
AcDbArc
 50
90.0
 51
180.0
  0
ARC
  5
106A3
330
1A
100
AcDbEntity
  8
0
100
AcDbCircle
 10
122.1461725350041
 20
477.7230426878168
 30
0.0
 40
5.0
100
AcDbArc
 50
90.0
 51
180.0
  0
LINE
  5
106A4
330
1A
100
AcDbEntity
  8
0
100
AcDbLine
 10
117.7848704394914
 20
480.1682510698729
 30
0.0
 11
119.7848704394914
 21
472.1682510698729
 31
0.0
  0
ARC
  5
106A5
330
1A
100
AcDbEntity
  8
0
100
AcDbCircle
 10
123.0334328098583
 20
472.7230426878167
 30
0.0
 40
15.0
100
AcDbArc
 50
90.0
 51
179.0778080965966
  0
LINE
  5
106B8
330
1A
100
AcDbEntity
  8
0
100
AcDbLine
 10
306.9889725350062
 20
415.1814068569509
 30
0.0
 11
306.0193725350059
 21
414.7624879380318
 31
0.0
  0
LINE
  5
106B9
330
1A
100
AcDbEntity
  8
0
100
AcDbLine
 10
306.2569693655919
 20
472.9644615396573
 30
0.0
 11
307.1461725350058
 21
417.7230426878177
 31
0.0
  0
ARC
  5
106CC
330
1A
100
AcDbEntity
  8
0
100
AcDbCircle
 10
290.1461725350058
 20
469.7230426878185
 30
0.0
 40
5.0
100
AcDbArc
 50
0.0
 51
90.0
  0
ARC
  5
106CD
330
1A
100
AcDbEntity
  8
0
100
AcDbCircle
 10
292.1461725350058
 20
477.7230426878168
 30
0.0
 40
5.0
100
AcDbArc
 50
0.0
 51
90.0
  0
LINE
  5
106CE
330
1A
100
AcDbEntity
  8
0
100
AcDbLine
 10
294.5074746305186
 20
472.1682510698729
 30
0.0
 11
296.5074746305186
 21
480.1682510698709
 31
0.0
  0
ARC
  5
106CF
330
1A
100
AcDbEntity
  8
0
100
AcDbCircle
 10
291.2589122601535
 20
472.7230426878176
 30
0.0
 40
15.0
100
AcDbArc
 50
0.9221919034032783
 51
90.0
  0
LINE
  5
106EA
330
1A
100
AcDbEntity
  8
0
 48
0.3
100
AcDbLine
 10
482.885766163994
 20
353.5328442386991
 30
0.0
 11
482.885766163994
 21
296.6468610575175
 31
0.0
  0
LINE
  5
106EB
330
1A
100
AcDbEntity
  8
0
 48
0.3
100
AcDbLine
 10
479.8857661639849
 20
353.5328442386998
 30
0.0
 11
479.8857661639904
 21
306.5328442386999
 31
0.0
  0
LINE
  5
106ED
330
1A
100
AcDbEntity
  8
0
 48
0.3
100
AcDbLine
 10
462.3857661639931
 20
417.5328442386998
 30
0.0
 11
462.385766163994
 21
252.5328442386999
 31
0.0
  0
LINE
  5
106F9
330
1A
100
AcDbEntity
  8
0
 48
0.3
100
AcDbLine
 10
479.8857661639931
 20
276.5328442386999
 30
0.0
 11
478.8857661639931
 21
276.5328442386999
 31
0.0
  0
LINE
  5
106FC
330
1A
100
AcDbEntity
  8
0
 48
0.3
100
AcDbLine
 10
481.8857661639931
 20
267.0328442386999
 30
0.0
 11
479.8857661639931
 21
267.0328442386999
 31
0.0
  0
ARC
  5
106FD
330
1A
100
AcDbEntity
  8
0
 48
0.3
100
AcDbCircle
 10
481.8857661639931
 20
268.0328442386999
 30
0.0
 40
1.0
100
AcDbArc
 50
270.0
 51
0.0
  0
ARC
  5
106FE
330
1A
100
AcDbEntity
  8
0
 48
0.3
100
AcDbCircle
 10
481.8857661639939
 20
268.0328442386999
 30
0.0
 40
1.0
100
AcDbArc
 50
270.0
 51
0.0
  0
ARC
  5
106FF
330
1A
100
AcDbEntity
  8
0
 48
0.3
100
AcDbCircle
 10
481.8857661639939
 20
307.5328442386998
 30
0.0
 40
1.0
100
AcDbArc
 50
270.0
 51
0.0
  0
LINE
  5
10700
330
1A
100
AcDbEntity
  8
0
 48
0.3
100
AcDbLine
 10
479.8857661639931
 20
278.5328442386999
 30
0.0
 11
479.8857661639948
 21
264.5837088148965
 31
0.0
  0
LINE
  5
10701
330
1A
100
AcDbEntity
  8
0
 48
0.3
100
AcDbLine
 10
478.8857661639931
 20
276.5328442386999
 30
0.0
 11
479.8857661639931
 21
276.5328442386999
 31
0.0
  0
LINE
  5
10702
330
1A
100
AcDbEntity
  8
0
 48
0.3
100
AcDbLine
 10
478.8857661639903
 20
306.5328442386999
 30
0.0
 11
481.8857661639939
 21
306.5328442386999
 31
0.0
  0
LINE
  5
10703
330
1A
100
AcDbEntity
  8
0
 48
0.3
100
AcDbLine
 10
478.8857661639903
 20
306.5328442386999
 30
0.0
 11
478.8857661639931
 21
276.5328442386999
 31
0.0
  0
LINE
  5
10704
330
1A
100
AcDbEntity
  8
0
 48
0.3
100
AcDbLine
 10
481.8857661639939
 20
267.0328442386999
 30
0.0
 11
479.885766163994
 21
267.0328442386999
 31
0.0
  0
ARC
  5
10706
330
1A
100
AcDbEntity
  8
0
 48
0.3
100
AcDbCircle
 10
458.514433914287
 20
292.3450633003449
 30
0.0
 40
40.0
100
AcDbArc
 50
275.5539687770123
 51
292.2745036676712
  0
ARC
  5
1070C
330
1A
100
AcDbEntity
  8
0
 48
0.3
100
AcDbCircle
 10
469.885766163994
 20
264.5837088148947
 30
0.0
 40
10.0
100
AcDbArc
 50
292.2745036676712
 51
0.0000000000032569
  0
LINE
  5
1070F
330
1A
100
AcDbEntity
  8
0
100
AcDbLine
 10
479.3857661639921
 20
285.0328442386999
 30
0.0
 11
478.8857661639921
 21
285.0328442386999
 31
0.0
  0
LINE
  5
10710
330
1A
100
AcDbEntity
  8
0
100
AcDbLine
 10
479.3857661639921
 20
286.4093688557204
 30
0.0
 11
478.8857661639921
 21
286.4093688557197
 31
0.0
  0
LINE
  5
10711
330
1A
100
AcDbEntity
  8
0
100
AcDbLine
 10
479.3857661639921
 20
287.7579270210645
 30
0.0
 11
478.8857661639921
 21
287.7579270210645
 31
0.0
  0
LINE
  5
10712
330
1A
100
AcDbEntity
  8
0
100
AcDbLine
 10
479.3857661639913
 20
295.3077614563353
 30
0.0
 11
478.8857661639913
 21
295.3077614563353
 31
0.0
  0
LINE
  5
10713
330
1A
100
AcDbEntity
  8
0
100
AcDbLine
 10
479.3857661639913
 20
296.6563196216794
 30
0.0
 11
478.8857661639913
 21
296.6563196216794
 31
0.0
  0
LINE
  5
10714
330
1A
100
AcDbEntity
  8
0
100
AcDbLine
 10
479.3857661639913
 20
298.0328442386999
 30
0.0
 11
478.8857661639903
 21
298.0328442386999
 31
0.0
  0
ARC
  5
10719
330
1A
100
AcDbEntity
  8
0
 48
0.3
100
AcDbCircle
 10
467.3857661639877
 20
333.5328442386999
 30
0.0
 40
2.0
100
AcDbArc
 50
180.0000000000065
 51
270.0
  0
ARC
  5
1071A
330
1A
100
AcDbEntity
  8
0
 48
0.3
100
AcDbCircle
 10
467.3857661639858
 20
351.5328442386998
 30
0.0
 40
2.0
100
AcDbArc
 50
90.0
 51
180.0000000000065
  0
LINE
  5
1071B
330
1A
100
AcDbEntity
  8
0
 48
0.3
100
AcDbLine
 10
465.3857661639857
 20
351.5328442386998
 30
0.0
 11
465.3857661639876
 21
333.5328442386999
 31
0.0
  0
LINE
  5
1071C
330
1A
100
AcDbEntity
  8
0
 48
0.3
100
AcDbLine
 10
467.3857661639858
 20
353.5328442386998
 30
0.0
 11
482.885766163994
 21
353.5328442386998
 31
0.0
  0
LINE
  5
1071D
330
1A
100
AcDbEntity
  8
0
 48
0.3
100
AcDbLine
 10
467.3857661639877
 20
331.5328442386999
 30
0.0
 11
482.885766163994
 21
331.5328442386999
 31
0.0
  0
LINE
  5
1071E
330
1A
100
AcDbEntity
  8
0
 48
0.3
100
AcDbLine
 10
478.885766163994
 20
442.5328442386998
 30
0.0
 11
479.885766163994
 21
442.5328442386998
 31
0.0
  0
LINE
  5
1071F
330
1A
100
AcDbEntity
  8
0
 48
0.3
100
AcDbLine
 10
478.885766163994
 20
472.5328442386998
 30
0.0
 11
479.885766163994
 21
472.5328442386998
 31
0.0
  0
LINE
  5
10720
330
1A
100
AcDbEntity
  8
0
 48
0.3
100
AcDbLine
 10
478.885766163994
 20
472.5328442386998
 30
0.0
 11
478.885766163994
 21
442.5328442386998
 31
0.0
  0
ARC
  5
10729
330
1A
100
AcDbEntity
  8
0
 48
0.3
100
AcDbCircle
 10
735.7156090504331
 20
541.1888064389676
 30
0.0
 40
300.0
100
AcDbArc
 50
190.6525741883534
 51
204.3422640716775
  0
ARC
  5
1072B
330
1A
100
AcDbEntity
  8
0
 48
0.3
100
AcDbCircle
 10
469.885766163994
 20
475.4388276653271
 30
0.0
 40
10.0
100
AcDbArc
 50
0.0
 51
80.46070406416617
  0
LINE
  5
1072D
330
1A
100
AcDbEntity
  8
0
 48
0.3
100
AcDbLine
 10
481.8857661639939
 20
442.5328442386998
 30
0.0
 11
479.885766163994
 21
442.5328442386998
 31
0.0
  0
ARC
  5
1072F
330
1A
100
AcDbEntity
  8
0
 48
0.3
100
AcDbCircle
 10
481.8857661639939
 20
441.5328442386998
 30
0.0
 40
1.0
100
AcDbArc
 50
0.0
 51
90.0
  0
LINE
  5
10732
330
1A
100
AcDbEntity
  8
0
 48
0.3
100
AcDbLine
 10
440.8857661639949
 20
505.0328442387008
 30
0.0
 11
440.885766163994
 21
485.7328442386997
 31
0.0
  0
LINE
  5
10734
330
1A
100
AcDbEntity
  8
0
 48
0.3
100
AcDbLine
 10
440.885766163994
 20
487.5328442386998
 30
0.0
 11
462.4730059608046
 21
486.4015049400986
 31
0.0
  0
LINE
  5
10735
330
1A
100
AcDbEntity
  8
0
 48
0.3
100
AcDbLine
 10
479.8857661639795
 20
417.5328442386998
 30
0.0
 11
479.8857661639858
 21
353.5328442386998
 31
0.0
  0
LINE
  5
10737
330
1A
100
AcDbEntity
  8
0
 48
0.3
100
AcDbLine
 10
482.885766163994
 20
441.5328442386998
 30
0.0
 11
482.885766163994
 21
353.5328442386998
 31
0.0
  0
ARC
  5
10738
330
1A
100
AcDbEntity
  8
0
 48
0.3
100
AcDbCircle
 10
441.385766163995
 20
505.0328442387008
 30
0.0
 40
0.5
100
AcDbArc
 50
90.0
 51
179.9999999999966
  0
LINE
  5
10739
330
1A
100
AcDbEntity
  8
0
100
AcDbLine
 10
441.385766163995
 20
505.5328442387008
 30
0.0
 11
452.3857661639939
 21
505.5328442386998
 31
0.0
  0
POINT
  5
1073B
330
1A
100
AcDbEntity
  8
0
100
AcDbPoint
 10
465.540955119397
 20
332.7603986355943
 30
0.0
 50
90.0
  0
POINT
  5
1073D
330
1A
100
AcDbEntity
  8
0
100
AcDbPoint
 10
465.7413543497487
 20
352.6712245728577
 30
0.0
 50
90.0
  0
LINE
  5
1073E
330
1A
100
AcDbEntity
  8
0
 48
0.3
100
AcDbLine
 10
452.3857661639939
 20
505.5328442386998
 30
0.0
 11
452.3857661639939
 21
486.9301547769445
 31
0.0
  0
LINE
  5
1073F
330
1A
100
AcDbEntity
  8
0
 48
0.3
100
AcDbLine
 10
479.8857661639948
 20
475.4388276653271
 30
0.0
 11
479.8857661639948
 21
470.5328442386988
 31
0.0
  0
ARC
  5
10740
330
1A
100
AcDbEntity
  8
0
 48
0.3
100
AcDbCircle
 10
454.9706057569809
 20
386.6833321169778
 30
0.0
 40
100.0
100
AcDbArc
 50
80.46070406416617
 51
85.69739859442014
  0
LINE
  5
10742
330
1A
100
AcDbEntity
  8
0
100
AcDbLine
 10
479.385766163994
 20
451.0328442386998
 30
0.0
 11
478.885766163994
 21
451.0328442386998
 31
0.0
  0
LINE
  5
10743
330
1A
100
AcDbEntity
  8
0
100
AcDbLine
 10
479.3857661639949
 20
452.4093688557203
 30
0.0
 11
478.885766163994
 21
452.4093688557203
 31
0.0
  0
LINE
  5
10744
330
1A
100
AcDbEntity
  8
0
100
AcDbLine
 10
479.385766163994
 20
453.7579270210644
 30
0.0
 11
478.885766163994
 21
453.7579270210644
 31
0.0
  0
LINE
  5
10745
330
1A
100
AcDbEntity
  8
0
100
AcDbLine
 10
479.385766163994
 20
461.3077614563352
 30
0.0
 11
478.885766163994
 21
461.3077614563352
 31
0.0
  0
LINE
  5
10746
330
1A
100
AcDbEntity
  8
0
100
AcDbLine
 10
479.385766163994
 20
462.6563196216793
 30
0.0
 11
478.885766163994
 21
462.6563196216793
 31
0.0
  0
LINE
  5
10747
330
1A
100
AcDbEntity
  8
0
100
AcDbLine
 10
479.3857661639949
 20
464.0328442386998
 30
0.0
 11
478.885766163994
 21
464.0328442386998
 31
0.0
  0
LINE
  5
10749
330
1A
100
AcDbEntity
  8
0
 48
0.3
100
AcDbLine
 10
644.6842006994747
 20
119.3427528496368
 30
0.0
 11
478.8110006994757
 21
119.3427528496368
 31
0.0
  0
LINE
  5
1074A
330
1A
100
AcDbEntity
  8
0
 48
0.3
100
AcDbLine
 10
658.5701838806572
 20
77.34275284963678
 30
0.0
 11
496.7982175182895
 21
77.34275284963587
 31
0.0
  0
LINE
  5
1074B
330
1A
100
AcDbEntity
  8
0
 48
0.3
100
AcDbLine
 10
663.1842006994746
 20
80.34275284963678
 30
0.0
 11
489.7350652756704
 21
80.34275284963678
 31
0.0
  0
LINE
  5
1074D
330
1A
100
AcDbEntity
  8
0
 48
0.3
100
AcDbLine
 10
478.8110006994748
 20
119.3427528496368
 30
0.0
 11
477.6842006994748
 21
97.84275284963495
 31
0.0
  0
ARC
  5
1074E
330
1A
100
AcDbEntity
  8
0
 48
0.3
100
AcDbCircle
 10
519.7836459365861
 20
101.714085099351
 30
0.0
 40
40.0
100
AcDbArc
 50
181.9977586442425
 51
202.2745036676681
  0
ARC
  5
1074F
330
1A
100
AcDbEntity
  8
0
 48
0.3
100
AcDbCircle
 10
492.0222914511358
 20
90.34275284964587
 30
0.0
 40
10.0
100
AcDbArc
 50
202.2745036676681
 51
270.0
  0
LINE
  5
10750
330
1A
100
AcDbEntity
  8
0
 48
0.3
100
AcDbLine
 10
478.8110006994748
 20
119.3427528496368
 30
0.0
 11
479.8079582770204
 21
100.3196690406148
 31
0.0
  0
ARC
  5
10752
330
1A
100
AcDbEntity
  8
0
 48
0.3
100
AcDbCircle
 10
517.4964197611187
 20
101.7140850993437
 30
0.0
 40
40.0
100
AcDbArc
 50
185.5539687770089
 51
202.2745036676681
  0
ARC
  5
10753
330
1A
100
AcDbEntity
  8
0
 48
0.3
100
AcDbCircle
 10
489.7350652756704
 20
90.34275284963678
 30
0.0
 40
10.0
100
AcDbArc
 50
202.2745036676681
 51
251.8051276611739
  0
LINE
  5
1075F
330
1A
100
AcDbEntity
  8
0
 48
0.3
100
AcDbLine
 10
589.1842006994746
 20
111.3427528496368
 30
0.0
 11
507.1842006994756
 21
111.3427528496368
 31
0.0
  0
LINE
  5
10760
330
1A
100
AcDbEntity
  8
0
 48
0.3
100
AcDbLine
 10
589.1842006994758
 20
80.34275284963678
 30
0.0
 11
589.1842006994746
 21
111.3427528496368
 31
0.0
  0
LINE
  5
10761
330
1A
100
AcDbEntity
  8
0
 48
0.3
100
AcDbLine
 10
507.1842006994756
 20
80.34275284963678
 30
0.0
 11
507.1842006994756
 21
111.3427528496368
 31
0.0
  0
ARC
  5
10773
330
1A
100
AcDbEntity
  8
0
100
AcDbCircle
 10
617.6842006994758
 20
118.8427528496368
 30
0.0
 40
0.5
100
AcDbArc
 50
90.0
 51
180.0000000000032
  0
ARC
  5
10774
330
1A
100
AcDbEntity
  8
0
100
AcDbCircle
 10
614.6842006994766
 20
118.8427528496368
 30
0.0
 40
0.5
100
AcDbArc
 50
90.0
 51
180.0000000000032
  0
LINE
  5
10775
330
1A
100
AcDbEntity
  8
0
100
AcDbLine
 10
614.1842006994766
 20
108.3427528496368
 30
0.0
 11
614.1842006994766
 21
118.8427528496368
 31
0.0
  0
LINE
  5
10776
330
1A
100
AcDbEntity
  8
0
100
AcDbLine
 10
617.1842006994758
 20
108.3427528496368
 30
0.0
 11
617.1842006994758
 21
118.8427528496368
 31
0.0
  0
LINE
  5
10778
330
1A
100
AcDbEntity
  8
0
 48
0.3
100
AcDbLine
 10
676.5574006994746
 20
119.3427528496368
 30
0.0
 11
677.6842006994747
 21
97.84275284963769
 31
0.0
  0
LINE
  5
1078B
330
1A
100
AcDbEntity
  8
0
 48
0.3
100
AcDbLine
 10
648.1842006994746
 20
107.3427528496368
 30
0.0
 11
625.6842006994746
 21
107.3427528496368
 31
0.0
  0
LINE
  5
1078C
330
1A
100
AcDbEntity
  8
0
 48
0.3
100
AcDbLine
 10
618.1842006994758
 20
84.47015284963709
 30
0.0
 11
606.1842006994746
 21
84.47015284963709
 31
0.0
  0
LINE
  5
1078D
330
1A
100
AcDbEntity
  8
0
 48
0.3
100
AcDbLine
 10
616.7842006994751
 20
93.94275284963716
 30
0.0
 11
607.5842006994752
 21
93.94275284963716
 31
0.0
  0
LINE
  5
1078E
330
1A
100
AcDbEntity
  8
0
 48
0.3
100
AcDbLine
 10
618.1842006994758
 20
103.8427528496367
 30
0.0
 11
606.1842006994746
 21
103.8427528496367
 31
0.0
  0
LINE
  5
1078F
330
1A
100
AcDbEntity
  8
0
 48
0.3
100
AcDbLine
 10
618.1842006994758
 20
105.8400528496368
 30
0.0
 11
606.1842006994746
 21
105.8400528496368
 31
0.0
  0
LINE
  5
10790
330
1A
100
AcDbEntity
  8
0
 48
0.3
100
AcDbLine
 10
616.7842006994751
 20
93.94275284963624
 30
0.0
 11
616.7842006994751
 21
103.8427528496367
 31
0.0
  0
LINE
  5
10791
330
1A
100
AcDbEntity
  8
0
 48
0.3
100
AcDbLine
 10
607.5842006994752
 20
93.94275284963624
 30
0.0
 11
607.5842006994752
 21
103.8427528496367
 31
0.0
  0
LINE
  5
10792
330
1A
100
AcDbEntity
  8
0
 48
0.3
100
AcDbLine
 10
648.1842006994746
 20
80.34275284963678
 30
0.0
 11
648.1842006994746
 21
107.3427528496368
 31
0.0
  0
LINE
  5
10793
330
1A
100
AcDbEntity
  8
0
 48
0.3
100
AcDbLine
 10
625.6842006994746
 20
80.34275284963678
 30
0.0
 11
625.6842006994746
 21
107.3427528496368
 31
0.0
  0
LINE
  5
10794
330
1A
100
AcDbEntity
  8
0
 48
0.3
100
AcDbLine
 10
618.1842006994758
 20
84.47015284963709
 30
0.0
 11
618.1842006994758
 21
105.8400528496368
 31
0.0
  0
LINE
  5
10795
330
1A
100
AcDbEntity
  8
0
 48
0.3
100
AcDbLine
 10
606.1842006994758
 20
84.47015284963709
 30
0.0
 11
606.1842006994758
 21
105.8400528496368
 31
0.0
  0
ARC
  5
10796
330
1A
100
AcDbEntity
  8
0
 48
0.3
100
AcDbCircle
 10
644.6842006994747
 20
118.8427528496368
 30
0.0
 40
0.5
100
AcDbArc
 50
0.0
 51
90.0
  0
ARC
  5
10797
330
1A
100
AcDbEntity
  8
0
 48
0.3
100
AcDbCircle
 10
647.6842006994758
 20
118.8427528496368
 30
0.0
 40
0.5
100
AcDbArc
 50
0.0
 51
90.0
  0
LINE
  5
10798
330
1A
100
AcDbEntity
  8
0
 48
0.3
100
AcDbLine
 10
676.5574006994746
 20
119.3427528496368
 30
0.0
 11
617.6842006994758
 21
119.3427528496368
 31
0.0
  0
LINE
  5
10799
330
1A
100
AcDbEntity
  8
0
 48
0.3
100
AcDbLine
 10
648.1842006994757
 20
108.3427528496368
 30
0.0
 11
614.1842006994766
 21
108.3427528496368
 31
0.0
  0
LINE
  5
1079A
330
1A
100
AcDbEntity
  8
0
 48
0.3
100
AcDbLine
 10
648.1842006994746
 20
108.3427528496368
 30
0.0
 11
648.1842006994757
 21
118.8427528496368
 31
0.0
  0
LINE
  5
1079B
330
1A
100
AcDbEntity
  8
0
 48
0.3
100
AcDbLine
 10
645.1842006994747
 20
108.3427528496368
 30
0.0
 11
645.1842006994747
 21
118.8427528496368
 31
0.0
  0
ARC
  5
107A3
330
1A
100
AcDbEntity
  8
0
 48
0.3
100
AcDbCircle
 10
663.3629691543609
 20
90.34275284963859
 30
0.0
 40
10.0
100
AcDbArc
 50
270.0
 51
337.7254963323318
  0
ARC
  5
107A4
330
1A
100
AcDbEntity
  8
0
 48
0.3
100
AcDbCircle
 10
635.6016146689118
 20
101.7140850993446
 30
0.0
 40
40.0
100
AcDbArc
 50
337.7254963323318
 51
355.0587875859668
  0
LINE
  5
107A5
330
1A
100
AcDbEntity
  8
0
 48
0.3
100
AcDbLine
 10
676.5574006994746
 20
119.3427528496368
 30
0.0
 11
675.4529586174847
 21
98.26874251949632
 31
0.0
  0
LINE
  5
107A8
330
1A
100
AcDbEntity
  8
0
 48
0.3
100
AcDbLine
 10
665.6333361232791
 20
80.34275284963678
 30
0.0
 11
663.1842006994746
 21
80.34275284963678
 31
0.0
  0
ARC
  5
107A9
330
1A
100
AcDbEntity
  8
0
 48
0.3
100
AcDbCircle
 10
665.6333361232791
 20
90.34275284963678
 30
0.0
 40
10.0
100
AcDbArc
 50
288.1948723388025
 51
337.7254963323318
  0
ARC
  5
107AA
330
1A
100
AcDbEntity
  8
0
 48
0.3
100
AcDbCircle
 10
637.8719816378307
 20
101.7140850993437
 30
0.0
 40
40.0
100
AcDbArc
 50
337.7254963323318
 51
354.4460312229911
  0
LINE
  5
107C1
330
1A
100
AcDbEntity
  8
0
100
AcDbLine
 10
120.1461725350086
 20
133.4430528496359
 30
0.0
 11
294.1461725350041
 21
133.4430528496368
 31
0.0
  0
ELLIPSE
  5
107C2
330
1A
100
AcDbEntity
  8
0
100
AcDbEllipse
 10
206.442040168798
 20
119.1705604815197
 30
0.0
 11
-79.2958676337921
 21
0.0
 31
0.0
210
0.0
220
0.0
230
1.0
 40
0.0164971454266456
 41
0.5076485388652922
 42
2.671772329972119
  0
LINE
  5
107C5
330
1A
100
AcDbEntity
  8
0
100
AcDbLine
 10
126.1461725350077
 20
133.1994170018224
 30
0.0
 11
288.1461725350078
 21
133.1994170018224
 31
0.0
  0
LINE
  5
107C6
330
1A
100
AcDbEntity
  8
0
100
AcDbLine
 10
122.4886447414496
 20
132.1489169351925
 30
0.0
 11
291.8037003285658
 21
132.1489169351925
 31
0.0
  0
LINE
  5
107C7
330
1A
100
AcDbEntity
  8
0
100
AcDbLine
 10
122.6001706249258
 20
131.8068221729882
 30
0.0
 11
291.692174445087
 21
131.8068221729882
 31
0.0
  0
LINE
  5
107C8
330
1A
100
AcDbEntity
  8
0
100
AcDbLine
 10
107.1461725350068
 20
98.84275284963678
 30
0.0
 11
307.146172535005
 21
98.84275284963678
 31
0.0
  0
LINE
  5
107C9
330
1A
100
AcDbEntity
  8
0
100
AcDbLine
 10
119.5837129446986
 20
137.3427528496367
 30
0.0
 11
294.7086321253123
 21
137.3427528496367
 31
0.0
  0
LINE
  5
107CA
330
1A
100
AcDbEntity
  8
0
100
AcDbLine
 10
107.6461725350059
 20
97.84275284963678
 30
0.0
 11
306.6461725350041
 21
97.84275284963678
 31
0.0
  0
ARC
  5
107D0
330
1A
100
AcDbEntity
  8
0
100
AcDbCircle
 10
115.1332714485702
 20
136.3405258203802
 30
0.0
 40
3.0
100
AcDbArc
 50
272.3433724564586
 51
330.5174808357768
  0
ARC
  5
107D1
330
1A
100
AcDbEntity
  8
0
100
AcDbCircle
 10
120.1461725350086
 20
13.84275284963678
 30
0.0
 40
119.6003
100
AcDbArc
 50
90.0
 51
92.34337245646186
  0
LINE
  5
107D4
330
1A
100
AcDbEntity
  8
0
100
AcDbLine
 10
122.6001706249258
 20
131.8068221729882
 30
0.0
 11
125.8796206304155
 21
121.7474293683299
 31
0.0
  0
ELLIPSE
  5
107D6
330
1A
100
AcDbEntity
  8
0
100
AcDbEllipse
 10
126.1461725350077
 20
132.7373170018227
 30
0.0
 11
-3.849351359772299
 21
0.0
 31
0.0
210
0.0
220
0.0
230
1.0
 40
0.1200461991671945
 41
-1.570796326794896
 42
0.0
  0
ELLIPSE
  5
107D7
330
1A
100
AcDbEntity
  8
0
100
AcDbEllipse
 10
137.1461725350059
 20
121.7474293683308
 30
0.0
 11
-11.26655190459041
 21
0.0
 31
0.0
210
0.0
220
0.0
230
1.0
 40
0.2851621554552209
 41
0.0
 42
1.570796326794896
  0
LINE
  5
107D8
330
1A
100
AcDbEntity
  8
0
100
AcDbLine
 10
122.2968211752345
 20
132.7373170018227
 30
0.0
 11
122.4886447414487
 21
132.1489169351925
 31
0.0
  0
LINE
  5
107D9
330
1A
100
AcDbEntity
  8
0
100
AcDbLine
 10
107.6461725350059
 20
97.84275284963678
 30
0.0
 11
107.6461725350059
 21
98.84275284963678
 31
0.0
  0
ARC
  5
107DA
330
1A
100
AcDbEntity
  8
0
100
AcDbCircle
 10
119.5837129446986
 20
136.5927528496368
 30
0.0
 40
0.75
100
AcDbArc
 50
90.0
 51
150.5174808357987
  0
ARC
  5
107DB
330
1A
100
AcDbEntity
  8
0
100
AcDbCircle
 10
115.3646508941879
 20
136.7497788928958
 30
0.0
 40
3.0
100
AcDbArc
 50
272.2278866528011
 51
330.517480835806
  0
ARC
  5
107DC
330
1A
100
AcDbEntity
  8
0
100
AcDbCircle
 10
113.2399547474438
 20
129.1360924485516
 30
0.0
 40
4.5
100
AcDbArc
 50
93.42799396833468
 51
177.0000000000041
  0
LINE
  5
107DD
330
1A
100
AcDbEntity
  8
0
100
AcDbLine
 10
108.7461218410485
 20
129.3716042516444
 30
0.0
 11
107.1461725350068
 21
98.84275284963678
 31
0.0
  0
ARC
  5
107DE
330
1A
100
AcDbEntity
  8
0
100
AcDbCircle
 10
120.1461725350086
 20
13.84275284963678
 30
0.0
 40
120.0
100
AcDbArc
 50
92.22788665280758
 51
93.42799396832814
  0
LINE
  5
107DF
330
1A
100
AcDbEntity
  8
0
100
AcDbLine
 10
118.930833524992
 20
136.9618713445998
 30
0.0
 11
117.7447891273955
 21
134.8640518405254
 31
0.0
  0
ARC
  5
10852
330
1A
100
AcDbEntity
  8
0
100
AcDbCircle
 10
299.1590736214572
 20
136.3405258203493
 30
0.0
 40
3.0
100
AcDbArc
 50
209.4825191641939
 51
267.6566275435316
  0
ARC
  5
10853
330
1A
100
AcDbEntity
  8
0
100
AcDbCircle
 10
294.1461725350041
 20
13.84275284963678
 30
0.0
 40
119.6003
100
AcDbArc
 50
87.65662754352833
 51
90.0
  0
LINE
  5
10854
330
1A
100
AcDbEntity
  8
0
100
AcDbLine
 10
291.6921744450879
 20
131.8068221729891
 30
0.0
 11
288.4127244395973
 21
121.7474293683299
 31
0.0
  0
ELLIPSE
  5
10856
330
1A
100
AcDbEntity
  8
0
100
AcDbEllipse
 10
288.1461725350078
 20
132.7373170018227
 30
0.0
 11
-3.849351359772299
 21
0.0
 31
0.0
210
0.0
220
0.0
230
1.0
 40
0.1200461991671945
 41
3.141592653589792
 42
4.712388980384702
  0
ELLIPSE
  5
10857
330
1A
100
AcDbEntity
  8
0
100
AcDbEllipse
 10
277.1461725350059
 20
121.7474293683308
 30
0.0
 11
11.26655190459132
 21
0.0
 31
0.0
210
0.0
220
0.0
230
1.0
 40
0.2812843727837237
 41
-1.570796326794896
 42
0.0
  0
LINE
  5
10858
330
1A
100
AcDbEntity
  8
0
100
AcDbLine
 10
291.99552389478
 20
132.7373170018227
 30
0.0
 11
291.8037003285649
 21
132.1489169351925
 31
0.0
  0
LINE
  5
10859
330
1A
100
AcDbEntity
  8
0
100
AcDbLine
 10
306.6461725350041
 20
97.84275284963678
 30
0.0
 11
306.6461725350032
 21
98.84275284963678
 31
0.0
  0
ARC
  5
1085A
330
1A
100
AcDbEntity
  8
0
100
AcDbCircle
 10
298.927694175824
 20
136.7497788928958
 30
0.0
 40
3.0
100
AcDbArc
 50
209.4825191642013
 51
267.7721133471989
  0
ARC
  5
1085B
330
1A
100
AcDbEntity
  8
0
100
AcDbCircle
 10
301.052390322568
 20
129.1360924485516
 30
0.0
 40
4.5
100
AcDbArc
 50
3.000000000005605
 51
86.57200603167513
  0
ARC
  5
1085C
330
1A
100
AcDbEntity
  8
0
100
AcDbCircle
 10
294.7086321253123
 20
136.5927528496368
 30
0.0
 40
0.75
100
AcDbArc
 50
29.48251916419844
 51
90.0
  0
LINE
  5
1085D
330
1A
100
AcDbEntity
  8
0
100
AcDbLine
 10
305.5462232289624
 20
129.3716042516453
 30
0.0
 11
307.1461725350041
 21
98.84275284963678
 31
0.0
  0
ARC
  5
1085E
330
1A
100
AcDbEntity
  8
0
100
AcDbCircle
 10
294.1461725350041
 20
13.84275284963678
 30
0.0
 40
120.0
100
AcDbArc
 50
86.57200603167186
 51
87.7721133471924
  0
LINE
  5
1085F
330
1A
100
AcDbEntity
  8
0
100
AcDbLine
 10
295.3615115450189
 20
136.9618713445998
 30
0.0
 11
296.5475559426318
 21
134.8640518404963
 31
0.0
  0
LINE
  5
10885
330
1A
100
AcDbEntity
  8
0
100
AcDbLine
 10
439.8857661639958
 20
413.0728370341056
 30
0.0
 11
439.8857661639968
 21
333.4928514432931
 31
0.0
  0
LINE
  5
10886
330
1A
100
AcDbEntity
  8
0
100
AcDbLine
 10
458.3857661639958
 20
413.4917559530239
 30
0.0
 11
458.385766163995
 21
333.0739325243758
 31
0.0
  0
LINE
  5
10887
330
1A
100
AcDbEntity
  8
0
100
AcDbLine
 10
422.8857661639939
 20
474.3759603962106
 30
0.0
 11
422.8857661639948
 21
338.5793124047914
 31
0.0
  0
LINE
  5
10888
330
1A
100
AcDbEntity
  8
0
100
AcDbLine
 10
426.3857661639931
 20
483.9784455182324
 30
0.0
 11
426.3857661640094
 21
328.4500203781818
 31
0.0
  0
LINE
  5
10889
330
1A
100
AcDbEntity
  8
0
100
AcDbLine
 10
462.3857661639958
 20
417.5328442386962
 30
0.0
 11
462.385766163994
 21
253.0328442386999
 31
0.0
  0
LINE
  5
1088A
330
1A
100
AcDbEntity
  8
0
100
AcDbLine
 10
461.3857661639921
 20
417.3173516888936
 30
0.0
 11
461.3857661639939
 21
252.5328442386999
 31
0.0
  0
ARC
  5
1088B
330
1A
100
AcDbEntity
  8
0
100
AcDbCircle
 10
673.4015306703759
 20
355.0453368265316
 30
0.0
 40
250.0
100
AcDbArc
 50
192.8046499526131
 51
202.985273932328
  0
LINE
  5
1088C
330
1A
100
AcDbEntity
  8
0
100
AcDbLine
 10
461.3857661639939
 20
253.0328442386999
 30
0.0
 11
462.385766163994
 21
253.0328442386999
 31
0.0
  0
ARC
  5
1088E
330
1A
100
AcDbEntity
  8
0
100
AcDbCircle
 10
449.6944553761795
 20
260.1551662959819
 30
0.0
 40
7.0
100
AcDbArc
 50
202.9852739323134
 51
267.0000000000074
  0
LINE
  5
1088F
330
1A
100
AcDbEntity
  8
0
100
AcDbLine
 10
461.3857661639939
 20
252.5328442386999
 30
0.0
 11
449.328103682479
 21
253.1647595527001
 31
0.0
  0
ARC
  5
10890
330
1A
100
AcDbEntity
  8
0
100
AcDbCircle
 10
456.8857661639949
 20
333.0739325243758
 30
0.0
 40
1.5
100
AcDbArc
 50
268.4518423010236
 51
0.0
  0
ARC
  5
10891
330
1A
100
AcDbEntity
  8
0
100
AcDbCircle
 10
441.3857661639958
 20
333.4928514432931
 30
0.0
 40
1.5
100
AcDbArc
 50
180.0
 51
268.4518423010236
  0
ARC
  5
10892
330
1A
100
AcDbEntity
  8
0
100
AcDbCircle
 10
571.7414183024648
 20
357.0259463697904
 30
0.0
 40
150.0
100
AcDbArc
 50
187.099657074499
 51
194.7665500333781
  0
ARC
  5
10893
330
1A
100
AcDbEntity
  8
0
100
AcDbCircle
 10
423.7946478124613
 20
318.0291118626383
 30
0.0
 40
3.0
100
AcDbArc
 50
4.493884896827758
 51
14.76655003337097
  0
ARC
  5
10894
330
1A
100
AcDbEntity
  8
0
100
AcDbCircle
 10
423.6357661639948
 20
338.5793124047914
 30
0.0
 40
0.75
100
AcDbArc
 50
180.0
 51
187.0996570745123
  0
ARC
  5
10895
330
1A
100
AcDbEntity
  8
0
100
AcDbCircle
 10
556.3857661639949
 20
328.4500203781945
 30
0.0
 40
130.0
100
AcDbArc
 50
180.0000000000065
 51
192.8046499526131
  0
LINE
  5
10898
330
1A
100
AcDbEntity
  8
0
100
AcDbLine
 10
441.3452404219741
 20
331.9933989884849
 30
0.0
 11
456.8452404219733
 21
331.5744800695666
 31
0.0
  0
ARC
  5
10899
330
1A
100
AcDbEntity
  8
0
100
AcDbCircle
 10
735.7156090504312
 20
541.1888064389748
 30
0.0
 40
300.0
100
AcDbArc
 50
190.6525741883534
 51
204.3422640716834
  0
ARC
  5
1089A
330
1A
100
AcDbEntity
  8
0
100
AcDbCircle
 10
735.7156090504312
 20
541.1888064389748
 30
0.0
 40
301.0
100
AcDbArc
 50
190.6348130966501
 51
204.3011764477992
  0
ARC
  5
1089B
330
1A
100
AcDbEntity
  8
0
100
AcDbCircle
 10
456.8857661639959
 20
413.4917559530239
 30
0.0
 40
1.5
100
AcDbArc
 50
0.0
 51
91.54815769897622
  0
ARC
  5
1089D
330
1A
100
AcDbEntity
  8
0
100
AcDbCircle
 10
441.3857661639958
 20
413.0728370341056
 30
0.0
 40
1.5
100
AcDbArc
 50
91.54815769897622
 51
180.0
  0
LINE
  5
1089E
330
1A
100
AcDbEntity
  8
0
100
AcDbLine
 10
456.8452404219741
 20
414.9912084078323
 30
0.0
 11
441.3452404219741
 21
414.5722894889148
 31
0.0
  0
ARC
  5
108A1
330
1A
100
AcDbEntity
  8
0
100
AcDbCircle
 10
423.635766163994
 20
474.3759603962106
 30
0.0
 40
0.75
100
AcDbArc
 50
156.3706222693411
 51
180.0
  0
LINE
  5
108A2
330
1A
100
AcDbEntity
  8
0
100
AcDbLine
 10
426.1342381687008
 20
481.9579231066009
 30
0.0
 11
422.9486481628172
 21
474.6765745217253
 31
0.0
  0
ARC
  5
108A3
330
1A
100
AcDbEntity
  8
0
100
AcDbCircle
 10
423.3857661639939
 20
483.1603796086601
 30
0.0
 40
3.0
100
AcDbArc
 50
336.3706222693411
 51
0.0
  0
LINE
  5
108A4
330
1A
100
AcDbEntity
  8
0
100
AcDbLine
 10
439.8857661639939
 20
487.532844238698
 30
0.0
 11
439.8857661639939
 21
485.6396925145771
 31
0.0
  0
LINE
  5
108A5
330
1A
100
AcDbEntity
  8
0
100
AcDbLine
 10
440.8857661639949
 20
487.0328442386972
 30
0.0
 11
440.8857661639931
 21
485.7328442386997
 31
0.0
  0
LINE
  5
108A6
330
1A
100
AcDbEntity
  8
0
100
AcDbLine
 10
439.8857661639939
 20
487.0328442386989
 30
0.0
 11
440.8857661639949
 21
487.0328442386989
 31
0.0
  0
LINE
  5
108A7
330
1A
100
AcDbEntity
  8
0
100
AcDbLine
 10
429.2287582952639
 20
486.9743341224967
 30
0.0
 11
439.8857661639939
 21
487.5328442386972
 31
0.0
  0
ARC
  5
108A8
330
1A
100
AcDbEntity
  8
0
100
AcDbCircle
 10
429.3857661639931
 20
483.9784455182324
 30
0.0
 40
3.0
100
AcDbArc
 50
92.99999999999256
 51
180.0000000000065
  0
LINE
  5
108AC
330
1A
100
AcDbEntity
  8
0
100
AcDbLine
 10
665.2466602897837
 20
137.3427528496367
 30
0.0
 11
490.1217411091656
 21
137.3427528496367
 31
0.0
  0
LINE
  5
108AE
330
1A
100
AcDbEntity
  8
0
100
AcDbLine
 10
676.6098412241725
 20
119.3427528496386
 30
0.0
 11
478.7585601747776
 21
119.3427528496377
 31
0.0
  0
LINE
  5
108AF
330
1A
100
AcDbEntity
  8
0
100
AcDbLine
 10
676.5574334448902
 20
120.3427528496358
 30
0.0
 11
633.6842006994746
 21
120.3427528496349
 31
0.0
  0
LINE
  5
108B0
330
1A
100
AcDbEntity
  8
0
100
AcDbLine
 10
664.6842006994746
 20
133.8427528496368
 30
0.0
 11
490.6842006994748
 21
133.8427528496368
 31
0.0
  0
ARC
  5
108C8
330
1A
100
AcDbEntity
  8
0
100
AcDbCircle
 10
669.4657223402937
 20
136.7497788928958
 30
0.0
 40
3.0
100
AcDbArc
 50
209.4825191641706
 51
267.7721133471989
  0
ARC
  5
108C9
330
1A
100
AcDbEntity
  8
0
100
AcDbCircle
 10
665.2466602897837
 20
136.5927528496368
 30
0.0
 40
0.75
100
AcDbArc
 50
29.48251916419844
 51
90.0
  0
LINE
  5
108CA
330
1A
100
AcDbEntity
  8
0
100
AcDbLine
 10
666.8542046614675
 20
135.2733049130438
 30
0.0
 11
665.8995397094903
 21
136.9618713445998
 31
0.0
  0
ARC
  5
108CB
330
1A
100
AcDbEntity
  8
0
100
AcDbCircle
 10
671.5904184870396
 20
129.1360924485516
 30
0.0
 40
4.5
100
AcDbArc
 50
3.000000000005605
 51
86.57200603166534
  0
ARC
  5
108CC
330
1A
100
AcDbEntity
  8
0
100
AcDbCircle
 10
664.6842006994746
 20
13.84275284963678
 30
0.0
 40
120.0
100
AcDbArc
 50
86.57200603167186
 51
90.0
  0
LINE
  5
108CF
330
1A
100
AcDbEntity
  8
0
100
AcDbLine
 10
676.1098412241745
 20
119.3427528496386
 30
0.0
 11
676.0574334448891
 21
120.3427528496368
 31
0.0
  0
LINE
  5
108D0
330
1A
100
AcDbEntity
  8
0
100
AcDbLine
 10
676.0574334448891
 20
120.3427528496368
 30
0.0
 11
676.0574334448882
 21
119.3427528496358
 31
0.0
  0
LINE
  5
108D2
330
1A
100
AcDbEntity
  8
0
100
AcDbLine
 10
676.0842513934349
 20
129.3716042516453
 30
0.0
 11
676.6098412241725
 21
119.3427528496377
 31
0.0
  0
ARC
  5
10923
330
1A
100
AcDbEntity
  8
0
100
AcDbCircle
 10
485.9026790586558
 20
136.7497788928958
 30
0.0
 40
3.0
100
AcDbArc
 50
272.2278866528011
 51
330.5174808358206
  0
ARC
  5
10924
330
1A
100
AcDbEntity
  8
0
100
AcDbCircle
 10
490.1217411091656
 20
136.5927528496368
 30
0.0
 40
0.75
100
AcDbArc
 50
90.0
 51
150.5174808358015
  0
LINE
  5
10925
330
1A
100
AcDbEntity
  8
0
100
AcDbLine
 10
488.5141967374811
 20
135.2733049130438
 30
0.0
 11
489.468861689459
 21
136.9618713445998
 31
0.0
  0
ARC
  5
10926
330
1A
100
AcDbEntity
  8
0
100
AcDbCircle
 10
483.7779829119098
 20
129.1360924485516
 30
0.0
 40
4.5
100
AcDbArc
 50
93.42799396833468
 51
177.0000000000041
  0
ARC
  5
10927
330
1A
100
AcDbEntity
  8
0
100
AcDbCircle
 10
490.6842006994748
 20
13.84275284963678
 30
0.0
 40
120.0
100
AcDbArc
 50
90.0
 51
93.42799396833141
  0
LINE
  5
1092A
330
1A
100
AcDbEntity
  8
0
100
AcDbLine
 10
479.2585601747778
 20
119.3427528496386
 30
0.0
 11
479.3109679540602
 21
120.3427528496368
 31
0.0
  0
LINE
  5
1092B
330
1A
100
AcDbEntity
  8
0
100
AcDbLine
 10
479.3109679540602
 20
120.3427528496368
 30
0.0
 11
479.3109679540602
 21
119.3427528496349
 31
0.0
  0
LINE
  5
1092E
330
1A
100
AcDbEntity
  8
0
100
AcDbLine
 10
479.2841500055155
 20
129.3716042516444
 30
0.0
 11
478.758560174776
 21
119.3427528496377
 31
0.0
  0
ELLIPSE
  5
1197F
330
1A
100
AcDbEntity
  8
0
100
AcDbEllipse
 10
481.8498677791311
 20
284.4794212111901
 30
0.0
 11
-0.0000000000000001
 21
-1.872309719355143
 31
0.0
210
0.0
220
0.0
230
1.0
 40
0.1431115747896772
 41
0.0
 42
1.570796326794896
  0
LINE
  5
11980
330
1A
100
AcDbEntity
  8
0
100
AcDbLine
 10
479.8857661639921
 20
278.5328442387008
 30
0.0
 11
479.8857661639931
 21
304.5328442386999
 31
0.0
  0
LINE
  5
11981
330
1A
100
AcDbEntity
  8
0
100
AcDbLine
 10
479.3857661639913
 20
280.532844238699
 30
0.0
 11
479.3857661639931
 21
302.5328442386999
 31
0.0
  0
LINE
  5
11982
330
1A
100
AcDbEntity
  8
0
100
AcDbLine
 10
482.3857661639895
 20
280.532844238689
 30
0.0
 11
482.3857661640013
 21
302.5328442386763
 31
0.0
  0
LINE
  5
11983
330
1A
100
AcDbEntity
  8
0
100
AcDbLine
 10
481.8498677791303
 20
279.7857081965339
 30
0.0
 11
481.8498677791295
 21
282.607111491835
 31
0.0
  0
LINE
  5
11984
330
1A
100
AcDbEntity
  8
0
100
AcDbLine
 10
481.8498677791311
 20
278.5328442386999
 30
0.0
 11
481.8498677791303
 21
278.7563086821119
 31
0.0
  0
ELLIPSE
  5
11985
330
1A
100
AcDbEntity
  8
0
100
AcDbEllipse
 10
481.8498677791311
 20
280.1201660431571
 30
0.0
 11
-0.0000000000000001
 21
-1.36385736104512
 31
0.0
210
0.0
220
0.0
230
1.0
 40
0.1964642345190735
 41
0.9849600977420374
 42
1.570796326794896
  0
ELLIPSE
  5
11986
330
1A
100
AcDbEntity
  8
0
100
AcDbEllipse
 10
481.8498677791311
 20
280.1201660431571
 30
0.0
 11
-0.0000000000000001
 21
-1.36385736104512
 31
0.0
210
0.0
220
0.0
230
1.0
 40
0.1964642345190735
 41
0.0
 42
0.2803830181098012
  0
LINE
  5
11987
330
1A
100
AcDbEntity
  8
0
100
AcDbLine
 10
481.8498677791311
 20
279.7857081965339
 30
0.0
 11
479.8857661639913
 21
279.7857081965339
 31
0.0
  0
LINE
  5
11988
330
1A
100
AcDbEntity
  8
0
100
AcDbLine
 10
481.8498677791321
 20
278.756308682111
 30
0.0
 11
479.8857661639921
 21
278.7563086821119
 31
0.0
  0
ELLIPSE
  5
11989
330
1A
100
AcDbEntity
  8
0
100
AcDbEllipse
 10
481.8498677791311
 20
280.1201660431571
 30
0.0
 11
0.0
 21
-0.3344578466230814
 31
0.0
210
0.0
220
0.0
230
1.0
 40
0.8011448830886589
 41
0.0
 42
1.570796326794896
  0
LINE
  5
1198A
330
1A
100
AcDbEntity
  8
0
100
AcDbLine
 10
481.8498677791311
 20
282.607111491835
 30
0.0
 11
479.8857661639921
 21
282.607111491835
 31
0.0
  0
LINE
  5
1198B
330
1A
100
AcDbEntity
  8
0
100
AcDbLine
 10
481.8498677791311
 20
278.5328442386999
 30
0.0
 11
479.8857661639921
 21
278.5328442386999
 31
0.0
  0
LINE
  5
1198C
330
1A
100
AcDbEntity
  8
0
100
AcDbLine
 10
479.8857661639931
 20
280.0328442386981
 30
0.0
 11
479.3857661639931
 21
280.5328442386972
 31
0.0
  0
LINE
  5
1198D
330
1A
100
AcDbEntity
  8
0
100
AcDbLine
 10
482.3857661639921
 20
280.5328442386999
 30
0.0
 11
481.8498677791311
 21
278.5328442386999
 31
0.0
  0
LINE
  5
1198E
330
1A
100
AcDbEntity
  8
0
100
AcDbLine
 10
481.8498677791311
 20
304.3093797952888
 30
0.0
 11
481.8498677791331
 21
304.532844238699
 31
0.0
  0
LINE
  5
1198F
330
1A
100
AcDbEntity
  8
0
100
AcDbLine
 10
481.8498677791311
 20
300.4585769855639
 30
0.0
 11
481.8498677791311
 21
303.279980280864
 31
0.0
  0
LINE
  5
11990
330
1A
100
AcDbEntity
  8
0
100
AcDbLine
 10
481.8498677791295
 20
293.1984476410362
 30
0.0
 11
481.8498677791295
 21
297.7635740688047
 31
0.0
  0
LINE
  5
11991
330
1A
100
AcDbEntity
  8
0
100
AcDbLine
 10
481.8498677791295
 20
285.3021144085933
 30
0.0
 11
481.8498677791285
 21
289.8672408363627
 31
0.0
  0
ELLIPSE
  5
11992
330
1A
100
AcDbEntity
  8
0
100
AcDbEllipse
 10
481.8498677791311
 20
302.9455224342428
 30
0.0
 11
0.0000000000000001
 21
1.36385736104512
 31
0.0
210
0.0
220
0.0
230
-1.0
 40
0.1964642345190735
 41
0.9849600977409259
 42
1.570796326794896
  0
ELLIPSE
  5
11993
330
1A
100
AcDbEntity
  8
0
100
AcDbEllipse
 10
481.8498677791311
 20
302.9455224342428
 30
0.0
 11
0.0000000000000001
 21
1.36385736104512
 31
0.0
210
0.0
220
0.0
230
-1.0
 40
0.1964642345190735
 41
0.0
 42
0.2803830181132475
  0
LINE
  5
11994
330
1A
100
AcDbEntity
  8
0
100
AcDbLine
 10
481.8498677791321
 20
304.3093797952878
 30
0.0
 11
479.8857661639921
 21
304.3093797952888
 31
0.0
  0
LINE
  5
11995
330
1A
100
AcDbEntity
  8
0
100
AcDbLine
 10
481.8498677791321
 20
303.279980280864
 30
0.0
 11
479.8857661639921
 21
303.279980280865
 31
0.0
  0
ELLIPSE
  5
11996
330
1A
100
AcDbEntity
  8
0
100
AcDbEllipse
 10
481.8498677791311
 20
302.9455224342428
 30
0.0
 11
0.0
 21
0.3344578466230814
 31
0.0
210
0.0
220
0.0
230
-1.0
 40
0.8011448830886589
 41
0.0
 42
1.570796326794896
  0
LINE
  5
11997
330
1A
100
AcDbEntity
  8
0
100
AcDbLine
 10
481.8498677791321
 20
297.7635740688047
 30
0.0
 11
479.8857661639931
 21
297.7635740688047
 31
0.0
  0
LINE
  5
11998
330
1A
100
AcDbEntity
  8
0
100
AcDbLine
 10
481.8498677791311
 20
300.4585769855648
 30
0.0
 11
479.8857661639931
 21
300.4585769855648
 31
0.0
  0
ELLIPSE
  5
11999
330
1A
100
AcDbEntity
  8
0
100
AcDbEllipse
 10
481.8498677791311
 20
298.5862672662097
 30
0.0
 11
-0.0000000000000001
 21
-0.8226931974031684
 31
0.0
210
0.0
220
0.0
230
-1.0
 40
0.3256975908840804
 41
-1.570796326794896
 42
0.0
  0
ELLIPSE
  5
1199A
330
1A
100
AcDbEntity
  8
0
100
AcDbEllipse
 10
481.8498677791311
 20
298.5862672662097
 30
0.0
 11
0.0000000000000001
 21
1.872309719355143
 31
0.0
210
0.0
220
0.0
230
-1.0
 40
0.1431115747896772
 41
0.0
 42
1.570796326794896
  0
LINE
  5
1199B
330
1A
100
AcDbEntity
  8
0
100
AcDbLine
 10
481.8498677791311
 20
285.3021144085941
 30
0.0
 11
479.8857661639921
 21
285.3021144085933
 31
0.0
  0
ELLIPSE
  5
1199C
330
1A
100
AcDbEntity
  8
0
100
AcDbEllipse
 10
481.8498677791311
 20
284.4794212111901
 30
0.0
 11
0.0000000000000001
 21
0.8226931974031684
 31
0.0
210
0.0
220
0.0
230
1.0
 40
0.3256975908840804
 41
-1.570796326794896
 42
0.0
  0
LINE
  5
1199D
330
1A
100
AcDbEntity
  8
0
100
AcDbLine
 10
481.8498677791321
 20
293.1984476410372
 30
0.0
 11
479.8857661639913
 21
293.1984476410372
 31
0.0
  0
LINE
  5
1199E
330
1A
100
AcDbEntity
  8
0
100
AcDbLine
 10
481.8498677791321
 20
289.8672408363627
 30
0.0
 11
479.8857661639931
 21
289.8672408363627
 31
0.0
  0
ARC
  5
1199F
330
1A
100
AcDbEntity
  8
0
100
AcDbCircle
 10
476.8070499605055
 20
291.5328442386999
 30
0.0
 40
5.310767011056539
100
AcDbArc
 50
341.7220135715112
 51
18.27798642848873
  0
LINE
  5
119A0
330
1A
100
AcDbEntity
  8
0
100
AcDbLine
 10
481.8498677791331
 20
304.5328442386999
 30
0.0
 11
479.8857661639921
 21
304.5328442386999
 31
0.0
  0
LINE
  5
119A1
330
1A
100
AcDbEntity
  8
0
100
AcDbLine
 10
479.8857661639931
 20
303.0328442386998
 30
0.0
 11
479.3857661639913
 21
302.532844238699
 31
0.0
  0
LINE
  5
119A2
330
1A
100
AcDbEntity
  8
0
100
AcDbLine
 10
483.8857661639913
 20
287.0328442386981
 30
0.0
 11
483.8857661639921
 21
296.0328442386981
 31
0.0
  0
ARC
  5
119A3
330
1A
100
AcDbEntity
  8
0
100
AcDbCircle
 10
478.2607661639968
 20
291.5328442387008
 30
0.0
 40
6.624999999996139
100
AcDbArc
 50
328.1092081981467
 51
31.89079180185326
  0
LINE
  5
119A4
330
1A
100
AcDbEntity
  8
0
100
AcDbLine
 10
483.8857661639921
 20
287.032844238699
 30
0.0
 11
483.1357661639939
 21
286.5998315368079
 31
0.0
  0
LINE
  5
119A5
330
1A
100
AcDbEntity
  8
0
100
AcDbLine
 10
483.8857661639921
 20
296.0328442386981
 30
0.0
 11
483.1357661639986
 21
296.4658569405865
 31
0.0
  0
ARC
  5
119A6
330
1A
100
AcDbEntity
  8
0
100
AcDbCircle
 10
483.8857661639986
 20
297.7648950462635
 30
0.0
 40
1.5
100
AcDbArc
 50
179.9999999999772
 51
239.9999999999995
  0
ARC
  5
119A7
330
1A
100
AcDbEntity
  8
0
100
AcDbCircle
 10
483.8857661639941
 20
285.3007934311309
 30
0.0
 40
1.5
100
AcDbArc
 50
120.0000000000006
 51
179.9999999999966
  0
LINE
  5
119A8
330
1A
100
AcDbEntity
  8
0
100
AcDbLine
 10
482.3857661639931
 20
302.5328442386999
 30
0.0
 11
481.8498677791321
 21
304.5328442386999
 31
0.0
  0
ELLIPSE
  5
119A9
330
1A
100
AcDbEntity
  8
0
100
AcDbEllipse
 10
481.849867779134
 20
450.4794212111901
 30
0.0
 11
-0.0000000000000001
 21
-1.872309719355143
 31
0.0
210
0.0
220
0.0
230
1.0
 40
0.1431115747896772
 41
0.0
 42
1.570796326794896
  0
LINE
  5
119AA
330
1A
100
AcDbEntity
  8
0
100
AcDbLine
 10
479.8857661639948
 20
444.5328442387006
 30
0.0
 11
479.8857661639957
 21
470.5328442386997
 31
0.0
  0
LINE
  5
119AB
330
1A
100
AcDbEntity
  8
0
100
AcDbLine
 10
479.385766163994
 20
446.5328442386988
 30
0.0
 11
479.3857661639957
 21
468.5328442386998
 31
0.0
  0
LINE
  5
119AC
330
1A
100
AcDbEntity
  8
0
100
AcDbLine
 10
482.3857661639921
 20
446.5328442386889
 30
0.0
 11
482.3857661640039
 21
468.5328442386762
 31
0.0
  0
LINE
  5
119AD
330
1A
100
AcDbEntity
  8
0
100
AcDbLine
 10
481.8498677791331
 20
445.785708196534
 30
0.0
 11
481.8498677791321
 21
448.607111491835
 31
0.0
  0
LINE
  5
119AE
330
1A
100
AcDbEntity
  8
0
100
AcDbLine
 10
481.849867779134
 20
444.5328442386998
 30
0.0
 11
481.8498677791331
 21
444.7563086821118
 31
0.0
  0
ELLIPSE
  5
119AF
330
1A
100
AcDbEntity
  8
0
100
AcDbEllipse
 10
481.849867779134
 20
446.1201660431569
 30
0.0
 11
-0.0000000000000001
 21
-1.36385736104512
 31
0.0
210
0.0
220
0.0
230
1.0
 40
0.1964642345190735
 41
0.9849600977420374
 42
1.570796326794896
  0
ELLIPSE
  5
119B0
330
1A
100
AcDbEntity
  8
0
100
AcDbEllipse
 10
481.849867779134
 20
446.1201660431569
 30
0.0
 11
-0.0000000000000001
 21
-1.36385736104512
 31
0.0
210
0.0
220
0.0
230
1.0
 40
0.1964642345190735
 41
0.0
 42
0.2803830181098012
  0
LINE
  5
119B1
330
1A
100
AcDbEntity
  8
0
100
AcDbLine
 10
481.849867779134
 20
445.785708196534
 30
0.0
 11
479.885766163994
 21
445.785708196534
 31
0.0
  0
LINE
  5
119B2
330
1A
100
AcDbEntity
  8
0
100
AcDbLine
 10
481.8498677791349
 20
444.756308682111
 30
0.0
 11
479.8857661639948
 21
444.7563086821118
 31
0.0
  0
ELLIPSE
  5
119B3
330
1A
100
AcDbEntity
  8
0
100
AcDbEllipse
 10
481.849867779134
 20
446.1201660431569
 30
0.0
 11
0.0
 21
-0.3344578466230814
 31
0.0
210
0.0
220
0.0
230
1.0
 40
0.8011448830886589
 41
0.0
 42
1.570796326794896
  0
LINE
  5
119B4
330
1A
100
AcDbEntity
  8
0
100
AcDbLine
 10
481.849867779134
 20
448.607111491835
 30
0.0
 11
479.8857661639948
 21
448.607111491835
 31
0.0
  0
LINE
  5
119B5
330
1A
100
AcDbEntity
  8
0
100
AcDbLine
 10
481.849867779134
 20
444.5328442386998
 30
0.0
 11
479.8857661639948
 21
444.5328442386998
 31
0.0
  0
LINE
  5
119B6
330
1A
100
AcDbEntity
  8
0
100
AcDbLine
 10
479.8857661639957
 20
446.032844238698
 30
0.0
 11
479.3857661639957
 21
446.5328442386971
 31
0.0
  0
LINE
  5
119B7
330
1A
100
AcDbEntity
  8
0
100
AcDbLine
 10
482.3857661639949
 20
446.5328442386998
 30
0.0
 11
481.849867779134
 21
444.5328442386998
 31
0.0
  0
LINE
  5
119B8
330
1A
100
AcDbEntity
  8
0
100
AcDbLine
 10
481.849867779134
 20
470.3093797952886
 30
0.0
 11
481.8498677791349
 21
470.5328442386988
 31
0.0
  0
LINE
  5
119B9
330
1A
100
AcDbEntity
  8
0
100
AcDbLine
 10
481.849867779134
 20
466.4585769855638
 30
0.0
 11
481.849867779134
 21
469.279980280864
 31
0.0
  0
LINE
  5
119BA
330
1A
100
AcDbEntity
  8
0
100
AcDbLine
 10
481.8498677791321
 20
459.1984476410361
 30
0.0
 11
481.8498677791321
 21
463.7635740688047
 31
0.0
  0
LINE
  5
119BB
330
1A
100
AcDbEntity
  8
0
100
AcDbLine
 10
481.8498677791321
 20
451.3021144085932
 30
0.0
 11
481.8498677791311
 21
455.8672408363626
 31
0.0
  0
ELLIPSE
  5
119BC
330
1A
100
AcDbEntity
  8
0
100
AcDbEllipse
 10
481.849867779134
 20
468.9455224342427
 30
0.0
 11
0.0000000000000001
 21
1.36385736104512
 31
0.0
210
0.0
220
0.0
230
-1.0
 40
0.1964642345190735
 41
0.9849600977409259
 42
1.570796326794896
  0
ELLIPSE
  5
119BD
330
1A
100
AcDbEntity
  8
0
100
AcDbEllipse
 10
481.849867779134
 20
468.9455224342427
 30
0.0
 11
0.0000000000000001
 21
1.36385736104512
 31
0.0
210
0.0
220
0.0
230
-1.0
 40
0.1964642345190735
 41
0.0
 42
0.2803830181132475
  0
LINE
  5
119BE
330
1A
100
AcDbEntity
  8
0
100
AcDbLine
 10
481.8498677791349
 20
470.3093797952877
 30
0.0
 11
479.8857661639948
 21
470.3093797952886
 31
0.0
  0
LINE
  5
119BF
330
1A
100
AcDbEntity
  8
0
100
AcDbLine
 10
481.8498677791349
 20
469.279980280864
 30
0.0
 11
479.8857661639948
 21
469.2799802808648
 31
0.0
  0
ELLIPSE
  5
119C0
330
1A
100
AcDbEntity
  8
0
100
AcDbEllipse
 10
481.849867779134
 20
468.9455224342427
 30
0.0
 11
0.0
 21
0.3344578466230814
 31
0.0
210
0.0
220
0.0
230
-1.0
 40
0.8011448830886589
 41
0.0
 42
1.570796326794896
  0
LINE
  5
119C1
330
1A
100
AcDbEntity
  8
0
100
AcDbLine
 10
481.8498677791349
 20
463.7635740688047
 30
0.0
 11
479.8857661639957
 21
463.7635740688047
 31
0.0
  0
LINE
  5
119C2
330
1A
100
AcDbEntity
  8
0
100
AcDbLine
 10
481.849867779134
 20
466.4585769855648
 30
0.0
 11
479.8857661639957
 21
466.4585769855648
 31
0.0
  0
ELLIPSE
  5
119C3
330
1A
100
AcDbEntity
  8
0
100
AcDbEllipse
 10
481.849867779134
 20
464.5862672662096
 30
0.0
 11
-0.0000000000000001
 21
-0.8226931974031684
 31
0.0
210
0.0
220
0.0
230
-1.0
 40
0.3256975908840804
 41
-1.570796326794896
 42
0.0
  0
ELLIPSE
  5
119C4
330
1A
100
AcDbEntity
  8
0
100
AcDbEllipse
 10
481.849867779134
 20
464.5862672662096
 30
0.0
 11
0.0000000000000001
 21
1.872309719355143
 31
0.0
210
0.0
220
0.0
230
-1.0
 40
0.1431115747896772
 41
0.0
 42
1.570796326794896
  0
LINE
  5
119C5
330
1A
100
AcDbEntity
  8
0
100
AcDbLine
 10
481.849867779134
 20
451.3021144085942
 30
0.0
 11
479.8857661639948
 21
451.3021144085932
 31
0.0
  0
ELLIPSE
  5
119C6
330
1A
100
AcDbEntity
  8
0
100
AcDbEllipse
 10
481.849867779134
 20
450.4794212111901
 30
0.0
 11
0.0000000000000001
 21
0.8226931974031684
 31
0.0
210
0.0
220
0.0
230
1.0
 40
0.3256975908840804
 41
-1.570796326794896
 42
0.0
  0
LINE
  5
119C7
330
1A
100
AcDbEntity
  8
0
100
AcDbLine
 10
481.8498677791349
 20
459.1984476410369
 30
0.0
 11
479.885766163994
 21
459.1984476410369
 31
0.0
  0
LINE
  5
119C8
330
1A
100
AcDbEntity
  8
0
100
AcDbLine
 10
481.8498677791349
 20
455.8672408363626
 30
0.0
 11
479.8857661639957
 21
455.8672408363626
 31
0.0
  0
ARC
  5
119C9
330
1A
100
AcDbEntity
  8
0
100
AcDbCircle
 10
476.8070499605082
 20
457.5328442386997
 30
0.0
 40
5.310767011056539
100
AcDbArc
 50
341.7220135715112
 51
18.27798642848873
  0
LINE
  5
119CA
330
1A
100
AcDbEntity
  8
0
100
AcDbLine
 10
481.8498677791358
 20
470.5328442386997
 30
0.0
 11
479.8857661639948
 21
470.5328442386997
 31
0.0
  0
LINE
  5
119CB
330
1A
100
AcDbEntity
  8
0
100
AcDbLine
 10
479.8857661639957
 20
469.0328442386998
 30
0.0
 11
479.385766163994
 21
468.532844238699
 31
0.0
  0
LINE
  5
119CC
330
1A
100
AcDbEntity
  8
0
100
AcDbLine
 10
483.8857661639941
 20
453.0328442386981
 30
0.0
 11
483.8857661639949
 21
462.0328442386981
 31
0.0
  0
ARC
  5
119CD
330
1A
100
AcDbEntity
  8
0
100
AcDbCircle
 10
478.2607661639993
 20
457.5328442387008
 30
0.0
 40
6.624999999996139
100
AcDbArc
 50
328.1092081981467
 51
31.89079180185326
  0
LINE
  5
119CE
330
1A
100
AcDbEntity
  8
0
100
AcDbLine
 10
483.8857661639949
 20
453.032844238699
 30
0.0
 11
483.1357661639968
 21
452.5998315368077
 31
0.0
  0
LINE
  5
119CF
330
1A
100
AcDbEntity
  8
0
100
AcDbLine
 10
483.8857661639949
 20
462.0328442386981
 30
0.0
 11
483.1357661640013
 21
462.4658569405863
 31
0.0
  0
ARC
  5
119D0
330
1A
100
AcDbEntity
  8
0
100
AcDbCircle
 10
483.8857661640012
 20
463.7648950462635
 30
0.0
 40
1.5
100
AcDbArc
 50
179.9999999999772
 51
239.9999999999995
  0
ARC
  5
119D1
330
1A
100
AcDbEntity
  8
0
100
AcDbCircle
 10
483.8857661639966
 20
451.3007934311308
 30
0.0
 40
1.5
100
AcDbArc
 50
120.0000000000006
 51
179.9999999999966
  0
LINE
  5
119D2
330
1A
100
AcDbEntity
  8
0
100
AcDbLine
 10
482.3857661639959
 20
468.5328442386998
 30
0.0
 11
481.8498677791349
 21
470.5328442386997
 31
0.0
  0
LINE
  5
119D5
330
1A
100
AcDbEntity
  8
0
 48
0.3
100
AcDbLine
 10
479.8857661639948
 20
444.5328442387006
 30
0.0
 11
479.885766163994
 21
417.5328442386998
 31
0.0
  0
LINE
  5
119D8
330
1A
100
AcDbEntity
  8
0
 48
0.3
100
AcDbLine
 10
482.885766163994
 20
286.4188274198805
 30
0.0
 11
482.885766163994
 21
268.0328442386999
 31
0.0
  0
ARC
  5
11ABB
330
1A
100
AcDbEntity
  8
0
100
AcDbCircle
 10
172.3404267117707
 20
489.723042687815
 30
0.0
 40
2.0
100
AcDbArc
 50
189.4623222080277
 51
270.0
  0
ARC
  5
11ABC
330
1A
100
AcDbEntity
  8
0
100
AcDbCircle
 10
142.1875538001545
 20
502.723042687815
 30
0.0
 40
3.0
100
AcDbArc
 50
90.0
 51
170.5376777919759
  0
ARC
  5
11ABD
330
1A
100
AcDbEntity
  8
0
100
AcDbCircle
 10
165.1047912698554
 20
502.723042687815
 30
0.0
 40
3.0
100
AcDbArc
 50
9.462322208023993
 51
90.0
  0
LINE
  5
11ABE
330
1A
100
AcDbEntity
  8
0
100
AcDbLine
 10
143.646172535005
 20
502.723042687815
 30
0.0
 11
142.1875538001545
 21
502.723042687815
 31
0.0
  0
LINE
  5
11ABF
330
1A
100
AcDbEntity
  8
0
100
AcDbLine
 10
142.1875538001545
 20
502.723042687815
 30
0.0
 11
140.0208871334875
 21
489.723042687815
 31
0.0
  0
LINE
  5
11AC0
330
1A
100
AcDbEntity
  8
0
100
AcDbLine
 10
139.2283720286582
 20
503.2162396497305
 30
0.0
 11
136.9247062059026
 21
489.3942447132047
 31
0.0
  0
LINE
  5
11AC1
330
1A
100
AcDbEntity
  8
0
100
AcDbLine
 10
168.0639730413518
 20
503.2162396497315
 30
0.0
 11
170.3676388641047
 21
489.3942447132038
 31
0.0
  0
LINE
  5
11AC2
330
1A
100
AcDbEntity
  8
0
100
AcDbLine
 10
142.1875538001545
 20
505.723042687815
 30
0.0
 11
165.1047912698554
 21
505.723042687815
 31
0.0
  0
ARC
  5
11AC3
330
1A
100
AcDbEntity
  8
0
100
AcDbCircle
 10
143.646172535005
 20
496.2230426878148
 30
0.0
 40
6.5
100
AcDbArc
 50
270.0
 51
90.0
  0
LINE
  5
11AC6
330
1A
100
AcDbEntity
  8
0
100
AcDbLine
 10
143.646172535005
 20
489.723042687815
 30
0.0
 11
140.0208871334875
 21
489.723042687815
 31
0.0
  0
ARC
  5
11AC7
330
1A
100
AcDbEntity
  8
0
100
AcDbCircle
 10
134.9519183582392
 20
489.723042687815
 30
0.0
 40
2.0
100
AcDbArc
 50
270.0000000000033
 51
350.5376777919722
  0
CIRCLE
  5
11AC8
330
1A
100
AcDbEntity
  8
0
100
AcDbCircle
 10
159.646172535005
 20
496.723042687815
 30
0.0
 40
5.0
  0
CIRCLE
  5
11AC9
330
1A
100
AcDbEntity
  8
0
100
AcDbCircle
 10
159.646172535005
 20
496.723042687815
 30
0.0
 40
8.5
  0
LINE
  5
11ACB
330
1A
100
AcDbEntity
  8
0
 48
0.3
100
AcDbLine
 10
439.1857661639959
 20
504.5328442387008
 30
0.0
 11
439.1857661639932
 21
488.5328442387008
 31
0.0
  0
LINE
  5
11ACC
330
1A
100
AcDbEntity
  8
0
100
AcDbLine
 10
439.6857661639933
 20
488.0328442387008
 30
0.0
 11
440.8857661639949
 21
488.0328442387008
 31
0.0
  0
LINE
  5
11ACD
330
1A
100
AcDbEntity
  8
0
100
AcDbLine
 10
439.685766163996
 20
505.0328442387008
 30
0.0
 11
440.8857661639959
 21
505.0328442386998
 31
0.0
  0
ARC
  5
11ACE
330
1A
100
AcDbEntity
  8
0
100
AcDbCircle
 10
439.6857661639933
 20
488.5328442387008
 30
0.0
 40
0.5
100
AcDbArc
 50
179.9999999999966
 51
270.0
  0
ARC
  5
11ACF
330
1A
100
AcDbEntity
  8
0
100
AcDbCircle
 10
439.685766163996
 20
504.5328442387008
 30
0.0
 40
0.5
100
AcDbArc
 50
90.0
 51
179.9999999999935
  0
LINE
  5
11AD1
330
1A
100
AcDbEntity
  8
0
100
AcDbLine
 10
633.6842006994746
 20
120.5427528496357
 30
0.0
 11
633.6842006994737
 21
119.3427528496358
 31
0.0
  0
ARC
  5
11AD2
330
1A
100
AcDbEntity
  8
0
100
AcDbCircle
 10
633.1842006994746
 20
120.5427528496357
 30
0.0
 40
0.5
100
AcDbArc
 50
359.9999999999968
 51
89.99999999999348
  0
LINE
  5
11AD3
330
1A
100
AcDbEntity
  8
0
 48
0.3
100
AcDbLine
 10
633.1842006994746
 20
121.0427528496357
 30
0.0
 11
617.1842006994746
 21
121.0427528496384
 31
0.0
  0
LINE
  5
11AD4
330
1A
100
AcDbEntity
  8
0
100
AcDbLine
 10
616.6842006994746
 20
120.5427528496384
 30
0.0
 11
616.6842006994746
 21
119.3427528496368
 31
0.0
  0
ARC
  5
11AD5
330
1A
100
AcDbEntity
  8
0
100
AcDbCircle
 10
617.1842006994746
 20
120.5427528496384
 30
0.0
 40
0.5
100
AcDbArc
 50
89.99999999999673
 51
179.9999999999966
  0
LINE
  5
11AD7
330
1A
100
AcDbEntity
  8
0
100
AcDbLine
 10
616.6842006994746
 20
120.3427528496358
 30
0.0
 11
478.8109679540611
 21
120.3427528496368
 31
0.0
  0
LINE
  5
11B9E
330
1A
100
AcDbEntity
  8
0
100
AcDbLine
 10
279.3990364928382
 20
78.37865123450227
 30
0.0
 11
282.2204397881392
 21
78.3786512345032
 31
0.0
  0
LINE
  5
11B9F
330
1A
100
AcDbEntity
  8
0
100
AcDbLine
 10
280.1461725349932
 20
77.84275284964315
 30
0.0
 11
302.1461725349805
 21
77.84275284963133
 31
0.0
  0
LINE
  5
11BA0
330
1A
100
AcDbEntity
  8
0
100
AcDbLine
 10
298.2178069580172
 20
80.84275284963949
 30
0.0
 11
302.1461725350041
 21
80.84275284963949
 31
0.0
  0
LINE
  5
11BA1
330
1A
100
AcDbEntity
  8
0
100
AcDbLine
 10
278.146172535005
 20
80.34275284964044
 30
0.0
 11
304.1461725350041
 21
80.34275284963952
 31
0.0
  0
LINE
  5
11BA2
330
1A
100
AcDbEntity
  8
0
100
AcDbLine
 10
280.1461725350041
 20
77.84275284964043
 30
0.0
 11
278.1461725350041
 21
78.37865123450137
 31
0.0
  0
LINE
  5
11BA4
330
1A
100
AcDbEntity
  8
0
100
AcDbLine
 10
278.1461725350041
 20
78.37865123450137
 30
0.0
 11
278.1461725350041
 21
80.34275284964044
 31
0.0
  0
ELLIPSE
  5
11BA5
330
1A
100
AcDbEntity
  8
0
100
AcDbEllipse
 10
279.7334943394612
 20
78.37865123450137
 30
0.0
 11
-0.3344578466230814
 21
0.0
 31
0.0
210
0.0
220
0.0
230
1.0
 40
0.8011448830886589
 41
0.0
 42
1.570796326794896
  0
LINE
  5
11BA6
330
1A
100
AcDbEntity
  8
0
100
AcDbLine
 10
278.3696369784152
 20
78.37865123450047
 30
0.0
 11
278.3696369784161
 21
80.34275284964044
 31
0.0
  0
LINE
  5
11BA7
330
1A
100
AcDbEntity
  8
0
100
AcDbLine
 10
279.3990364928382
 20
78.37865123450137
 30
0.0
 11
279.3990364928382
 21
80.34275284964133
 31
0.0
  0
ELLIPSE
  5
11BA8
330
1A
100
AcDbEntity
  8
0
100
AcDbEllipse
 10
279.7334943394612
 20
78.37865123450137
 30
0.0
 11
-1.36385736104512
 21
0.0
 31
0.0
210
0.0
220
0.0
230
1.0
 40
0.1964642345190735
 41
0.0
 42
0.2803830181098012
  0
ELLIPSE
  5
11BA9
330
1A
100
AcDbEntity
  8
0
100
AcDbEllipse
 10
279.7334943394612
 20
78.37865123450137
 30
0.0
 11
-1.36385736104512
 21
0.0
 31
0.0
210
0.0
220
0.0
230
1.0
 40
0.1964642345190735
 41
0.9849600977420374
 42
1.570796326794896
  0
LINE
  5
11BAA
330
1A
100
AcDbEntity
  8
0
100
AcDbLine
 10
278.1461725350041
 20
78.37865123450137
 30
0.0
 11
278.3696369784161
 21
78.37865123450227
 31
0.0
  0
LINE
  5
11BAB
330
1A
100
AcDbEntity
  8
0
100
AcDbLine
 10
302.1461725350041
 20
77.84275284963951
 30
0.0
 11
304.1461725350041
 21
78.37865123450047
 31
0.0
  0
ARC
  5
11BAC
330
1A
100
AcDbEntity
  8
0
100
AcDbCircle
 10
284.914121727435
 20
76.3427528496386
 30
0.0
 40
1.5
100
AcDbArc
 50
30.00000000000055
 51
89.99999999999673
  0
ARC
  5
11BAD
330
1A
100
AcDbEntity
  8
0
100
AcDbCircle
 10
297.3782233425676
 20
76.34275284963405
 30
0.0
 40
1.5
100
AcDbArc
 50
89.9999999999772
 51
149.9999999999994
  0
LINE
  5
11BAE
330
1A
100
AcDbEntity
  8
0
100
AcDbLine
 10
295.6461725350024
 20
76.34275284964044
 30
0.0
 11
296.0791852368907
 21
77.09275284963405
 31
0.0
  0
LINE
  5
11BAF
330
1A
100
AcDbEntity
  8
0
100
AcDbLine
 10
286.6461725350032
 20
76.34275284964044
 30
0.0
 11
286.2131598331121
 21
77.0927528496386
 31
0.0
  0
ARC
  5
11BB0
330
1A
100
AcDbEntity
  8
0
100
AcDbCircle
 10
291.146172535005
 20
81.96775284963587
 30
0.0
 40
6.624999999996139
100
AcDbArc
 50
238.1092081981449
 51
301.890791801855
  0
LINE
  5
11BB1
330
1A
100
AcDbEntity
  8
0
100
AcDbLine
 10
286.6461725350023
 20
76.34275284964131
 30
0.0
 11
295.6461725350024
 21
76.34275284964044
 31
0.0
  0
LINE
  5
11BB2
330
1A
100
AcDbEntity
  8
0
100
AcDbLine
 10
302.6461725350041
 20
80.34275284963952
 30
0.0
 11
302.1461725350032
 21
80.84275284964133
 31
0.0
  0
LINE
  5
11BB3
330
1A
100
AcDbEntity
  8
0
100
AcDbLine
 10
304.1461725350041
 20
78.37865123449955
 30
0.0
 11
304.1461725350041
 21
80.34275284964044
 31
0.0
  0
ARC
  5
11BB4
330
1A
100
AcDbEntity
  8
0
100
AcDbCircle
 10
291.1461725350041
 20
83.42146905312711
 30
0.0
 40
5.310767011056539
100
AcDbArc
 50
251.7220135715103
 51
288.2779864284897
  0
LINE
  5
11BB5
330
1A
100
AcDbEntity
  8
0
100
AcDbLine
 10
289.4805691326669
 20
78.37865123450047
 30
0.0
 11
289.4805691326669
 21
80.34275284963952
 31
0.0
  0
LINE
  5
11BB6
330
1A
100
AcDbEntity
  8
0
100
AcDbLine
 10
292.8117759373413
 20
78.37865123450047
 30
0.0
 11
292.8117759373413
 21
80.34275284964133
 31
0.0
  0
ELLIPSE
  5
11BB7
330
1A
100
AcDbEntity
  8
0
100
AcDbEllipse
 10
284.0927495074943
 20
78.37865123450137
 30
0.0
 11
0.8226931974031684
 21
0.0
 31
0.0
210
0.0
220
0.0
230
1.0
 40
0.3256975908840804
 41
-1.570796326794896
 42
0.0
  0
LINE
  5
11BB8
330
1A
100
AcDbEntity
  8
0
100
AcDbLine
 10
284.9154427048984
 20
78.37865123450137
 30
0.0
 11
284.9154427048975
 21
80.34275284964044
 31
0.0
  0
ELLIPSE
  5
11BB9
330
1A
100
AcDbEntity
  8
0
100
AcDbEllipse
 10
298.1995955625139
 20
78.37865123450137
 30
0.0
 11
1.872309719355143
 21
0.0
 31
0.0
210
0.0
220
0.0
230
-1.0
 40
0.1431115747896772
 41
0.0
 42
1.570796326794896
  0
ELLIPSE
  5
11BBA
330
1A
100
AcDbEntity
  8
0
100
AcDbEllipse
 10
298.1995955625139
 20
78.37865123450137
 30
0.0
 11
-0.8226931974031684
 21
0.0
 31
0.0
210
0.0
220
0.0
230
-1.0
 40
0.3256975908840804
 41
-1.570796326794896
 42
0.0
  0
LINE
  5
11BBB
330
1A
100
AcDbEntity
  8
0
100
AcDbLine
 10
300.071905281869
 20
78.37865123450137
 30
0.0
 11
300.071905281869
 21
80.34275284963952
 31
0.0
  0
LINE
  5
11BBC
330
1A
100
AcDbEntity
  8
0
100
AcDbLine
 10
297.3769023651089
 20
78.37865123450047
 30
0.0
 11
297.3769023651089
 21
80.34275284963952
 31
0.0
  0
ELLIPSE
  5
11BBD
330
1A
100
AcDbEntity
  8
0
100
AcDbEllipse
 10
302.558850730547
 20
78.37865123450137
 30
0.0
 11
0.3344578466230814
 21
0.0
 31
0.0
210
0.0
220
0.0
230
-1.0
 40
0.8011448830886589
 41
0.0
 42
1.570796326794896
  0
LINE
  5
11BBE
330
1A
100
AcDbEntity
  8
0
100
AcDbLine
 10
302.8933085771682
 20
78.37865123450047
 30
0.0
 11
302.8933085771691
 21
80.34275284964044
 31
0.0
  0
LINE
  5
11BBF
330
1A
100
AcDbEntity
  8
0
100
AcDbLine
 10
303.9227080915921
 20
78.37865123450047
 30
0.0
 11
303.922708091593
 21
80.34275284964044
 31
0.0
  0
ELLIPSE
  5
11BC0
330
1A
100
AcDbEntity
  8
0
100
AcDbEllipse
 10
302.558850730547
 20
78.37865123450137
 30
0.0
 11
1.36385736104512
 21
0.0
 31
0.0
210
0.0
220
0.0
230
-1.0
 40
0.1964642345190735
 41
0.0
 42
0.2803830181132475
  0
ELLIPSE
  5
11BC1
330
1A
100
AcDbEntity
  8
0
100
AcDbEllipse
 10
302.558850730547
 20
78.37865123450137
 30
0.0
 11
1.36385736104512
 21
0.0
 31
0.0
210
0.0
220
0.0
230
-1.0
 40
0.1964642345190735
 41
0.9849600977409259
 42
1.570796326794896
  0
LINE
  5
11BC2
330
1A
100
AcDbEntity
  8
0
100
AcDbLine
 10
284.9154427048975
 20
78.3786512345032
 30
0.0
 11
289.4805691326669
 21
78.37865123450409
 31
0.0
  0
LINE
  5
11BC3
330
1A
100
AcDbEntity
  8
0
100
AcDbLine
 10
292.8117759373403
 20
78.3786512345032
 30
0.0
 11
297.3769023651089
 21
78.3786512345032
 31
0.0
  0
LINE
  5
11BC4
330
1A
100
AcDbEntity
  8
0
100
AcDbLine
 10
300.0719052818681
 20
78.37865123450137
 30
0.0
 11
302.8933085771682
 21
78.37865123450137
 31
0.0
  0
LINE
  5
11BC5
330
1A
100
AcDbEntity
  8
0
100
AcDbLine
 10
303.922708091593
 20
78.37865123450137
 30
0.0
 11
304.1461725350032
 21
78.37865123450047
 31
0.0
  0
LINE
  5
11BC6
330
1A
100
AcDbEntity
  8
0
100
AcDbLine
 10
282.2204397881392
 20
78.37865123450137
 30
0.0
 11
282.2204397881392
 21
80.34275284964044
 31
0.0
  0
ELLIPSE
  5
11BC7
330
1A
100
AcDbEntity
  8
0
100
AcDbEllipse
 10
284.0927495074943
 20
78.37865123450137
 30
0.0
 11
-1.872309719355143
 21
0.0
 31
0.0
210
0.0
220
0.0
230
1.0
 40
0.1431115747896772
 41
0.0
 42
1.570796326794896
  0
LINE
  5
11BC8
330
1A
100
AcDbEntity
  8
0
100
AcDbLine
 10
111.3990364928399
 20
78.37865123450227
 30
0.0
 11
114.220439788141
 21
78.3786512345032
 31
0.0
  0
LINE
  5
11BC9
330
1A
100
AcDbEntity
  8
0
100
AcDbLine
 10
112.146172534995
 20
77.84275284964315
 30
0.0
 11
134.1461725349822
 21
77.84275284963133
 31
0.0
  0
LINE
  5
11BCA
330
1A
100
AcDbEntity
  8
0
100
AcDbLine
 10
112.146172535005
 20
80.84275284964133
 30
0.0
 11
116.0745381119918
 21
80.84275284964041
 31
0.0
  0
LINE
  5
11BCB
330
1A
100
AcDbEntity
  8
0
100
AcDbLine
 10
110.1461725350068
 20
80.34275284964044
 30
0.0
 11
136.1461725350059
 21
80.34275284963952
 31
0.0
  0
LINE
  5
11BCC
330
1A
100
AcDbEntity
  8
0
100
AcDbLine
 10
112.1461725350059
 20
77.84275284964043
 30
0.0
 11
110.1461725350059
 21
78.37865123450137
 31
0.0
  0
LINE
  5
11BCD
330
1A
100
AcDbEntity
  8
0
100
AcDbLine
 10
111.6461725350041
 20
80.34275284963952
 30
0.0
 11
112.1461725350032
 21
80.84275284963949
 31
0.0
  0
LINE
  5
11BCE
330
1A
100
AcDbEntity
  8
0
100
AcDbLine
 10
110.1461725350059
 20
78.37865123450137
 30
0.0
 11
110.1461725350059
 21
80.34275284964044
 31
0.0
  0
ELLIPSE
  5
11BCF
330
1A
100
AcDbEntity
  8
0
100
AcDbEllipse
 10
111.733494339463
 20
78.37865123450137
 30
0.0
 11
-0.3344578466230814
 21
0.0
 31
0.0
210
0.0
220
0.0
230
1.0
 40
0.8011448830886589
 41
0.0
 42
1.570796326794896
  0
LINE
  5
11BD0
330
1A
100
AcDbEntity
  8
0
100
AcDbLine
 10
110.369636978417
 20
78.37865123450047
 30
0.0
 11
110.3696369784179
 21
80.34275284964044
 31
0.0
  0
LINE
  5
11BD1
330
1A
100
AcDbEntity
  8
0
100
AcDbLine
 10
111.3990364928399
 20
78.37865123450137
 30
0.0
 11
111.3990364928399
 21
80.34275284964133
 31
0.0
  0
ELLIPSE
  5
11BD2
330
1A
100
AcDbEntity
  8
0
100
AcDbEllipse
 10
111.733494339463
 20
78.37865123450137
 30
0.0
 11
-1.36385736104512
 21
0.0
 31
0.0
210
0.0
220
0.0
230
1.0
 40
0.1964642345190735
 41
0.0
 42
0.2803830181098012
  0
ELLIPSE
  5
11BD3
330
1A
100
AcDbEntity
  8
0
100
AcDbEllipse
 10
111.733494339463
 20
78.37865123450137
 30
0.0
 11
-1.36385736104512
 21
0.0
 31
0.0
210
0.0
220
0.0
230
1.0
 40
0.1964642345190735
 41
0.9849600977420374
 42
1.570796326794896
  0
LINE
  5
11BD4
330
1A
100
AcDbEntity
  8
0
100
AcDbLine
 10
110.1461725350059
 20
78.37865123450137
 30
0.0
 11
110.3696369784179
 21
78.37865123450227
 31
0.0
  0
LINE
  5
11BD5
330
1A
100
AcDbEntity
  8
0
100
AcDbLine
 10
134.1461725350059
 20
77.84275284963951
 30
0.0
 11
136.1461725350059
 21
78.37865123450047
 31
0.0
  0
ARC
  5
11BD6
330
1A
100
AcDbEntity
  8
0
100
AcDbCircle
 10
116.9141217274368
 20
76.3427528496386
 30
0.0
 40
1.5
100
AcDbArc
 50
30.00000000000055
 51
89.99999999999673
  0
ARC
  5
11BD7
330
1A
100
AcDbEntity
  8
0
100
AcDbCircle
 10
129.3782233425695
 20
76.34275284963405
 30
0.0
 40
1.5
100
AcDbArc
 50
89.9999999999772
 51
149.9999999999994
  0
LINE
  5
11BD8
330
1A
100
AcDbEntity
  8
0
100
AcDbLine
 10
127.6461725350041
 20
76.34275284964044
 30
0.0
 11
128.0791852368925
 21
77.09275284963405
 31
0.0
  0
LINE
  5
11BD9
330
1A
100
AcDbEntity
  8
0
100
AcDbLine
 10
118.646172535005
 20
76.34275284964044
 30
0.0
 11
118.2131598331139
 21
77.0927528496386
 31
0.0
  0
ARC
  5
11BDA
330
1A
100
AcDbEntity
  8
0
100
AcDbCircle
 10
123.1461725350068
 20
81.96775284963587
 30
0.0
 40
6.624999999996139
100
AcDbArc
 50
238.1092081981449
 51
301.890791801855
  0
LINE
  5
11BDB
330
1A
100
AcDbEntity
  8
0
100
AcDbLine
 10
118.6461725350041
 20
76.34275284964131
 30
0.0
 11
127.6461725350041
 21
76.34275284964044
 31
0.0
  0
LINE
  5
11BDD
330
1A
100
AcDbEntity
  8
0
100
AcDbLine
 10
136.1461725350059
 20
78.37865123449955
 30
0.0
 11
136.1461725350059
 21
80.34275284964044
 31
0.0
  0
ARC
  5
11BDE
330
1A
100
AcDbEntity
  8
0
100
AcDbCircle
 10
123.1461725350059
 20
83.42146905312711
 30
0.0
 40
5.310767011056539
100
AcDbArc
 50
251.7220135715103
 51
288.2779864284897
  0
LINE
  5
11BDF
330
1A
100
AcDbEntity
  8
0
100
AcDbLine
 10
121.4805691326687
 20
78.37865123450047
 30
0.0
 11
121.4805691326687
 21
80.34275284963952
 31
0.0
  0
LINE
  5
11BE0
330
1A
100
AcDbEntity
  8
0
100
AcDbLine
 10
124.8117759373431
 20
78.37865123450047
 30
0.0
 11
124.8117759373431
 21
80.34275284964133
 31
0.0
  0
ELLIPSE
  5
11BE1
330
1A
100
AcDbEntity
  8
0
100
AcDbEllipse
 10
116.0927495074961
 20
78.37865123450137
 30
0.0
 11
0.8226931974031684
 21
0.0
 31
0.0
210
0.0
220
0.0
230
1.0
 40
0.3256975908840804
 41
-1.570796326794896
 42
0.0
  0
LINE
  5
11BE2
330
1A
100
AcDbEntity
  8
0
100
AcDbLine
 10
116.9154427049002
 20
78.37865123450137
 30
0.0
 11
116.9154427048993
 21
80.34275284964044
 31
0.0
  0
ELLIPSE
  5
11BE3
330
1A
100
AcDbEntity
  8
0
100
AcDbEllipse
 10
130.1995955625157
 20
78.37865123450137
 30
0.0
 11
1.872309719355143
 21
0.0
 31
0.0
210
0.0
220
0.0
230
-1.0
 40
0.1431115747896772
 41
0.0
 42
1.570796326794896
  0
ELLIPSE
  5
11BE4
330
1A
100
AcDbEntity
  8
0
100
AcDbEllipse
 10
130.1995955625157
 20
78.37865123450137
 30
0.0
 11
-0.8226931974031684
 21
0.0
 31
0.0
210
0.0
220
0.0
230
-1.0
 40
0.3256975908840804
 41
-1.570796326794896
 42
0.0
  0
LINE
  5
11BE5
330
1A
100
AcDbEntity
  8
0
100
AcDbLine
 10
132.0719052818708
 20
78.37865123450137
 30
0.0
 11
132.0719052818708
 21
80.34275284963952
 31
0.0
  0
LINE
  5
11BE6
330
1A
100
AcDbEntity
  8
0
100
AcDbLine
 10
129.3769023651107
 20
78.37865123450047
 30
0.0
 11
129.3769023651107
 21
80.34275284963952
 31
0.0
  0
ELLIPSE
  5
11BE7
330
1A
100
AcDbEntity
  8
0
100
AcDbEllipse
 10
134.5588507305488
 20
78.37865123450137
 30
0.0
 11
0.3344578466230814
 21
0.0
 31
0.0
210
0.0
220
0.0
230
-1.0
 40
0.8011448830886589
 41
0.0
 42
1.570796326794896
  0
LINE
  5
11BE8
330
1A
100
AcDbEntity
  8
0
100
AcDbLine
 10
134.89330857717
 20
78.37865123450047
 30
0.0
 11
134.8933085771709
 21
80.34275284964044
 31
0.0
  0
LINE
  5
11BE9
330
1A
100
AcDbEntity
  8
0
100
AcDbLine
 10
135.9227080915939
 20
78.37865123450047
 30
0.0
 11
135.9227080915948
 21
80.34275284964044
 31
0.0
  0
ELLIPSE
  5
11BEA
330
1A
100
AcDbEntity
  8
0
100
AcDbEllipse
 10
134.5588507305488
 20
78.37865123450137
 30
0.0
 11
1.36385736104512
 21
0.0
 31
0.0
210
0.0
220
0.0
230
-1.0
 40
0.1964642345190735
 41
0.0
 42
0.2803830181132475
  0
ELLIPSE
  5
11BEB
330
1A
100
AcDbEntity
  8
0
100
AcDbEllipse
 10
134.5588507305488
 20
78.37865123450137
 30
0.0
 11
1.36385736104512
 21
0.0
 31
0.0
210
0.0
220
0.0
230
-1.0
 40
0.1964642345190735
 41
0.9849600977409259
 42
1.570796326794896
  0
LINE
  5
11BEC
330
1A
100
AcDbEntity
  8
0
100
AcDbLine
 10
116.9154427048993
 20
78.3786512345032
 30
0.0
 11
121.4805691326687
 21
78.37865123450409
 31
0.0
  0
LINE
  5
11BED
330
1A
100
AcDbEntity
  8
0
100
AcDbLine
 10
124.8117759373422
 20
78.3786512345032
 30
0.0
 11
129.3769023651107
 21
78.3786512345032
 31
0.0
  0
LINE
  5
11BEE
330
1A
100
AcDbEntity
  8
0
100
AcDbLine
 10
132.0719052818699
 20
78.37865123450137
 30
0.0
 11
134.89330857717
 21
78.37865123450137
 31
0.0
  0
LINE
  5
11BEF
330
1A
100
AcDbEntity
  8
0
100
AcDbLine
 10
135.9227080915948
 20
78.37865123450137
 30
0.0
 11
136.146172535005
 21
78.37865123450047
 31
0.0
  0
LINE
  5
11BF0
330
1A
100
AcDbEntity
  8
0
100
AcDbLine
 10
114.220439788141
 20
78.37865123450137
 30
0.0
 11
114.220439788141
 21
80.34275284964044
 31
0.0
  0
ELLIPSE
  5
11BF1
330
1A
100
AcDbEntity
  8
0
100
AcDbEllipse
 10
116.0927495074961
 20
78.37865123450137
 30
0.0
 11
-1.872309719355143
 21
0.0
 31
0.0
210
0.0
220
0.0
230
1.0
 40
0.1431115747896772
 41
0.0
 42
1.570796326794896
  0
LINE
  5
11BF4
330
1A
100
AcDbEntity
  8
0
100
AcDbLine
 10
479.9370646573088
 20
78.37865123450227
 30
0.0
 11
482.7584679526098
 21
78.3786512345032
 31
0.0
  0
LINE
  5
11BF5
330
1A
100
AcDbEntity
  8
0
100
AcDbLine
 10
480.6842006994639
 20
77.84275284964315
 30
0.0
 11
502.6842006994511
 21
77.84275284963133
 31
0.0
  0
LINE
  5
11BF6
330
1A
100
AcDbEntity
  8
0
100
AcDbLine
 10
480.6842006994738
 20
80.84275284964133
 30
0.0
 11
488.8997924519554
 21
80.84275284963949
 31
0.0
  0
LINE
  5
11BF7
330
1A
100
AcDbEntity
  8
0
100
AcDbLine
 10
478.6842006994756
 20
80.34275284964044
 30
0.0
 11
504.6842006994747
 21
80.34275284963952
 31
0.0
  0
LINE
  5
11BF8
330
1A
100
AcDbEntity
  8
0
100
AcDbLine
 10
480.6842006994748
 20
77.84275284964043
 30
0.0
 11
478.6842006994747
 21
78.37865123450137
 31
0.0
  0
LINE
  5
11BF9
330
1A
100
AcDbEntity
  8
0
100
AcDbLine
 10
480.1842006994728
 20
80.34275284963952
 30
0.0
 11
480.6842006994719
 21
80.84275284963949
 31
0.0
  0
LINE
  5
11BFA
330
1A
100
AcDbEntity
  8
0
100
AcDbLine
 10
478.6842006994747
 20
78.37865123450137
 30
0.0
 11
478.6842006994747
 21
80.34275284964044
 31
0.0
  0
ELLIPSE
  5
11BFB
330
1A
100
AcDbEntity
  8
0
100
AcDbEllipse
 10
480.2715225039318
 20
78.37865123450137
 30
0.0
 11
-0.3344578466230814
 21
0.0
 31
0.0
210
0.0
220
0.0
230
1.0
 40
0.8011448830886589
 41
0.0
 42
1.570796326794896
  0
LINE
  5
11BFC
330
1A
100
AcDbEntity
  8
0
100
AcDbLine
 10
478.9076651428858
 20
78.37865123450047
 30
0.0
 11
478.9076651428866
 21
80.34275284964044
 31
0.0
  0
LINE
  5
11BFD
330
1A
100
AcDbEntity
  8
0
100
AcDbLine
 10
479.9370646573088
 20
78.37865123450137
 30
0.0
 11
479.9370646573088
 21
80.34275284964133
 31
0.0
  0
ELLIPSE
  5
11BFE
330
1A
100
AcDbEntity
  8
0
100
AcDbEllipse
 10
480.2715225039318
 20
78.37865123450137
 30
0.0
 11
-1.36385736104512
 21
0.0
 31
0.0
210
0.0
220
0.0
230
1.0
 40
0.1964642345190735
 41
0.0
 42
0.2803830181098012
  0
ELLIPSE
  5
11BFF
330
1A
100
AcDbEntity
  8
0
100
AcDbEllipse
 10
480.2715225039318
 20
78.37865123450137
 30
0.0
 11
-1.36385736104512
 21
0.0
 31
0.0
210
0.0
220
0.0
230
1.0
 40
0.1964642345190735
 41
0.9849600977420374
 42
1.570796326794896
  0
LINE
  5
11C00
330
1A
100
AcDbEntity
  8
0
100
AcDbLine
 10
478.6842006994747
 20
78.37865123450137
 30
0.0
 11
478.9076651428866
 21
78.37865123450227
 31
0.0
  0
LINE
  5
11C01
330
1A
100
AcDbEntity
  8
0
100
AcDbLine
 10
502.6842006994748
 20
77.84275284963951
 30
0.0
 11
504.6842006994747
 21
78.37865123450047
 31
0.0
  0
ARC
  5
11C02
330
1A
100
AcDbEntity
  8
0
100
AcDbCircle
 10
485.4521498919056
 20
76.3427528496386
 30
0.0
 40
1.5
100
AcDbArc
 50
30.00000000000055
 51
89.99999999999673
  0
ARC
  5
11C03
330
1A
100
AcDbEntity
  8
0
100
AcDbCircle
 10
497.9162515070383
 20
76.34275284963405
 30
0.0
 40
1.5
100
AcDbArc
 50
89.99999999997395
 51
149.9999999999994
  0
LINE
  5
11C04
330
1A
100
AcDbEntity
  8
0
100
AcDbLine
 10
496.1842006994729
 20
76.34275284964044
 30
0.0
 11
496.6172134013612
 21
77.09275284963405
 31
0.0
  0
LINE
  5
11C05
330
1A
100
AcDbEntity
  8
0
100
AcDbLine
 10
487.1842006994739
 20
76.34275284964044
 30
0.0
 11
486.7511879975826
 21
77.0927528496386
 31
0.0
  0
ARC
  5
11C06
330
1A
100
AcDbEntity
  8
0
100
AcDbCircle
 10
491.6842006994756
 20
81.96775284963587
 30
0.0
 40
6.624999999996139
100
AcDbArc
 50
238.1092081981449
 51
301.890791801855
  0
LINE
  5
11C07
330
1A
100
AcDbEntity
  8
0
100
AcDbLine
 10
487.184200699473
 20
76.34275284964131
 30
0.0
 11
496.1842006994729
 21
76.34275284964044
 31
0.0
  0
LINE
  5
11C09
330
1A
100
AcDbEntity
  8
0
100
AcDbLine
 10
504.6842006994747
 20
78.37865123449955
 30
0.0
 11
504.6842006994747
 21
80.34275284964044
 31
0.0
  0
ARC
  5
11C0A
330
1A
100
AcDbEntity
  8
0
100
AcDbCircle
 10
491.6842006994747
 20
83.42146905312711
 30
0.0
 40
5.310767011056539
100
AcDbArc
 50
251.7220135715103
 51
288.2779864284897
  0
LINE
  5
11C0B
330
1A
100
AcDbEntity
  8
0
100
AcDbLine
 10
490.0185972971375
 20
78.37865123450047
 30
0.0
 11
490.0185972971375
 21
80.34275284963952
 31
0.0
  0
LINE
  5
11C0C
330
1A
100
AcDbEntity
  8
0
100
AcDbLine
 10
493.3498041018118
 20
78.37865123450047
 30
0.0
 11
493.3498041018118
 21
80.34275284964133
 31
0.0
  0
ELLIPSE
  5
11C0D
330
1A
100
AcDbEntity
  8
0
100
AcDbEllipse
 10
484.6307776719648
 20
78.37865123450137
 30
0.0
 11
0.8226931974031684
 21
0.0
 31
0.0
210
0.0
220
0.0
230
1.0
 40
0.3256975908840804
 41
-1.570796326794896
 42
0.0
  0
LINE
  5
11C0E
330
1A
100
AcDbEntity
  8
0
100
AcDbLine
 10
485.4534708693689
 20
78.37865123450137
 30
0.0
 11
485.4534708693681
 21
80.34275284964044
 31
0.0
  0
ELLIPSE
  5
11C0F
330
1A
100
AcDbEntity
  8
0
100
AcDbEllipse
 10
498.7376237269844
 20
78.37865123450137
 30
0.0
 11
1.872309719355143
 21
0.0
 31
0.0
210
0.0
220
0.0
230
-1.0
 40
0.1431115747896772
 41
0.0
 42
1.570796326794896
  0
ELLIPSE
  5
11C10
330
1A
100
AcDbEntity
  8
0
100
AcDbEllipse
 10
498.7376237269844
 20
78.37865123450137
 30
0.0
 11
-0.8226931974031684
 21
0.0
 31
0.0
210
0.0
220
0.0
230
-1.0
 40
0.3256975908840804
 41
-1.570796326794896
 42
0.0
  0
LINE
  5
11C11
330
1A
100
AcDbEntity
  8
0
100
AcDbLine
 10
500.6099334463397
 20
78.37865123450137
 30
0.0
 11
500.6099334463397
 21
80.34275284963952
 31
0.0
  0
LINE
  5
11C12
330
1A
100
AcDbEntity
  8
0
100
AcDbLine
 10
497.9149305295796
 20
78.37865123450047
 30
0.0
 11
497.9149305295796
 21
80.34275284963952
 31
0.0
  0
ELLIPSE
  5
11C13
330
1A
100
AcDbEntity
  8
0
100
AcDbEllipse
 10
503.0968788950175
 20
78.37865123450137
 30
0.0
 11
0.3344578466230814
 21
0.0
 31
0.0
210
0.0
220
0.0
230
-1.0
 40
0.8011448830886589
 41
0.0
 42
1.570796326794896
  0
LINE
  5
11C14
330
1A
100
AcDbEntity
  8
0
100
AcDbLine
 10
503.4313367416388
 20
78.37865123450047
 30
0.0
 11
503.4313367416397
 21
80.34275284964044
 31
0.0
  0
LINE
  5
11C15
330
1A
100
AcDbEntity
  8
0
100
AcDbLine
 10
504.4607362560626
 20
78.37865123450047
 30
0.0
 11
504.4607362560636
 21
80.34275284964044
 31
0.0
  0
ELLIPSE
  5
11C16
330
1A
100
AcDbEntity
  8
0
100
AcDbEllipse
 10
503.0968788950175
 20
78.37865123450137
 30
0.0
 11
1.36385736104512
 21
0.0
 31
0.0
210
0.0
220
0.0
230
-1.0
 40
0.1964642345190735
 41
0.0
 42
0.2803830181132475
  0
ELLIPSE
  5
11C17
330
1A
100
AcDbEntity
  8
0
100
AcDbEllipse
 10
503.0968788950175
 20
78.37865123450137
 30
0.0
 11
1.36385736104512
 21
0.0
 31
0.0
210
0.0
220
0.0
230
-1.0
 40
0.1964642345190735
 41
0.9849600977409259
 42
1.570796326794896
  0
LINE
  5
11C18
330
1A
100
AcDbEntity
  8
0
100
AcDbLine
 10
485.4534708693681
 20
78.3786512345032
 30
0.0
 11
490.0185972971375
 21
78.37865123450409
 31
0.0
  0
LINE
  5
11C19
330
1A
100
AcDbEntity
  8
0
100
AcDbLine
 10
493.3498041018109
 20
78.3786512345032
 30
0.0
 11
497.9149305295796
 21
78.3786512345032
 31
0.0
  0
LINE
  5
11C1A
330
1A
100
AcDbEntity
  8
0
100
AcDbLine
 10
500.6099334463388
 20
78.37865123450137
 30
0.0
 11
503.4313367416388
 21
78.37865123450137
 31
0.0
  0
LINE
  5
11C1B
330
1A
100
AcDbEntity
  8
0
100
AcDbLine
 10
504.4607362560636
 20
78.37865123450137
 30
0.0
 11
504.6842006994737
 21
78.37865123450047
 31
0.0
  0
LINE
  5
11C1C
330
1A
100
AcDbEntity
  8
0
100
AcDbLine
 10
482.7584679526098
 20
78.37865123450137
 30
0.0
 11
482.7584679526098
 21
80.34275284964044
 31
0.0
  0
ELLIPSE
  5
11C1D
330
1A
100
AcDbEntity
  8
0
100
AcDbEllipse
 10
484.6307776719648
 20
78.37865123450137
 30
0.0
 11
-1.872309719355143
 21
0.0
 31
0.0
210
0.0
220
0.0
230
1.0
 40
0.1431115747896772
 41
0.0
 42
1.570796326794896
  0
LINE
  5
11C1E
330
1A
100
AcDbEntity
  8
0
100
AcDbLine
 10
651.9370646573086
 20
78.37865123450227
 30
0.0
 11
654.7584679526099
 21
78.3786512345032
 31
0.0
  0
LINE
  5
11C1F
330
1A
100
AcDbEntity
  8
0
100
AcDbLine
 10
652.6842006994638
 20
77.84275284964315
 30
0.0
 11
674.6842006994511
 21
77.84275284963133
 31
0.0
  0
LINE
  5
11C20
330
1A
100
AcDbEntity
  8
0
100
AcDbLine
 10
666.4854681535607
 20
80.8427528496386
 30
0.0
 11
674.6842006994747
 21
80.84275284963949
 31
0.0
  0
LINE
  5
11C21
330
1A
100
AcDbEntity
  8
0
100
AcDbLine
 10
650.6842006994758
 20
80.34275284964044
 30
0.0
 11
676.6842006994746
 21
80.34275284963952
 31
0.0
  0
LINE
  5
11C22
330
1A
100
AcDbEntity
  8
0
100
AcDbLine
 10
652.6842006994747
 20
77.84275284964043
 30
0.0
 11
650.6842006994746
 21
78.37865123450137
 31
0.0
  0
LINE
  5
11C24
330
1A
100
AcDbEntity
  8
0
100
AcDbLine
 10
650.6842006994746
 20
78.37865123450137
 30
0.0
 11
650.6842006994746
 21
80.34275284964044
 31
0.0
  0
ELLIPSE
  5
11C25
330
1A
100
AcDbEntity
  8
0
100
AcDbEllipse
 10
652.2715225039319
 20
78.37865123450137
 30
0.0
 11
-0.3344578466230814
 21
0.0
 31
0.0
210
0.0
220
0.0
230
1.0
 40
0.8011448830886589
 41
0.0
 42
1.570796326794896
  0
LINE
  5
11C26
330
1A
100
AcDbEntity
  8
0
100
AcDbLine
 10
650.9076651428857
 20
78.37865123450047
 30
0.0
 11
650.9076651428866
 21
80.34275284964044
 31
0.0
  0
LINE
  5
11C27
330
1A
100
AcDbEntity
  8
0
100
AcDbLine
 10
651.9370646573086
 20
78.37865123450137
 30
0.0
 11
651.9370646573086
 21
80.34275284964133
 31
0.0
  0
ELLIPSE
  5
11C28
330
1A
100
AcDbEntity
  8
0
100
AcDbEllipse
 10
652.2715225039319
 20
78.37865123450137
 30
0.0
 11
-1.36385736104512
 21
0.0
 31
0.0
210
0.0
220
0.0
230
1.0
 40
0.1964642345190735
 41
0.0
 42
0.2803830181098012
  0
ELLIPSE
  5
11C29
330
1A
100
AcDbEntity
  8
0
100
AcDbEllipse
 10
652.2715225039319
 20
78.37865123450137
 30
0.0
 11
-1.36385736104512
 21
0.0
 31
0.0
210
0.0
220
0.0
230
1.0
 40
0.1964642345190735
 41
0.9849600977420374
 42
1.570796326794896
  0
LINE
  5
11C2A
330
1A
100
AcDbEntity
  8
0
100
AcDbLine
 10
650.6842006994746
 20
78.37865123450137
 30
0.0
 11
650.9076651428866
 21
78.37865123450227
 31
0.0
  0
LINE
  5
11C2B
330
1A
100
AcDbEntity
  8
0
100
AcDbLine
 10
674.6842006994747
 20
77.84275284963951
 30
0.0
 11
676.6842006994746
 21
78.37865123450047
 31
0.0
  0
ARC
  5
11C2C
330
1A
100
AcDbEntity
  8
0
100
AcDbCircle
 10
657.4521498919057
 20
76.3427528496386
 30
0.0
 40
1.5
100
AcDbArc
 50
30.00000000000055
 51
89.99999999999673
  0
ARC
  5
11C2D
330
1A
100
AcDbEntity
  8
0
100
AcDbCircle
 10
669.9162515070383
 20
76.34275284963405
 30
0.0
 40
1.5
100
AcDbArc
 50
89.99999999997395
 51
149.9999999999994
  0
LINE
  5
11C2E
330
1A
100
AcDbEntity
  8
0
100
AcDbLine
 10
668.1842006994728
 20
76.34275284964044
 30
0.0
 11
668.6172134013612
 21
77.09275284963405
 31
0.0
  0
LINE
  5
11C2F
330
1A
100
AcDbEntity
  8
0
100
AcDbLine
 10
659.1842006994737
 20
76.34275284964044
 30
0.0
 11
658.7511879975827
 21
77.0927528496386
 31
0.0
  0
ARC
  5
11C30
330
1A
100
AcDbEntity
  8
0
100
AcDbCircle
 10
663.6842006994758
 20
81.96775284963587
 30
0.0
 40
6.624999999996139
100
AcDbArc
 50
238.1092081981449
 51
301.890791801855
  0
LINE
  5
11C31
330
1A
100
AcDbEntity
  8
0
100
AcDbLine
 10
659.1842006994728
 20
76.34275284964131
 30
0.0
 11
668.1842006994728
 21
76.34275284964044
 31
0.0
  0
LINE
  5
11C32
330
1A
100
AcDbEntity
  8
0
100
AcDbLine
 10
675.1842006994746
 20
80.34275284963952
 30
0.0
 11
674.6842006994739
 21
80.84275284964133
 31
0.0
  0
LINE
  5
11C33
330
1A
100
AcDbEntity
  8
0
100
AcDbLine
 10
676.6842006994746
 20
78.37865123449955
 30
0.0
 11
676.6842006994746
 21
80.34275284964044
 31
0.0
  0
ARC
  5
11C34
330
1A
100
AcDbEntity
  8
0
100
AcDbCircle
 10
663.6842006994746
 20
83.42146905312711
 30
0.0
 40
5.310767011056539
100
AcDbArc
 50
251.7220135715103
 51
288.2779864284897
  0
LINE
  5
11C35
330
1A
100
AcDbEntity
  8
0
100
AcDbLine
 10
662.0185972971376
 20
78.37865123450047
 30
0.0
 11
662.0185972971376
 21
80.34275284963952
 31
0.0
  0
LINE
  5
11C36
330
1A
100
AcDbEntity
  8
0
100
AcDbLine
 10
665.3498041018118
 20
78.37865123450047
 30
0.0
 11
665.3498041018118
 21
80.34275284964133
 31
0.0
  0
ELLIPSE
  5
11C37
330
1A
100
AcDbEntity
  8
0
100
AcDbEllipse
 10
656.630777671965
 20
78.37865123450137
 30
0.0
 11
0.8226931974031684
 21
0.0
 31
0.0
210
0.0
220
0.0
230
1.0
 40
0.3256975908840804
 41
-1.570796326794896
 42
0.0
  0
LINE
  5
11C38
330
1A
100
AcDbEntity
  8
0
100
AcDbLine
 10
657.4534708693691
 20
78.37865123450137
 30
0.0
 11
657.4534708693683
 21
80.34275284964044
 31
0.0
  0
ELLIPSE
  5
11C39
330
1A
100
AcDbEntity
  8
0
100
AcDbEllipse
 10
670.7376237269844
 20
78.37865123450137
 30
0.0
 11
1.872309719355143
 21
0.0
 31
0.0
210
0.0
220
0.0
230
-1.0
 40
0.1431115747896772
 41
0.0
 42
1.570796326794896
  0
ELLIPSE
  5
11C3A
330
1A
100
AcDbEntity
  8
0
100
AcDbEllipse
 10
670.7376237269844
 20
78.37865123450137
 30
0.0
 11
-0.8226931974031684
 21
0.0
 31
0.0
210
0.0
220
0.0
230
-1.0
 40
0.3256975908840804
 41
-1.570796326794896
 42
0.0
  0
LINE
  5
11C3B
330
1A
100
AcDbEntity
  8
0
100
AcDbLine
 10
672.6099334463397
 20
78.37865123450137
 30
0.0
 11
672.6099334463397
 21
80.34275284963952
 31
0.0
  0
LINE
  5
11C3C
330
1A
100
AcDbEntity
  8
0
100
AcDbLine
 10
669.9149305295795
 20
78.37865123450047
 30
0.0
 11
669.9149305295795
 21
80.34275284963952
 31
0.0
  0
ELLIPSE
  5
11C3D
330
1A
100
AcDbEntity
  8
0
100
AcDbEllipse
 10
675.0968788950176
 20
78.37865123450137
 30
0.0
 11
0.3344578466230814
 21
0.0
 31
0.0
210
0.0
220
0.0
230
-1.0
 40
0.8011448830886589
 41
0.0
 42
1.570796326794896
  0
LINE
  5
11C3E
330
1A
100
AcDbEntity
  8
0
100
AcDbLine
 10
675.4313367416389
 20
78.37865123450047
 30
0.0
 11
675.4313367416398
 21
80.34275284964044
 31
0.0
  0
LINE
  5
11C3F
330
1A
100
AcDbEntity
  8
0
100
AcDbLine
 10
676.4607362560627
 20
78.37865123450047
 30
0.0
 11
676.4607362560638
 21
80.34275284964044
 31
0.0
  0
ELLIPSE
  5
11C40
330
1A
100
AcDbEntity
  8
0
100
AcDbEllipse
 10
675.0968788950176
 20
78.37865123450137
 30
0.0
 11
1.36385736104512
 21
0.0
 31
0.0
210
0.0
220
0.0
230
-1.0
 40
0.1964642345190735
 41
0.0
 42
0.2803830181132475
  0
ELLIPSE
  5
11C41
330
1A
100
AcDbEntity
  8
0
100
AcDbEllipse
 10
675.0968788950176
 20
78.37865123450137
 30
0.0
 11
1.36385736104512
 21
0.0
 31
0.0
210
0.0
220
0.0
230
-1.0
 40
0.1964642345190735
 41
0.9849600977409259
 42
1.570796326794896
  0
LINE
  5
11C42
330
1A
100
AcDbEntity
  8
0
100
AcDbLine
 10
657.4534708693683
 20
78.3786512345032
 30
0.0
 11
662.0185972971376
 21
78.37865123450409
 31
0.0
  0
LINE
  5
11C43
330
1A
100
AcDbEntity
  8
0
100
AcDbLine
 10
665.3498041018109
 20
78.3786512345032
 30
0.0
 11
669.9149305295795
 21
78.3786512345032
 31
0.0
  0
LINE
  5
11C44
330
1A
100
AcDbEntity
  8
0
100
AcDbLine
 10
672.6099334463387
 20
78.37865123450137
 30
0.0
 11
675.4313367416389
 21
78.37865123450137
 31
0.0
  0
LINE
  5
11C45
330
1A
100
AcDbEntity
  8
0
100
AcDbLine
 10
676.4607362560638
 20
78.37865123450137
 30
0.0
 11
676.6842006994737
 21
78.37865123450047
 31
0.0
  0
LINE
  5
11C46
330
1A
100
AcDbEntity
  8
0
100
AcDbLine
 10
654.7584679526099
 20
78.37865123450137
 30
0.0
 11
654.7584679526099
 21
80.34275284964044
 31
0.0
  0
ELLIPSE
  5
11C47
330
1A
100
AcDbEntity
  8
0
100
AcDbEllipse
 10
656.630777671965
 20
78.37865123450137
 30
0.0
 11
-1.872309719355143
 21
0.0
 31
0.0
210
0.0
220
0.0
230
1.0
 40
0.1431115747896772
 41
0.0
 42
1.570796326794896
  0
LINE
  5
11C4B
330
1A
100
AcDbEntity
  8
0
 48
0.3
100
AcDbLine
 10
507.4842006994749
 20
80.64275284963514
 30
0.0
 11
507.4842006994757
 21
111.1427528496388
 31
0.0
  0
LINE
  5
11C4C
330
1A
100
AcDbEntity
  8
0
 48
0.3
100
AcDbLine
 10
588.8842006994755
 20
80.64275284963787
 30
0.0
 11
588.8842006994746
 21
111.1427528496369
 31
0.0
  0
LINE
  5
11C4D
330
1A
100
AcDbEntity
  8
0
 48
0.3
100
AcDbLine
 10
588.8842006994755
 20
111.142752849636
 30
0.0
 11
507.4842006994749
 21
111.1427528496388
 31
0.0
  0
LINE
  5
11C4E
330
1A
100
AcDbEntity
  8
0
 48
0.3
100
AcDbLine
 10
588.8842006994755
 20
80.64275284963787
 30
0.0
 11
588.3842006994746
 21
80.64275284963697
 31
0.0
  0
LINE
  5
11C4F
330
1A
100
AcDbEntity
  8
0
 48
0.3
100
AcDbLine
 10
507.9842006994757
 20
80.34275284963678
 30
0.0
 11
507.9842006994748
 21
110.6427528496369
 31
0.0
  0
LINE
  5
11C50
330
1A
100
AcDbEntity
  8
0
 48
0.3
100
AcDbLine
 10
588.3842006994746
 20
110.6427528496369
 30
0.0
 11
507.9842006994748
 21
110.6427528496369
 31
0.0
  0
LINE
  5
11C51
330
1A
100
AcDbEntity
  8
0
 48
0.3
100
AcDbLine
 10
588.3842006994755
 20
80.34275284963678
 30
0.0
 11
588.3842006994755
 21
110.6427528496369
 31
0.0
  0
LINE
  5
11C52
330
1A
100
AcDbEntity
  8
0
 48
0.3
100
AcDbLine
 10
507.9842006994748
 20
80.64275284963605
 30
0.0
 11
507.4842006994757
 21
80.64275284963605
 31
0.0
  0
LINE
  5
11C53
330
1A
100
AcDbEntity
  8
0
 48
0.3
100
AcDbLine
 10
552.6842006994757
 20
107.3427528496377
 30
0.0
 11
543.6842006994757
 21
107.3427528496377
 31
0.0
  0
LINE
  5
11C54
330
1A
100
AcDbEntity
  8
0
 48
0.3
100
AcDbLine
 10
552.6842006994757
 20
106.3427528496386
 30
0.0
 11
543.6842006994757
 21
106.3427528496386
 31
0.0
  0
LINE
  5
11C55
330
1A
100
AcDbEntity
  8
0
 48
0.3
100
AcDbLine
 10
552.6842006994757
 20
105.3427528496377
 30
0.0
 11
543.6842006994757
 21
105.3427528496377
 31
0.0
  0
LINE
  5
11C56
330
1A
100
AcDbEntity
  8
0
 48
0.3
100
AcDbLine
 10
552.6842006994757
 20
104.3427528496377
 30
0.0
 11
543.6842006994757
 21
104.3427528496368
 31
0.0
  0
LINE
  5
11C57
330
1A
100
AcDbEntity
  8
0
 48
0.3
100
AcDbLine
 10
552.6842006994757
 20
103.3427528496386
 30
0.0
 11
543.6842006994757
 21
103.3427528496377
 31
0.0
  0
LINE
  5
11C58
330
1A
100
AcDbEntity
  8
0
 48
0.3
100
AcDbLine
 10
552.6842006994757
 20
102.3427528496377
 30
0.0
 11
543.6842006994757
 21
102.3427528496377
 31
0.0
  0
LINE
  5
11C59
330
1A
100
AcDbEntity
  8
0
 48
0.3
100
AcDbLine
 10
552.6842006994757
 20
101.3427528496386
 30
0.0
 11
543.6842006994757
 21
101.3427528496386
 31
0.0
  0
ARC
  5
11C62
330
1A
100
AcDbEntity
  8
0
100
AcDbCircle
 10
543.6842006994757
 20
106.8427528496377
 30
0.0
 40
0.5
100
AcDbArc
 50
90.0
 51
270.0
  0
ARC
  5
11C63
330
1A
100
AcDbEntity
  8
0
100
AcDbCircle
 10
543.6842006994757
 20
104.8427528496377
 30
0.0
 40
0.5
100
AcDbArc
 50
90.0
 51
270.0
  0
ARC
  5
11C64
330
1A
100
AcDbEntity
  8
0
100
AcDbCircle
 10
543.6842006994757
 20
102.8427528496377
 30
0.0
 40
0.5
100
AcDbArc
 50
90.0
 51
270.0
  0
ARC
  5
11C65
330
1A
100
AcDbEntity
  8
0
100
AcDbCircle
 10
552.6842006994757
 20
102.8427528496367
 30
0.0
 40
0.5
100
AcDbArc
 50
270.0
 51
90.0
  0
ARC
  5
11C66
330
1A
100
AcDbEntity
  8
0
100
AcDbCircle
 10
552.6842006994757
 20
104.8427528496367
 30
0.0
 40
0.5
100
AcDbArc
 50
270.0
 51
90.0
  0
ARC
  5
11C67
330
1A
100
AcDbEntity
  8
0
100
AcDbCircle
 10
552.6842006994757
 20
106.8427528496368
 30
0.0
 40
0.5
100
AcDbArc
 50
270.0
 51
90.0
  0
ARC
  5
11C69
330
1A
100
AcDbEntity
  8
0
100
AcDbCircle
 10
543.6842006994757
 20
100.8427528496377
 30
0.0
 40
0.5
100
AcDbArc
 50
90.0
 51
257.6422591294124
  0
ARC
  5
11C6A
330
1A
100
AcDbEntity
  8
0
100
AcDbCircle
 10
552.6842006994757
 20
100.8427528496367
 30
0.0
 40
0.5
100
AcDbArc
 50
289.0185124964446
 51
90.0
  0
ARC
  5
11C6C
330
1A
100
AcDbEntity
  8
0
100
AcDbCircle
 10
548.1842006994757
 20
98.84275284963678
 30
0.0
 40
0.5
100
AcDbArc
 50
236.681030476083
 51
305.1802186478795
  0
LINE
  5
11C6F
330
1A
100
AcDbEntity
  8
0
100
AcDbLine
 10
548.4722757808557
 20
98.43408091826951
 30
0.0
 11
552.9244824827072
 21
100.4042729018092
 31
0.0
  0
LINE
  5
11C70
330
1A
100
AcDbEntity
  8
0
100
AcDbLine
 10
547.9095509457001
 20
98.42494007727236
 30
0.0
 11
543.3927599745056
 21
100.436474245932
 31
0.0
  0
CIRCLE
  5
11C74
330
1A
100
AcDbEntity
  8
0
100
AcDbCircle
 10
612.1842006994755
 20
98.44275284963714
 30
0.0
 40
3.0
  0
CIRCLE
  5
11C75
330
1A
100
AcDbEntity
  8
0
100
AcDbCircle
 10
612.1842006994755
 20
98.44275284963714
 30
0.0
 40
0.75
  0
LINE
  5
11C76
330
1A
100
AcDbEntity
  8
0
 48
0.3
100
AcDbLine
 10
625.9342006994739
 20
80.64275284963878
 30
0.0
 11
625.9342006994756
 21
107.142752849636
 31
0.0
  0
LINE
  5
11C77
330
1A
100
AcDbEntity
  8
0
 48
0.3
100
AcDbLine
 10
647.9342006994738
 20
80.64275284963697
 30
0.0
 11
647.9342006994746
 21
107.142752849636
 31
0.0
  0
LINE
  5
11C79
330
1A
100
AcDbEntity
  8
0
 48
0.3
100
AcDbLine
 10
647.9342006994738
 20
107.142752849636
 30
0.0
 11
625.9342006994756
 21
107.1427528496369
 31
0.0
  0
LINE
  5
11C7A
330
1A
100
AcDbEntity
  8
0
 48
0.3
100
AcDbLine
 10
647.4342006994747
 20
106.642752849636
 30
0.0
 11
626.4342006994755
 21
106.6427528496378
 31
0.0
  0
LINE
  5
11C7B
330
1A
100
AcDbEntity
  8
0
 48
0.3
100
AcDbLine
 10
647.4342006994747
 20
80.34275284963678
 30
0.0
 11
647.4342006994747
 21
106.642752849636
 31
0.0
  0
LINE
  5
11C7C
330
1A
100
AcDbEntity
  8
0
 48
0.3
100
AcDbLine
 10
626.4342006994747
 20
80.34275284963678
 30
0.0
 11
626.4342006994755
 21
106.6427528496378
 31
0.0
  0
LINE
  5
11C7D
330
1A
100
AcDbEntity
  8
0
 48
0.3
100
AcDbLine
 10
647.9342006994738
 20
80.64275284963697
 30
0.0
 11
647.4342006994755
 21
80.64275284963697
 31
0.0
  0
LINE
  5
11C7F
330
1A
100
AcDbEntity
  8
0
 48
0.3
100
AcDbLine
 10
626.4342006994755
 20
80.64275284963878
 30
0.0
 11
625.9342006994747
 21
80.64275284963787
 31
0.0
  0
LINE
  5
11C80
330
1A
100
AcDbEntity
  8
0
 48
0.3
100
AcDbLine
 10
639.9342006994758
 20
91.34275284963678
 30
0.0
 11
633.9342006994757
 21
91.34275284963768
 31
0.0
  0
LINE
  5
11C83
330
1A
100
AcDbEntity
  8
0
 48
0.3
100
AcDbLine
 10
639.9342006994746
 20
96.34275284963678
 30
0.0
 11
633.9342006994765
 21
96.34275284963678
 31
0.0
  0
LINE
  5
11C85
330
1A
100
AcDbEntity
  8
0
 48
0.3
100
AcDbLine
 10
641.9342006994757
 20
105.3427528496368
 30
0.0
 11
631.9342006994746
 21
105.3427528496359
 31
0.0
  0
LINE
  5
11C88
330
1A
100
AcDbEntity
  8
0
100
AcDbLine
 10
630.9342006994747
 20
104.3427528496359
 30
0.0
 11
630.9342006994755
 21
94.34275284963767
 31
0.0
  0
LINE
  5
11C89
330
1A
100
AcDbEntity
  8
0
100
AcDbLine
 10
642.9342006994755
 20
104.3427528496368
 30
0.0
 11
642.9342006994755
 21
94.34275284963678
 31
0.0
  0
LINE
  5
11C8A
330
1A
100
AcDbEntity
  8
0
100
AcDbLine
 10
633.9342006994757
 20
96.34275284963678
 30
0.0
 11
636.9342006994758
 21
94.34275284963678
 31
0.0
  0
LINE
  5
11C8B
330
1A
100
AcDbEntity
  8
0
100
AcDbLine
 10
636.9342006994758
 20
94.34275284963678
 30
0.0
 11
639.9342006994758
 21
96.34275284963678
 31
0.0
  0
CIRCLE
  5
11C8C
330
1A
100
AcDbEntity
  8
0
100
AcDbCircle
 10
636.9342006994758
 20
100.8427528496367
 30
0.0
 40
3.0
  0
ARC
  5
11C8D
330
1A
100
AcDbEntity
  8
0
 48
0.3
100
AcDbCircle
 10
633.9342006994757
 20
94.34275284963767
 30
0.0
 40
3.0
100
AcDbArc
 50
180.0
 51
270.0
  0
ARC
  5
11C8E
330
1A
100
AcDbEntity
  8
0
100
AcDbCircle
 10
639.9342006994758
 20
94.34275284963678
 30
0.0
 40
3.0
100
AcDbArc
 50
269.9999999999968
 51
0.0
  0
ARC
  5
11C8F
330
1A
100
AcDbEntity
  8
0
100
AcDbCircle
 10
631.9342006994746
 20
104.3427528496359
 30
0.0
 40
1.0
100
AcDbArc
 50
90.0
 51
180.0
  0
ARC
  5
11C90
330
1A
100
AcDbEntity
  8
0
100
AcDbCircle
 10
641.9342006994757
 20
104.3427528496368
 30
0.0
 40
1.0
100
AcDbArc
 50
0.0
 51
90.0
  0
LINE
  5
11D73
330
1A
100
AcDbEntity
  8
0
100
AcDbLine
 10
456.3857661639949
 20
490.3232131215673
 30
0.0
 11
456.3857661639958
 21
486.7205236598119
 31
0.0
  0
LINE
  5
11D74
330
1A
100
AcDbEntity
  8
0
100
AcDbLine
 10
462.3857661639958
 20
490.3232131215673
 30
0.0
 11
462.3857661639958
 21
486.4060769841143
 31
0.0
  0
LINE
  5
11D77
330
1A
100
AcDbEntity
  8
0
100
AcDbLine
 10
456.8857661639949
 20
490.8232131215672
 30
0.0
 11
461.8857661639959
 21
490.8232131215672
 31
0.0
  0
LINE
  5
11D78
330
1A
100
AcDbEntity
  8
0
100
AcDbLine
 10
458.6357661639958
 20
489.3232131215691
 30
0.0
 11
460.1357661639958
 21
489.3232131215682
 31
0.0
  0
LINE
  5
11D79
330
1A
100
AcDbEntity
  8
0
100
AcDbLine
 10
458.6357661639976
 20
489.3232131215691
 30
0.0
 11
458.6357661639958
 21
486.6026061564252
 31
0.0
  0
LINE
  5
11D7A
330
1A
100
AcDbEntity
  8
0
100
AcDbLine
 10
460.1357661639976
 20
489.3232131215682
 30
0.0
 11
460.1357661639958
 21
486.5239944875001
 31
0.0
  0
ARC
  5
11D7B
330
1A
100
AcDbEntity
  8
0
100
AcDbCircle
 10
456.8857661639949
 20
490.3232131215673
 30
0.0
 40
0.5
100
AcDbArc
 50
90.0
 51
180.0
  0
ARC
  5
11D7C
330
1A
100
AcDbEntity
  8
0
100
AcDbCircle
 10
461.8857661639959
 20
490.3232131215673
 30
0.0
 40
0.5
100
AcDbArc
 50
0.0
 51
90.0
  0
LINE
  5
11F47
330
1A
100
AcDbEntity
  8
0
100
AcDbLine
 10
137.4461725350052
 20
295.9930426878163
 30
0.0
 11
227.8461725350057
 21
295.9930426878182
 31
0.0
  0
LINE
  5
11F48
330
1A
100
AcDbEntity
  8
0
100
AcDbLine
 10
137.4461725350052
 20
269.983042687817
 30
0.0
 11
227.8461725350057
 21
269.9830426878179
 31
0.0
  0
LINE
  5
11F49
330
1A
100
AcDbEntity
  8
0
 48
0.3
100
AcDbLine
 10
137.4461725350052
 20
295.9930426878154
 30
0.0
 11
137.4461725350052
 21
269.9830426878161
 31
0.0
  0
LINE
  5
11F4A
330
1A
100
AcDbEntity
  8
0
 48
0.3
100
AcDbLine
 10
227.8461725350048
 20
295.9930426878173
 30
0.0
 11
227.8461725350048
 21
269.9830426878161
 31
0.0
  0
LINE
  5
11F7C
330
1A
100
AcDbEntity
  8
0
100
AcDbLine
 10
137.4461725350052
 20
128.8418221729871
 30
0.0
 11
137.4461725350052
 21
120.9158221729867
 31
0.0
  0
LINE
  5
11F7D
330
1A
100
AcDbEntity
  8
0
100
AcDbLine
 10
227.8461725350048
 20
128.8418221729853
 30
0.0
 11
227.8461725350048
 21
120.9158221729867
 31
0.0
  0
LINE
  5
11F7E
330
1A
100
AcDbEntity
  8
0
100
AcDbLine
 10
232.1461725350041
 20
129.0768221729868
 30
0.0
 11
232.146172535005
 21
125.2608221729888
 31
0.0
  0
LINE
  5
11F7F
330
1A
100
AcDbEntity
  8
0
100
AcDbLine
 10
248.1461725350041
 20
129.0768221729895
 30
0.0
 11
248.1461725350041
 21
125.2608221729897
 31
0.0
  0
LINE
  5
11F80
330
1A
100
AcDbEntity
  8
0
100
AcDbLine
 10
250.1461725350041
 20
129.0768221729886
 30
0.0
 11
250.1461725350041
 21
125.2608221729888
 31
0.0
  0
LINE
  5
11F81
330
1A
100
AcDbEntity
  8
0
100
AcDbLine
 10
266.1461725350041
 20
129.0768221729886
 30
0.0
 11
266.1461725350041
 21
125.2608221729888
 31
0.0
  0
LINE
  5
11F82
330
1A
100
AcDbEntity
  8
0
100
AcDbLine
 10
268.146172535005
 20
129.0768221729886
 30
0.0
 11
268.146172535005
 21
125.2608221729888
 31
0.0
  0
LINE
  5
11F83
330
1A
100
AcDbEntity
  8
0
100
AcDbLine
 10
284.146172535005
 20
129.0768221729886
 30
0.0
 11
284.146172535005
 21
125.2608221729888
 31
0.0
  0
LINE
  5
11F92
330
1A
100
AcDbEntity
  8
0
100
AcDbLine
 10
137.4461725350052
 20
128.841822172988
 30
0.0
 11
227.8461725350048
 21
128.8418221729862
 31
0.0
  0
LINE
  5
11F93
330
1A
100
AcDbEntity
  8
0
100
AcDbLine
 10
137.4461725350052
 20
120.9158221729876
 30
0.0
 11
227.8461725350048
 21
120.9158221729867
 31
0.0
  0
LINE
  5
11F94
330
1A
100
AcDbEntity
  8
0
100
AcDbLine
 10
232.1461725350041
 20
129.0768221729886
 30
0.0
 11
248.146172535005
 21
129.0768221729904
 31
0.0
  0
LINE
  5
11F95
330
1A
100
AcDbEntity
  8
0
100
AcDbLine
 10
232.1461725350041
 20
125.2608221729888
 30
0.0
 11
248.146172535005
 21
125.2608221729897
 31
0.0
  0
LINE
  5
11F96
330
1A
100
AcDbEntity
  8
0
100
AcDbLine
 10
232.1461725350041
 20
124.9388221729887
 30
0.0
 11
248.146172535005
 21
124.9388221729887
 31
0.0
  0
LINE
  5
11F97
330
1A
100
AcDbEntity
  8
0
100
AcDbLine
 10
232.1461725350041
 20
121.1228221729889
 30
0.0
 11
248.146172535005
 21
121.1228221729898
 31
0.0
  0
LINE
  5
11F98
330
1A
100
AcDbEntity
  8
0
100
AcDbLine
 10
256.646172535005
 20
121.1228221729889
 30
0.0
 11
277.6461725350041
 21
121.1228221729889
 31
0.0
  0
LINE
  5
11F99
330
1A
100
AcDbEntity
  8
0
100
AcDbLine
 10
256.646172535005
 20
124.9388221729887
 30
0.0
 11
277.6461725350041
 21
124.9388221729887
 31
0.0
  0
LINE
  5
11F9A
330
1A
100
AcDbEntity
  8
0
100
AcDbLine
 10
250.1461725350041
 20
125.2608221729888
 30
0.0
 11
266.1461725350041
 21
125.2608221729888
 31
0.0
  0
LINE
  5
11F9B
330
1A
100
AcDbEntity
  8
0
100
AcDbLine
 10
250.1461725350041
 20
129.0768221729895
 30
0.0
 11
266.1461725350041
 21
129.0768221729895
 31
0.0
  0
LINE
  5
11F9C
330
1A
100
AcDbEntity
  8
0
100
AcDbLine
 10
268.146172535005
 20
129.0768221729895
 30
0.0
 11
284.146172535005
 21
129.0768221729895
 31
0.0
  0
LINE
  5
11F9D
330
1A
100
AcDbEntity
  8
0
100
AcDbLine
 10
268.146172535005
 20
125.2608221729888
 30
0.0
 11
284.146172535005
 21
125.2608221729888
 31
0.0
  0
LINE
  5
11F9E
330
1A
100
AcDbEntity
  8
0
100
AcDbLine
 10
256.646172535005
 20
124.9388221729887
 30
0.0
 11
256.646172535005
 21
121.1228221729898
 31
0.0
  0
LINE
  5
11F9F
330
1A
100
AcDbEntity
  8
0
100
AcDbLine
 10
277.6461725350041
 20
124.9388221729878
 30
0.0
 11
277.6461725350041
 21
121.1228221729898
 31
0.0
  0
LINE
  5
11FA0
330
1A
100
AcDbEntity
  8
0
100
AcDbLine
 10
232.146172535005
 20
124.9388221729887
 30
0.0
 11
232.146172535005
 21
121.1228221729889
 31
0.0
  0
LINE
  5
11FA1
330
1A
100
AcDbEntity
  8
0
100
AcDbLine
 10
248.1461725350041
 20
124.9388221729887
 30
0.0
 11
248.1461725350041
 21
121.1228221729898
 31
0.0
  0
DIMENSION
  5
11FFB
330
1A
100
AcDbEntity
  8
MEASURE
100
AcDbDimension
  2
*D0
 10
307.1461725350058
 20
222.7230426878186
 30
0.0
 11
207.1461725350059
 21
226.7230426878186
 31
0.0
 70
    32
 71
     5
 42
199.9999999999999
  3
AD-STANDARD
100
AcDbAlignedDimension
 13
107.1461725350059
 23
342.723042687815
 33
0.0
 14
307.1461725350058
 24
342.7230426878141
 34
0.0
100
AcDbRotatedDimension
1001
ACAD
1000
DSTYLE
1002
{
1070
   140
1040
3.0
1070
    40
1040
2.0
1002
}
  0
LINE
  5
12007
330
1A
100
AcDbEntity
  8
0
100
AcDbLine
 10
465.3857661639939
 20
398.5328084078318
 30
0.0
 11
475.8857661639948
 21
398.5328084078328
 31
0.0
  0
LINE
  5
12008
330
1A
100
AcDbEntity
  8
0
 48
0.3
100
AcDbLine
 10
465.3857661639939
 20
398.5328084078318
 30
0.0
 11
465.3857661639931
 21
356.5328084078319
 31
0.0
  0
LINE
  5
12009
330
1A
100
AcDbEntity
  8
0
 48
0.3
100
AcDbLine
 10
475.8857661639931
 20
398.5328084078318
 30
0.0
 11
475.885766163994
 21
356.5328084078319
 31
0.0
  0
LINE
  5
1200A
330
1A
100
AcDbEntity
  8
0
100
AcDbLine
 10
465.3857661639931
 20
356.532808407831
 30
0.0
 11
475.8857661639948
 21
356.5328084078319
 31
0.0
  0
DIMENSION
  5
12018
330
1A
100
AcDbEntity
  8
MEASURE
100
AcDbDimension
  2
*D1
 10
77.14617253500489
 20
487.7230426878158
 30
0.0
 11
73.14617253500481
 21
370.2230426878173
 31
0.0
 70
    32
 71
     5
 42
234.9999999999972
  3
AD-STANDARD
100
AcDbAlignedDimension
 13
207.1461725350059
 23
252.7230426878186
 33
0.0
 14
123.0334328098583
 24
487.7230426878158
 34
0.0
 50
90.0
100
AcDbRotatedDimension
1001
ACAD
1000
DSTYLE
1002
{
1070
   140
1040
3.0
1070
    40
1040
2.0
1002
}
  0
DIMENSION
  5
12027
330
1A
100
AcDbEntity
  8
MEASURE
100
AcDbDimension
  2
*D2
 10
77.14617253500489
 20
505.723042687815
 30
0.0
 11
73.14617253500481
 21
496.7230426878154
 31
0.0
 70
    32
 71
     5
 42
17.9999999999992
  3
AD-STANDARD
100
AcDbAlignedDimension
 13
123.0334328098583
 23
487.7230426878158
 33
0.0
 14
142.1875538001545
 24
505.723042687815
 34
0.0
 50
90.0
100
AcDbRotatedDimension
1001
ACAD
1000
DSTYLE
1002
{
1070
   140
1040
3.0
1070
    40
1040
2.0
1002
}
  0
DIMENSION
  5
12034
330
1A
100
AcDbEntity
  8
MEASURE
100
AcDbDimension
  2
*D3
 10
63.14617253500483
 20
252.7230426878186
 30
0.0
 11
59.1461725350048
 21
379.2230426878168
 31
0.0
 70
    32
 71
     5
 42
252.9999999999964
  3
AD-STANDARD
100
AcDbAlignedDimension
 13
84.17606165754888
 23
505.723042687815
 33
0.0
 14
84.17606165754888
 24
252.7230426878186
 34
0.0
 50
90.0
100
AcDbRotatedDimension
1001
ACAD
1000
DSTYLE
1002
{
1070
   140
1040
3.0
1070
    40
1040
2.0
1002
}
  0
LINE
  5
121E8
330
1A
100
AcDbEntity
  8
MEASURE
  6
CENTER
 48
0.2
100
AcDbLine
 10
207.1461725350041
 20
478.237981142186
 30
0.0
 11
207.1461725350059
 21
333.7252776149025
 31
0.0
  0
LINE
  5
121E9
330
1A
100
AcDbEntity
  8
MEASURE
  6
CENTER
 48
0.2
100
AcDbLine
 10
120.6088345390085
 20
406.7230426878166
 30
0.0
 11
293.6289828962122
 21
406.7230426878158
 31
0.0
  0
DIMENSION
  5
121F8
330
1A
100
AcDbEntity
  8
MEASURE
100
AcDbDimension
  2
*D13
 10
207.1461725350041
 20
535.723042687815
 30
0.0
 11
157.1461725350041
 21
541.2944712592435
 31
0.0
 70
    32
  1
(<>)
 71
     5
 42
99.99999999999998
  3
AD-STANDARD
100
AcDbAlignedDimension
 13
107.1461725350041
 23
417.7230426877521
 33
0.0
 14
207.1461725350041
 24
468.8792042509231
 34
0.0
100
AcDbRotatedDimension
1001
ACAD
1000
DSTYLE
1002
{
1070
   140
1040
3.0
1070
    40
1040
2.0
1002
}
  0
DIMENSION
  5
12205
330
1A
100
AcDbEntity
  8
MEASURE
100
AcDbDimension
  2
*D14
 10
207.1461725350041
 20
535.6213390395481
 30
0.0
 11
257.146172535005
 21
541.1927676109767
 31
0.0
 70
    32
  1
(<>)
 71
     5
 42
100.0000000000018
  3
AD-STANDARD
100
AcDbAlignedDimension
 13
307.1461725350058
 23
417.7230426877431
 33
0.0
 14
207.1461725350041
 24
535.6213390395481
 34
0.0
100
AcDbRotatedDimension
1001
ACAD
1000
DSTYLE
1002
{
1070
   140
1040
3.0
1070
    40
1040
2.0
1002
}
  0
DIMENSION
  5
12212
330
1A
100
AcDbEntity
  8
MEASURE
100
AcDbDimension
  2
*D15
 10
337.1461725350059
 20
406.7230426878158
 30
0.0
 11
331.5747439635772
 21
447.2230426878168
 31
0.0
 70
    32
  1
(<>)
 71
     5
 42
81.00000000000187
  3
AD-STANDARD
100
AcDbAlignedDimension
 13
291.2589122601535
 23
487.7230426878177
 33
0.0
 14
286.2437169475775
 24
406.7230426878158
 34
0.0
 50
90.0
100
AcDbRotatedDimension
1001
ACAD
1000
DSTYLE
1002
{
1070
   140
1040
3.0
1070
    40
1040
2.0
1002
}
  0
DIMENSION
  5
12220
330
1A
100
AcDbEntity
  8
MEASURE
100
AcDbDimension
  2
*D16
 10
337.1461725350059
 20
406.7230426878158
 30
0.0
 11
330.8128392016724
 21
329.7230426878173
 31
0.0
 70
    32
  1
(<>)
 71
     5
 42
153.9999999999972
  3
AD-STANDARD
100
AcDbAlignedDimension
 13
207.1461725350059
 23
252.7230426878186
 33
0.0
 14
337.1461725350059
 24
406.7230426878158
 34
0.0
 50
90.0
100
AcDbRotatedDimension
1001
ACAD
1000
DSTYLE
1002
{
1070
    40
1040
2.0
1002
}
  0
ELLIPSE
  5
12387
330
1A
100
AcDbEntity
  8
0
100
AcDbEllipse
 10
240.1461725350041
 20
290.2880426878155
 30
0.0
 11
-7.250462296293196
 21
-3.380946093925595
 31
0.0
210
0.0
220
0.0
230
1.0
 40
0.8125000000000511
 41
0.0
 42
6.283185307179585
  0
ELLIPSE
  5
12388
330
1A
100
AcDbEntity
  8
0
100
AcDbEllipse
 10
258.146172535005
 20
290.2880426878155
 30
0.0
 11
-7.250462296293196
 21
-3.380946093925595
 31
0.0
210
0.0
220
0.0
230
1.0
 40
0.8125000000000511
 41
0.0
 42
6.283185307179585
  0
ELLIPSE
  5
12389
330
1A
100
AcDbEntity
  8
0
100
AcDbEllipse
 10
276.146172535005
 20
290.2880426878155
 30
0.0
 11
-7.250462296293196
 21
-3.380946093925595
 31
0.0
210
0.0
220
0.0
230
1.0
 40
0.8125000000000511
 41
0.0
 42
6.283185307179585
  0
ELLIPSE
  5
1238A
330
1A
100
AcDbEntity
  8
0
100
AcDbEllipse
 10
240.1461725350032
 20
276.1880426878152
 30
0.0
 11
-7.250462296293196
 21
-3.380946093925595
 31
0.0
210
0.0
220
0.0
230
1.0
 40
0.8125000000000511
 41
0.0
 42
6.283185307179585
  0
ELLIPSE
  5
1238B
330
1A
100
AcDbEntity
  8
0
100
AcDbEllipse
 10
267.1461725350059
 20
276.1880426878152
 30
0.0
 11
-8.156770083329847
 21
-3.803564355666292
 31
0.0
210
0.0
220
0.0
230
1.0
 40
0.8333333333333873
 41
0.0
 42
6.283185307179585
  0
CIRCLE
  5
139BA
330
1A
100
AcDbEntity
  8
0
100
AcDbCircle
 10
207.146172535005
 20
406.7230426878176
 30
0.0
 40
49.97055699614418
  0
CIRCLE
  5
139BB
330
1A
100
AcDbEntity
  8
0
100
AcDbCircle
 10
207.146172535005
 20
406.7230426878176
 30
0.0
 40
38.97055699614646
  0
CIRCLE
  5
139BC
330
1A
100
AcDbEntity
  8
0
100
AcDbCircle
 10
207.146172535005
 20
406.7230426878176
 30
0.0
 40
54.89577891289069
  0
CIRCLE
  5
139BD
330
1A
100
AcDbEntity
  8
0
100
AcDbCircle
 10
207.146172535005
 20
406.7230426878176
 30
0.0
 40
55.74577891289073
  0
LWPOLYLINE
  5
139C0
330
1A
100
AcDbEntity
  8
0
100
AcDbPolyline
 90
        8
 70
     1
 43
0.0
 10
125.146172535005
 20
339.7230426878186
 10
289.146172535005
 20
339.7230426878177
 42
0.4142135623730951
 10
294.146172535005
 20
344.7230426878177
 10
294.146172535005
 20
468.7230426878176
 42
0.4142135623730951
 10
289.146172535005
 20
473.7230426878176
 10
125.146172535005
 20
473.7230426878185
 42
0.4142135623730951
 10
120.146172535005
 20
468.7230426878185
 10
120.146172535005
 20
344.7230426878186
 42
0.4142135623730951
  0
LINE
  5
139D7
330
1A
100
AcDbEntity
  8
0
100
AcDbLine
 10
152.7461725350053
 20
148.3427528496358
 30
0.0
 11
261.5461725350055
 21
148.3427528496404
 31
0.0
  0
LINE
  5
139D8
330
1A
100
AcDbEntity
  8
0
100
AcDbLine
 10
151.8961725350059
 20
141.3427528496358
 30
0.0
 11
262.3961725350059
 21
141.3427528496358
 31
0.0
  0
LINE
  5
139D9
330
1A
100
AcDbEntity
  8
0
100
AcDbLine
 10
151.4003936221147
 20
141.4075854767061
 30
0.0
 11
151.8961725350059
 21
141.3427528496358
 31
0.0
  0
LINE
  5
139DA
330
1A
100
AcDbEntity
  8
0
100
AcDbLine
 10
152.2503936221151
 20
147.9075854767061
 30
0.0
 11
151.4003936221147
 21
141.4075854767061
 31
0.0
  0
ARC
  5
139DB
330
1A
100
AcDbEntity
  8
0
100
AcDbCircle
 10
152.7461725350053
 20
147.8427528496359
 30
0.0
 40
0.5
100
AcDbArc
 50
90.0
 51
172.5497509313538
  0
ARC
  5
139DC
330
1A
100
AcDbEntity
  8
0
100
AcDbCircle
 10
261.5461725350055
 20
147.8427528496359
 30
0.0
 40
0.5
100
AcDbArc
 50
7.450249068646193
 51
90.0
  0
LINE
  5
139DD
330
1A
100
AcDbEntity
  8
0
100
AcDbLine
 10
262.0419514478967
 20
147.9075854767061
 30
0.0
 11
262.8919514478962
 21
141.4075854767061
 31
0.0
  0
LINE
  5
139DE
330
1A
100
AcDbEntity
  8
0
100
AcDbLine
 10
262.8919514478962
 20
141.4075854767061
 30
0.0
 11
262.3961725350059
 21
141.3427528496358
 31
0.0
  0
LINE
  5
139DF
330
1A
100
AcDbEntity
  8
0
100
AcDbLine
 10
120.1461725350059
 20
137.3427528496377
 30
0.0
 11
294.1461725350059
 21
137.3427528496386
 31
0.0
  0
LINE
  5
139E0
330
1A
100
AcDbEntity
  8
0
100
AcDbLine
 10
120.1461725350059
 20
138.1427528496379
 30
0.0
 11
120.1461725350059
 21
137.3427528496386
 31
0.0
  0
LINE
  5
139E1
330
1A
100
AcDbEntity
  8
0
100
AcDbLine
 10
120.1461725350059
 20
138.1427528496379
 30
0.0
 11
294.1461725350059
 21
138.1427528496379
 31
0.0
  0
LINE
  5
139E2
330
1A
100
AcDbEntity
  8
0
100
AcDbLine
 10
294.1461725350059
 20
138.1427528496379
 30
0.0
 11
294.1461725350059
 21
137.3427528496377
 31
0.0
  0
LINE
  5
139E5
330
1A
100
AcDbEntity
  8
0
100
AcDbLine
 10
192.1461725350059
 20
141.3427528496358
 30
0.0
 11
192.1461725350059
 21
138.1427528496379
 31
0.0
  0
LINE
  5
139E6
330
1A
100
AcDbEntity
  8
0
100
AcDbLine
 10
222.1461725350059
 20
141.3427528496358
 30
0.0
 11
222.1461725350059
 21
138.1427528496379
 31
0.0
  0
LINE
  5
139E7
330
1A
100
AcDbEntity
  8
0
100
AcDbLine
 10
422.8857661639939
 20
465.5276364005011
 30
0.0
 11
422.8857661639939
 21
347.4276364005009
 31
0.0
  0
LINE
  5
139E8
330
1A
100
AcDbEntity
  8
0
100
AcDbLine
 10
411.8228841651752
 20
352.3230426878163
 30
0.0
 11
411.8228841651706
 21
461.1230426878163
 31
0.0
  0
LINE
  5
139E9
330
1A
100
AcDbEntity
  8
0
100
AcDbLine
 10
422.0228841651715
 20
392.8730426878165
 30
0.0
 11
422.0228841651715
 21
386.5730426878163
 31
0.0
  0
LINE
  5
139EA
330
1A
100
AcDbEntity
  8
0
100
AcDbLine
 10
421.0228841651715
 20
392.7855540242908
 30
0.0
 11
421.0228841651715
 21
386.6605313513429
 31
0.0
  0
ARC
  5
139EB
330
1A
100
AcDbEntity
  8
0
100
AcDbCircle
 10
425.7834262129672
 20
389.7230426878169
 30
0.0
 40
5.660542047795714
100
AcDbArc
 50
147.2463581806972
 51
212.7536418193027
  0
LINE
  5
139EC
330
1A
100
AcDbEntity
  8
0
100
AcDbLine
 10
421.0228841651715
 20
386.6605313513429
 30
0.0
 11
422.0228841651715
 21
386.5730426878163
 31
0.0
  0
LINE
  5
139ED
330
1A
100
AcDbEntity
  8
0
100
AcDbLine
 10
421.0228841651715
 20
392.7855540242908
 30
0.0
 11
422.0228841651715
 21
392.8730426878165
 31
0.0
  0
LINE
  5
139EE
330
1A
100
AcDbEntity
  8
0
100
AcDbLine
 10
422.0228841651715
 20
339.7230426878159
 30
0.0
 11
422.0228841651706
 21
473.7230426878157
 31
0.0
  0
LINE
  5
139EF
330
1A
100
AcDbEntity
  8
0
100
AcDbLine
 10
422.0228841651706
 20
473.7230426878157
 30
0.0
 11
422.8228841651698
 21
473.7230426878157
 31
0.0
  0
LINE
  5
139F0
330
1A
100
AcDbEntity
  8
0
100
AcDbLine
 10
418.8228841651753
 20
351.4730426878169
 30
0.0
 11
418.8228841651753
 21
461.9730426878168
 31
0.0
  0
LINE
  5
139F1
330
1A
100
AcDbEntity
  8
0
100
AcDbLine
 10
418.758051538105
 20
350.9772637749256
 30
0.0
 11
418.8228841651753
 21
351.4730426878169
 31
0.0
  0
LINE
  5
139F2
330
1A
100
AcDbEntity
  8
0
100
AcDbLine
 10
412.2580515381049
 20
351.827263774926
 30
0.0
 11
418.758051538105
 21
350.9772637749256
 31
0.0
  0
ARC
  5
139F3
330
1A
100
AcDbEntity
  8
0
100
AcDbCircle
 10
412.3228841651751
 20
352.3230426878163
 30
0.0
 40
0.5
100
AcDbArc
 50
180.0
 51
262.5497509313538
  0
ARC
  5
139F4
330
1A
100
AcDbEntity
  8
0
100
AcDbCircle
 10
412.3228841651751
 20
461.1230426878163
 30
0.0
 40
0.5
100
AcDbArc
 50
97.45024906864616
 51
180.0
  0
LINE
  5
139F5
330
1A
100
AcDbEntity
  8
0
100
AcDbLine
 10
412.2580515381049
 20
461.6188216007076
 30
0.0
 11
418.758051538105
 21
462.468821600707
 31
0.0
  0
LINE
  5
139F6
330
1A
100
AcDbEntity
  8
0
100
AcDbLine
 10
418.758051538105
 20
462.468821600707
 30
0.0
 11
418.8228841651753
 21
461.9730426878168
 31
0.0
  0
LINE
  5
139F7
330
1A
100
AcDbEntity
  8
0
100
AcDbLine
 10
418.8228841651753
 20
391.7230426878169
 30
0.0
 11
420.4879813520646
 21
391.7230426878169
 31
0.0
  0
LINE
  5
139F8
330
1A
100
AcDbEntity
  8
0
100
AcDbLine
 10
418.8228841651753
 20
421.7230426878169
 30
0.0
 11
422.0228841651731
 21
421.7230426878169
 31
0.0
  0
LINE
  5
139F9
330
1A
100
AcDbEntity
  8
0
100
AcDbLine
 10
422.0228841651715
 20
420.5730426878179
 30
0.0
 11
422.0228841651715
 21
426.8730426878183
 31
0.0
  0
LINE
  5
139FA
330
1A
100
AcDbEntity
  8
0
100
AcDbLine
 10
421.0228841651715
 20
421.7230426878169
 30
0.0
 11
421.0228841651715
 21
426.7855540242917
 31
0.0
  0
ARC
  5
139FB
330
1A
100
AcDbEntity
  8
0
100
AcDbCircle
 10
425.7834262129672
 20
423.7230426878176
 30
0.0
 40
5.660542047795714
100
AcDbArc
 50
147.2463581806972
 51
200.6907031489692
  0
LINE
  5
139FC
330
1A
100
AcDbEntity
  8
0
100
AcDbLine
 10
421.0228841651715
 20
426.7855540242917
 30
0.0
 11
422.0228841651715
 21
426.8730426878183
 31
0.0
  0
LINE
  5
139FD
330
1A
100
AcDbEntity
  8
0
100
AcDbLine
 10
422.0228841651706
 20
339.7230426878159
 30
0.0
 11
422.8228841651698
 21
339.7230426878159
 31
0.0
  0
LINE
  5
139FE
330
1A
100
AcDbEntity
  8
0
100
AcDbLine
 10
523.2842006994741
 20
148.3427528496358
 30
0.0
 11
632.0842006994744
 21
148.3427528496404
 31
0.0
  0
LINE
  5
139FF
330
1A
100
AcDbEntity
  8
0
100
AcDbLine
 10
522.4342006994747
 20
141.3427528496358
 30
0.0
 11
632.9342006994746
 21
141.3427528496358
 31
0.0
  0
LINE
  5
13A00
330
1A
100
AcDbEntity
  8
0
100
AcDbLine
 10
521.9384217865836
 20
141.4075854767061
 30
0.0
 11
522.4342006994747
 21
141.3427528496358
 31
0.0
  0
LINE
  5
13A01
330
1A
100
AcDbEntity
  8
0
100
AcDbLine
 10
522.7884217865838
 20
147.9075854767061
 30
0.0
 11
521.9384217865836
 21
141.4075854767061
 31
0.0
  0
ARC
  5
13A02
330
1A
100
AcDbEntity
  8
0
100
AcDbCircle
 10
523.2842006994741
 20
147.8427528496359
 30
0.0
 40
0.5
100
AcDbArc
 50
90.0
 51
172.5497509313538
  0
ARC
  5
13A03
330
1A
100
AcDbEntity
  8
0
100
AcDbCircle
 10
632.0842006994744
 20
147.8427528496359
 30
0.0
 40
0.5
100
AcDbArc
 50
7.450249068646193
 51
90.0
  0
LINE
  5
13A04
330
1A
100
AcDbEntity
  8
0
100
AcDbLine
 10
632.5799796123654
 20
147.9075854767061
 30
0.0
 11
633.4299796123651
 21
141.4075854767061
 31
0.0
  0
LINE
  5
13A05
330
1A
100
AcDbEntity
  8
0
100
AcDbLine
 10
633.4299796123651
 20
141.4075854767061
 30
0.0
 11
632.9342006994746
 21
141.3427528496358
 31
0.0
  0
LINE
  5
13A06
330
1A
100
AcDbEntity
  8
0
100
AcDbLine
 10
490.6842006994748
 20
138.1427528496379
 30
0.0
 11
490.6842006994748
 21
137.3427528496386
 31
0.0
  0
LINE
  5
13A07
330
1A
100
AcDbEntity
  8
0
100
AcDbLine
 10
490.6842006994748
 20
138.1427528496379
 30
0.0
 11
664.6842006994746
 21
138.1427528496379
 31
0.0
  0
LINE
  5
13A08
330
1A
100
AcDbEntity
  8
0
100
AcDbLine
 10
664.6842006994746
 20
138.1427528496379
 30
0.0
 11
664.6842006994746
 21
137.3427528496377
 31
0.0
  0
LINE
  5
13A0B
330
1A
100
AcDbEntity
  8
0
100
AcDbLine
 10
562.6842006994746
 20
141.3427528496358
 30
0.0
 11
562.6842006994746
 21
138.1427528496379
 31
0.0
  0
LINE
  5
13A0C
330
1A
100
AcDbEntity
  8
0
100
AcDbLine
 10
592.6842006994746
 20
141.3427528496358
 30
0.0
 11
592.6842006994746
 21
138.1427528496379
 31
0.0
  0
DIMENSION
  5
13A20
330
1A
100
AcDbEntity
  8
MEASURE
100
AcDbDimension
  2
*D17
 10
77.14617253500484
 20
76.34275284964044
 30
0.0
 11
73.14617253500482
 21
112.3427528496381
 31
0.0
 70
    32
 71
     5
 42
71.99999999999538
  3
AD-STANDARD
100
AcDbAlignedDimension
 13
152.7461725350053
 23
148.3427528496358
 33
0.0
 14
118.646172535005
 24
76.34275284964044
 34
0.0
 50
90.0
100
AcDbRotatedDimension
1001
ACAD
1000
DSTYLE
1002
{
1070
    40
1040
2.0
1070
   140
1040
3.0
1002
}
  0
DIMENSION
  5
13A3D
330
1A
100
AcDbEntity
  8
MEASURE
100
AcDbDimension
  2
*D18
 10
262.8919514478962
 20
178.3427528496404
 30
0.0
 11
207.1461725350054
 21
182.3427528496404
 31
0.0
 70
    32
  1
%%C<>
 71
     5
 42
111.4915578257815
  3
AD-STANDARD
100
AcDbAlignedDimension
 13
151.4003936221147
 23
141.4075854767061
 33
0.0
 14
262.8919514478962
 24
141.4075854767061
 34
0.0
100
AcDbRotatedDimension
1001
ACAD
1000
DSTYLE
1002
{
1070
    40
1040
2.0
1070
   140
1040
3.0
1070
   271
1070
     1
1002
}
  0
CIRCLE
  5
13F61
330
1A
100
AcDbEntity
  8
0
100
AcDbCircle
 10
280.1461725350047
 20
389.7230426878179
 30
0.0
 40
3.149999999999999
  0
LINE
  5
13F62
330
1A
100
AcDbEntity
  8
0
100
AcDbLine
 10
279.5511725350048
 20
390.3180426878179
 30
0.0
 11
278.9561725350048
 21
390.0730426878182
 31
0.0
  0
LINE
  5
13F63
330
1A
100
AcDbEntity
  8
0
100
AcDbLine
 10
281.3361725350045
 20
390.073042687818
 30
0.0
 11
280.7411725350045
 21
390.3180426878179
 31
0.0
  0
LINE
  5
13F64
330
1A
100
AcDbEntity
  8
0
100
AcDbLine
 10
278.3961725350047
 20
390.0730426878182
 30
0.0
 11
278.3961725350045
 21
389.3730426878178
 31
0.0
  0
LINE
  5
13F65
330
1A
100
AcDbEntity
  8
0
100
AcDbLine
 10
281.8961725350049
 20
390.073042687818
 30
0.0
 11
281.8961725350046
 21
389.3730426878174
 31
0.0
  0
LINE
  5
13F66
330
1A
100
AcDbEntity
  8
0
100
AcDbLine
 10
279.7961725350044
 20
387.9730426878179
 30
0.0
 11
280.4961725350048
 21
387.9730426878176
 31
0.0
  0
LINE
  5
13F67
330
1A
100
AcDbEntity
  8
0
100
AcDbLine
 10
280.4961725350048
 20
387.9730426878176
 30
0.0
 11
280.4961725350048
 21
388.5330426878178
 31
0.0
  0
LINE
  5
13F68
330
1A
100
AcDbEntity
  8
0
100
AcDbLine
 10
280.4961725350048
 20
388.5330426878178
 30
0.0
 11
280.7411725350045
 21
389.1280426878179
 31
0.0
  0
LINE
  5
13F69
330
1A
100
AcDbEntity
  8
0
100
AcDbLine
 10
280.7411725350045
 20
389.1280426878179
 30
0.0
 11
281.3361725350045
 21
389.3730426878174
 31
0.0
  0
LINE
  5
13F6A
330
1A
100
AcDbEntity
  8
0
100
AcDbLine
 10
281.3361725350045
 20
389.3730426878174
 30
0.0
 11
281.8961725350046
 21
389.3730426878174
 31
0.0
  0
LINE
  5
13F6B
330
1A
100
AcDbEntity
  8
0
100
AcDbLine
 10
278.3961725350045
 20
389.3730426878178
 30
0.0
 11
278.9561725350048
 21
389.3730426878178
 31
0.0
  0
LINE
  5
13F6C
330
1A
100
AcDbEntity
  8
0
100
AcDbLine
 10
278.9561725350048
 20
389.3730426878178
 30
0.0
 11
279.5511725350048
 21
389.128042687818
 31
0.0
  0
LINE
  5
13F6D
330
1A
100
AcDbEntity
  8
0
100
AcDbLine
 10
279.5511725350048
 20
389.128042687818
 30
0.0
 11
279.7961725350044
 21
388.533042687818
 31
0.0
  0
LINE
  5
13F6E
330
1A
100
AcDbEntity
  8
0
100
AcDbLine
 10
279.7961725350044
 20
388.533042687818
 30
0.0
 11
279.7961725350044
 21
387.9730426878179
 31
0.0
  0
LINE
  5
13F6F
330
1A
100
AcDbEntity
  8
0
100
AcDbLine
 10
278.9561725350048
 20
390.0730426878182
 30
0.0
 11
278.3961725350047
 21
390.0730426878182
 31
0.0
  0
LINE
  5
13F70
330
1A
100
AcDbEntity
  8
0
100
AcDbLine
 10
281.8961725350049
 20
390.073042687818
 30
0.0
 11
281.3361725350045
 21
390.073042687818
 31
0.0
  0
LINE
  5
13F71
330
1A
100
AcDbEntity
  8
0
100
AcDbLine
 10
279.7961725350046
 20
391.4730426878181
 30
0.0
 11
280.496172535005
 21
391.4730426878179
 31
0.0
  0
LINE
  5
13F72
330
1A
100
AcDbEntity
  8
0
100
AcDbLine
 10
279.7961725350046
 20
391.4730426878181
 30
0.0
 11
279.7961725350046
 21
390.9130426878178
 31
0.0
  0
LINE
  5
13F73
330
1A
100
AcDbEntity
  8
0
100
AcDbLine
 10
279.7961725350046
 20
390.9130426878178
 30
0.0
 11
279.5511725350048
 21
390.3180426878179
 31
0.0
  0
LINE
  5
13F74
330
1A
100
AcDbEntity
  8
0
100
AcDbLine
 10
280.496172535005
 20
390.9130426878178
 30
0.0
 11
280.496172535005
 21
391.4730426878179
 31
0.0
  0
LINE
  5
13F75
330
1A
100
AcDbEntity
  8
0
100
AcDbLine
 10
280.7411725350045
 20
390.3180426878179
 30
0.0
 11
280.496172535005
 21
390.9130426878178
 31
0.0
  0
LINE
  5
13F78
330
1A
100
AcDbEntity
  8
0
100
AcDbLine
 10
507.8342006994744
 20
138.1427528496379
 30
0.0
 11
501.5342006994743
 21
138.1427528496379
 31
0.0
  0
LINE
  5
13F79
330
1A
100
AcDbEntity
  8
0
100
AcDbLine
 10
507.7467120359484
 20
139.1427528496379
 30
0.0
 11
501.6216893630002
 21
139.1427528496379
 31
0.0
  0
ARC
  5
13F7A
330
1A
100
AcDbEntity
  8
0
100
AcDbCircle
 10
504.6842006994744
 20
134.3822108018422
 30
0.0
 40
5.660542047795714
100
AcDbArc
 50
57.24635818068822
 51
122.7536418193117
  0
LINE
  5
13F7B
330
1A
100
AcDbEntity
  8
0
100
AcDbLine
 10
501.6216893630002
 20
139.1427528496379
 30
0.0
 11
501.5342006994743
 21
138.1427528496379
 31
0.0
  0
LINE
  5
13F7C
330
1A
100
AcDbEntity
  8
0
100
AcDbLine
 10
507.7467120359484
 20
139.1427528496379
 30
0.0
 11
507.8342006994744
 21
138.1427528496379
 31
0.0
  0
LINE
  5
13F7D
330
1A
100
AcDbEntity
  8
0
100
AcDbLine
 10
653.8342006994744
 20
138.1427528496379
 30
0.0
 11
647.5342006994743
 21
138.1427528496379
 31
0.0
  0
LINE
  5
13F7E
330
1A
100
AcDbEntity
  8
0
100
AcDbLine
 10
653.7467120359484
 20
139.1427528496379
 30
0.0
 11
647.6216893630002
 21
139.1427528496379
 31
0.0
  0
ARC
  5
13F7F
330
1A
100
AcDbEntity
  8
0
100
AcDbCircle
 10
650.6842006994745
 20
134.3822108018422
 30
0.0
 40
5.660542047795714
100
AcDbArc
 50
57.24635818068549
 51
122.7536418193145
  0
LINE
  5
13F80
330
1A
100
AcDbEntity
  8
0
100
AcDbLine
 10
647.6216893630002
 20
139.1427528496379
 30
0.0
 11
647.5342006994743
 21
138.1427528496379
 31
0.0
  0
LINE
  5
13F81
330
1A
100
AcDbEntity
  8
0
100
AcDbLine
 10
653.7467120359484
 20
139.1427528496379
 30
0.0
 11
653.8342006994744
 21
138.1427528496379
 31
0.0
  0
LINE
  5
13F82
330
1A
100
AcDbEntity
  8
0
100
AcDbLine
 10
137.2961725350055
 20
138.1427528496379
 30
0.0
 11
130.9961725350055
 21
138.1427528496379
 31
0.0
  0
LINE
  5
13F83
330
1A
100
AcDbEntity
  8
0
100
AcDbLine
 10
137.2086838714796
 20
139.1427528496379
 30
0.0
 11
131.0836611985314
 21
139.1427528496379
 31
0.0
  0
ARC
  5
13F84
330
1A
100
AcDbEntity
  8
0
100
AcDbCircle
 10
134.1461725350055
 20
134.3822108018422
 30
0.0
 40
5.660542047795714
100
AcDbArc
 50
57.24635818068686
 51
122.7536418193131
  0
LINE
  5
13F85
330
1A
100
AcDbEntity
  8
0
100
AcDbLine
 10
131.0836611985314
 20
139.1427528496379
 30
0.0
 11
130.9961725350055
 21
138.1427528496379
 31
0.0
  0
LINE
  5
13F86
330
1A
100
AcDbEntity
  8
0
100
AcDbLine
 10
137.2086838714796
 20
139.1427528496379
 30
0.0
 11
137.2961725350055
 21
138.1427528496379
 31
0.0
  0
LINE
  5
13F87
330
1A
100
AcDbEntity
  8
0
100
AcDbLine
 10
283.2961725350056
 20
138.1427528496379
 30
0.0
 11
276.9961725350055
 21
138.1427528496379
 31
0.0
  0
LINE
  5
13F88
330
1A
100
AcDbEntity
  8
0
100
AcDbLine
 10
283.2086838714797
 20
139.1427528496379
 30
0.0
 11
277.0836611985315
 21
139.1427528496379
 31
0.0
  0
ARC
  5
13F89
330
1A
100
AcDbEntity
  8
0
100
AcDbCircle
 10
280.1461725350056
 20
134.3822108018422
 30
0.0
 40
5.660542047795714
100
AcDbArc
 50
57.24635818068822
 51
122.7536418193117
  0
LINE
  5
13F8A
330
1A
100
AcDbEntity
  8
0
100
AcDbLine
 10
277.0836611985315
 20
139.1427528496379
 30
0.0
 11
276.9961725350055
 21
138.1427528496379
 31
0.0
  0
LINE
  5
13F8B
330
1A
100
AcDbEntity
  8
0
100
AcDbLine
 10
283.2086838714797
 20
139.1427528496379
 30
0.0
 11
283.2961725350056
 21
138.1427528496379
 31
0.0
  0
CIRCLE
  5
13F8C
330
1A
100
AcDbEntity
  8
0
100
AcDbCircle
 10
134.1461725350046
 20
423.7230426878178
 30
0.0
 40
3.149999999999999
  0
LINE
  5
13F8D
330
1A
100
AcDbEntity
  8
0
100
AcDbLine
 10
133.5511725350048
 20
424.3180426878176
 30
0.0
 11
132.9561725350048
 21
424.0730426878181
 31
0.0
  0
LINE
  5
13F8E
330
1A
100
AcDbEntity
  8
0
100
AcDbLine
 10
135.3361725350046
 20
424.073042687818
 30
0.0
 11
134.7411725350045
 21
424.3180426878176
 31
0.0
  0
LINE
  5
13F8F
330
1A
100
AcDbEntity
  8
0
100
AcDbLine
 10
132.3961725350046
 20
424.0730426878181
 30
0.0
 11
132.3961725350045
 21
423.3730426878178
 31
0.0
  0
LINE
  5
13F90
330
1A
100
AcDbEntity
  8
0
100
AcDbLine
 10
135.8961725350049
 20
424.073042687818
 30
0.0
 11
135.8961725350047
 21
423.3730426878173
 31
0.0
  0
LINE
  5
13F91
330
1A
100
AcDbEntity
  8
0
100
AcDbLine
 10
133.7961725350044
 20
421.9730426878178
 30
0.0
 11
134.4961725350047
 21
421.9730426878173
 31
0.0
  0
LINE
  5
13F92
330
1A
100
AcDbEntity
  8
0
100
AcDbLine
 10
134.4961725350047
 20
421.9730426878173
 30
0.0
 11
134.4961725350047
 21
422.5330426878176
 31
0.0
  0
LINE
  5
13F93
330
1A
100
AcDbEntity
  8
0
100
AcDbLine
 10
134.4961725350047
 20
422.5330426878176
 30
0.0
 11
134.7411725350045
 21
423.1280426878178
 31
0.0
  0
LINE
  5
13F94
330
1A
100
AcDbEntity
  8
0
100
AcDbLine
 10
134.7411725350045
 20
423.1280426878178
 30
0.0
 11
135.3361725350046
 21
423.3730426878173
 31
0.0
  0
LINE
  5
13F95
330
1A
100
AcDbEntity
  8
0
100
AcDbLine
 10
135.3361725350046
 20
423.3730426878173
 30
0.0
 11
135.8961725350047
 21
423.3730426878173
 31
0.0
  0
LINE
  5
13F96
330
1A
100
AcDbEntity
  8
0
100
AcDbLine
 10
132.3961725350045
 20
423.3730426878178
 30
0.0
 11
132.9561725350048
 21
423.3730426878178
 31
0.0
  0
LINE
  5
13F97
330
1A
100
AcDbEntity
  8
0
100
AcDbLine
 10
132.9561725350048
 20
423.3730426878178
 30
0.0
 11
133.5511725350048
 21
423.1280426878179
 31
0.0
  0
LINE
  5
13F98
330
1A
100
AcDbEntity
  8
0
100
AcDbLine
 10
133.5511725350048
 20
423.1280426878179
 30
0.0
 11
133.7961725350044
 21
422.533042687818
 31
0.0
  0
LINE
  5
13F99
330
1A
100
AcDbEntity
  8
0
100
AcDbLine
 10
133.7961725350044
 20
422.533042687818
 30
0.0
 11
133.7961725350044
 21
421.9730426878178
 31
0.0
  0
LINE
  5
13F9A
330
1A
100
AcDbEntity
  8
0
100
AcDbLine
 10
132.9561725350048
 20
424.0730426878181
 30
0.0
 11
132.3961725350046
 21
424.0730426878181
 31
0.0
  0
LINE
  5
13F9B
330
1A
100
AcDbEntity
  8
0
100
AcDbLine
 10
135.8961725350049
 20
424.073042687818
 30
0.0
 11
135.3361725350046
 21
424.073042687818
 31
0.0
  0
LINE
  5
13F9C
330
1A
100
AcDbEntity
  8
0
100
AcDbLine
 10
133.7961725350046
 20
425.4730426878181
 30
0.0
 11
134.4961725350049
 21
425.4730426878178
 31
0.0
  0
LINE
  5
13F9D
330
1A
100
AcDbEntity
  8
0
100
AcDbLine
 10
133.7961725350046
 20
425.4730426878181
 30
0.0
 11
133.7961725350046
 21
424.9130426878178
 31
0.0
  0
LINE
  5
13F9E
330
1A
100
AcDbEntity
  8
0
100
AcDbLine
 10
133.7961725350046
 20
424.9130426878178
 30
0.0
 11
133.5511725350048
 21
424.3180426878176
 31
0.0
  0
LINE
  5
13F9F
330
1A
100
AcDbEntity
  8
0
100
AcDbLine
 10
134.4961725350049
 20
424.9130426878178
 30
0.0
 11
134.4961725350049
 21
425.4730426878178
 31
0.0
  0
LINE
  5
13FA0
330
1A
100
AcDbEntity
  8
0
100
AcDbLine
 10
134.7411725350045
 20
424.3180426878176
 30
0.0
 11
134.4961725350049
 21
424.9130426878178
 31
0.0
  0
DIMENSION
  5
14209
330
1A
100
AcDbEntity
  8
MEASURE
100
AcDbDimension
  2
*D19
 10
291.146172535005
 20
45.34275284963974
 30
0.0
 11
207.1461725350059
 21
49.34275284963973
 31
0.0
 70
    32
 71
     5
 42
167.9999999999982
  3
AD-STANDARD
100
AcDbAlignedDimension
 13
123.1461725350068
 23
75.34275284963974
 33
0.0
 14
291.146172535005
 24
75.34275284963974
 34
0.0
100
AcDbRotatedDimension
1001
ACAD
1000
DSTYLE
1002
{
1070
    40
1040
2.0
1070
   140
1040
3.0
1002
}
  0
DIMENSION
  5
14216
330
1A
100
AcDbEntity
  8
MEASURE
100
AcDbDimension
  2
*D20
 10
663.6842006994758
 20
45.34275284963974
 30
0.0
 11
577.6842006994757
 21
49.34275284963973
 31
0.0
 70
    32
 71
     5
 42
172.0000000000001
  3
AD-STANDARD
100
AcDbAlignedDimension
 13
491.6842006994756
 23
75.34275284963974
 33
0.0
 14
663.6842006994758
 24
75.34275284963974
 34
0.0
100
AcDbRotatedDimension
1001
ACAD
1000
DSTYLE
1002
{
1070
    40
1040
2.0
1070
   140
1040
3.0
1002
}
  0
DIMENSION
  5
14223
330
1A
100
AcDbEntity
  8
MEASURE
100
AcDbDimension
  2
*D21
 10
514.8857661639929
 20
457.5328442387008
 30
0.0
 11
510.8857661639929
 21
374.5328442387009
 31
0.0
 70
    32
 71
     5
 42
166.0
  3
AD-STANDARD
100
AcDbAlignedDimension
 13
484.885766163993
 23
291.5328442387008
 33
0.0
 14
484.8857661639955
 24
457.5328442387008
 34
0.0
 50
90.0
100
AcDbRotatedDimension
1001
ACAD
1000
DSTYLE
1002
{
1070
    40
1040
2.0
1070
   140
1040
3.0
1002
}
  0
DIMENSION
  5
14230
330
1A
100
AcDbEntity
  8
MEASURE
100
AcDbDimension
  2
*D22
 10
514.8857661639929
 20
252.5328442387005
 30
0.0
 11
510.8857661639929
 21
272.0328442387008
 31
0.0
 70
    32
 71
     5
 42
39.00000000000029
  3
AD-STANDARD
100
AcDbAlignedDimension
 13
484.885766163993
 23
291.5328442387008
 33
0.0
 14
462.3857661639968
 24
252.5328442387005
 34
0.0
 50
90.0
100
AcDbRotatedDimension
1001
ACAD
1000
DSTYLE
1002
{
1070
    40
1040
2.0
1070
   140
1040
3.0
1002
}
  0
DIMENSION
  5
1423D
330
1A
100
AcDbEntity
  8
MEASURE
100
AcDbDimension
  2
*D23
 10
514.8857661639929
 20
487.5328442386998
 30
0.0
 11
510.8857661639929
 21
472.5328442387004
 31
0.0
 70
    32
 71
     5
 42
29.99999999999904
  3
AD-STANDARD
100
AcDbAlignedDimension
 13
484.8857661639955
 23
457.5328442387008
 33
0.0
 14
440.885766163994
 24
487.5328442386998
 34
0.0
 50
90.0
100
AcDbRotatedDimension
1001
ACAD
1000
DSTYLE
1002
{
1070
    40
1040
2.0
1070
   140
1040
3.0
1002
}
  0
VIEWPORT
  5
22
102
{ACAD_XDICTIONARY
360
1438E
102
}
330
17
100
AcDbEntity
 67
     1
  8
0
100
AcDbViewport
 10
213.6302465671459
 20
150.6892081176126
 30
0.0
 40
475.8974325444832
 41
290.5187814951787
 68
     1
 69
     1
 12
213.6302465671459
 22
150.6892081176126
 13
0.0
 23
0.0
 14
1.0
 24
1.0
 15
10.0
 25
10.0
 16
0.0
 26
0.0
 36
1.0
 17
0.0
 27
0.0
 37
0.0
 42
50.0
 43
0.0
 44
0.0
 45
290.5187814951787
 50
0.0
 51
0.0
 72
   100
 90
    36864
  1

281
     0
 71
     1
 74
     0
110
0.0
120
0.0
130
0.0
111
1.0
121
0.0
131
0.0
112
0.0
122
1.0
132
0.0
 79
     0
146
0.0
  0
VIEWPORT
  5
2A3
102
{ACAD_XDICTIONARY
360
14390
102
}
330
17
100
AcDbEntity
 67
     1
  8
DEFPOINTS
100
AcDbViewport
 10
213.6286142598918
 20
150.6832721663145
 30
0.0
 40
411.5060011724899
 41
288.6544387265435
 68
     2
 69
     2
 12
366.66871906103
 22
293.8080012027731
 13
0.0
 23
0.0
 14
168.0
 24
168.0
 15
0.0
 25
0.0
 16
0.0
 26
0.0
 36
1.0
 17
0.0
 27
0.0
 37
0.0
 42
50.0
 43
0.0
 44
0.0
 45
509.5527397167075
 50
0.0
 51
0.0
 72
   100
 90
    36864
  1

281
     0
 71
     1
 74
     0
110
0.0
120
0.0
130
0.0
111
1.0
121
0.0
131
0.0
112
0.0
122
1.0
132
0.0
 79
     0
146
0.0
  0
ENDSEC
  0
SECTION
  2
OBJECTS
  0
DICTIONARY
  5
C
330
0
100
AcDbDictionary
281
     1
  3
ACAD_COLOR
350
12356
  3
ACAD_GROUP
350
D
  3
ACAD_LAYOUT
350
12359
  3
ACAD_MATERIAL
350
12355
  3
ACAD_MLEADERSTYLE
350
141FA
  3
ACAD_MLINESTYLE
350
E
  3
ACAD_PLOTSETTINGS
350
1235A
  3
ACAD_PLOTSTYLENAME
350
12353
  3
ACAD_SCALELIST
350
141D8
  3
ACAD_TABLESTYLE
350
12357
  3
ACAD_VISUALSTYLE
350
141C7
  3
ACDB_RECOMPOSE_DATA
350
1438C
  3
AcDbVariableDictionary
350
12364
  3
DWGPROPS
350
1438D
  0
DICTIONARY
  5
12369
330
2
100
AcDbDictionary
280
     1
281
     1
  3
ACAD_LAYERSTATES
360
1236A
  0
DICTIONARY
  5
14382
330
F
100
AcDbDictionary
280
     1
281
     1
  3
ADSK_XREC_LAYER_RECONCILED
360
14383
  0
DICTIONARY
  5
14384
330
71
100
AcDbDictionary
280
     1
281
     1
  3
ADSK_XREC_LAYER_RECONCILED
360
14385
  0
DICTIONARY
  5
13F76
330
1A
100
AcDbDictionary
280
     1
281
     1
  3
ACAD_SORTENTS
360
13F77
  0
DICTIONARY
  5
1438E
330
22
100
AcDbDictionary
280
     1
281
     1
  3
ACAD_XREC_ROUNDTRIP
360
1438F
  0
DICTIONARY
  5
14390
330
2A3
100
AcDbDictionary
280
     1
281
     1
  3
ACAD_XREC_ROUNDTRIP
360
14391
  0
DICTIONARY
  5
12356
102
{ACAD_REACTORS
330
C
102
}
330
C
100
AcDbDictionary
281
     1
  0
DICTIONARY
  5
D
102
{ACAD_REACTORS
330
C
102
}
330
C
100
AcDbDictionary
281
     1
  0
DICTIONARY
  5
12359
102
{ACAD_REACTORS
330
C
102
}
330
C
100
AcDbDictionary
281
     1
  3
Model
350
1235B
  3
レイアウト1
350
1235C
  0
DICTIONARY
  5
12355
102
{ACAD_REACTORS
330
C
102
}
330
C
100
AcDbDictionary
281
     1
  3
ByBlock
350
141BF
  3
ByLayer
350
141B7
  3
Global
350
12409
  0
DICTIONARY
  5
141FA
102
{ACAD_REACTORS
330
C
102
}
330
C
100
AcDbDictionary
281
     1
  3
Standard
350
141FB
  0
DICTIONARY
  5
E
102
{ACAD_REACTORS
330
C
102
}
330
C
100
AcDbDictionary
281
     1
  3
STANDARD
350
13
  0
DICTIONARY
  5
1235A
102
{ACAD_REACTORS
330
C
102
}
330
C
100
AcDbDictionary
281
     1
  0
ACDBDICTIONARYWDFLT
  5
12353
102
{ACAD_REACTORS
330
C
102
}
330
C
100
AcDbDictionary
281
     1
  3
Normal
350
12354
100
AcDbDictionaryWithDefault
340
12354
  0
DICTIONARY
  5
141D8
102
{ACAD_REACTORS
330
C
102
}
330
C
100
AcDbDictionary
281
     1
  3
A0
350
141D9
  3
A1
350
141DA
  3
A2
350
141DB
  3
A3
350
141DC
  3
A4
350
141DD
  3
A5
350
141DE
  3
A6
350
141DF
  3
A7
350
141E0
  3
A8
350
141E1
  3
A9
350
141E2
  3
B0
350
141E3
  3
B1
350
141E4
  3
B2
350
141E5
  3
B3
350
141E6
  3
B4
350
141E7
  3
B5
350
141E8
  3
B6
350
141E9
  3
B7
350
141EA
  3
B8
350
141EB
  3
B9
350
141EC
  3
C0
350
141ED
  3
C1
350
141EE
  3
C2
350
141EF
  3
C3
350
141F0
  3
C4
350
141F1
  3
C5
350
141F2
  3
C6
350
141F3
  3
C7
350
141F4
  3
C8
350
141F5
  3
C9
350
141F6
  3
D0
350
141F7
  3
D1
350
141F8
  3
D2
350
141F9
  0
DICTIONARY
  5
12357
102
{ACAD_REACTORS
330
C
102
}
330
C
100
AcDbDictionary
281
     1
  3
Standard
350
12358
  0
DICTIONARY
  5
141C7
102
{ACAD_REACTORS
330
C
102
}
330
C
100
AcDbDictionary
281
     1
  3
2dWireframe
350
141CD
  3
3D Hidden
350
141CF
  3
3dWireframe
350
141CE
  3
Basic
350
141CC
  3
Brighten
350
141D3
  3
ColorChange
350
141D7
  3
Conceptual
350
141D0
  3
Dim
350
141D2
  3
Facepattern
350
141D6
  3
Flat
350
141C8
  3
FlatWithEdges
350
141C9
  3
Gouraud
350
141CA
  3
GouraudWithEdges
350
141CB
  3
Linepattern
350
141D5
  3
Realistic
350
141D1
  3
Thicken
350
141D4
  0
XRECORD
  5
1438C
102
{ACAD_REACTORS
330
C
102
}
330
C
100
AcDbXrecord
280
     1
 90
        1
330
12358
  0
DICTIONARY
  5
12364
102
{ACAD_REACTORS
330
C
102
}
330
C
100
AcDbDictionary
281
     1
  3
CANNOSCALE
350
14387
  3
CMLEADERSTYLE
350
14386
  3
CTABLESTYLE
350
12365
  3
DIMASSOC
350
123D2
  3
INDEXCTL
350
14389
  3
PROJECTNAME
350
123D3
  3
SORTENTS
350
14388
  0
XRECORD
  5
1438D
102
{ACAD_REACTORS
330
C
102
}
330
C
100
AcDbXrecord
280
     1
  1
DWGPROPS COOKIE
  2

  3

  4

  6

  7

  8
KOIKE-1345
  9

300
=
301
=
302
=
303
=
304
=
305
=
306
=
307
=
308
=
309
=
 40
0.4603150694444445
 41
2450771.44966169
 42
2459612.517948392
  1

 90
        0
  0
DICTIONARY
  5
1236A
102
{ACAD_REACTORS
330
12369
102
}
330
12369
100
AcDbDictionary
281
     1
  0
XRECORD
  5
14383
102
{ACAD_REACTORS
330
14382
102
}
330
14382
100
AcDbXrecord
280
     1
290
     1
  0
XRECORD
  5
14385
102
{ACAD_REACTORS
330
14384
102
}
330
14384
100
AcDbXrecord
280
     1
290
     1
  0
SORTENTSTABLE
  5
13F77
102
{ACAD_REACTORS
330
13F76
102
}
330
13F76
100
AcDbSortentsTable
330
1A
331
139FD
  5
13F86
331
139DE
  5
13A0A
331
13F8B
  5
13F64
331
3ADF
  5
3ADF
331
13F64
  5
139EE
331
10760
  5
10760
331
11C70
  5
11C70
331
11C8F
  5
11C8F
331
11C3A
  5
11C3A
331
11C59
  5
11C59
331
11BE5
  5
11BE5
331
11BFC
  5
11BFC
331
11BA7
  5
11BA7
331
11BC6
  5
11BC6
331
11AC8
  5
11AC8
331
11C1B
  5
11C1B
331
13F70
  5
139FC
331
139DF
  5
13A0B
331
139FE
  5
13F87
331
13F65
  5
139EF
331
13F8C
  5
139C0
331
10790
  5
10790
331
10761
  5
10761
331
11C90
  5
11C90
331
11BFD
  5
11BFD
331
11C1C
  5
11C1C
331
11BC7
  5
11BC7
331
11BE6
  5
11BE6
331
11AC9
  5
11AC9
331
11BA8
  5
11BA8
331
11C3B
  5
11C3B
331
139FF
  5
13F88
331
12212
  5
12212
331
13F71
  5
139FD
331
139E0
  5
13A0C
331
13F8D
  5
139D7
331
13F66
  5
139F0
331
10791
  5
10791
331
11F47
  5
11F47
331
11C3C
  5
11C3C
331
11BE7
  5
11BE7
331
11BFE
  5
11BFE
331
11BA9
  5
11BA9
331
11BC8
  5
11BC8
331
11C1D
  5
11C1D
331
13F72
  5
139FE
331
139E1
  5
13A20
331
13A00
  5
13F89
331
13F67
  5
139F1
331
13F8E
  5
139D8
331
10792
  5
10792
331
107C1
  5
107C1
331
11BFF
  5
11BFF
331
11C1E
  5
11C1E
331
11BC9
  5
11BC9
331
11BE8
  5
11BE8
331
11ACB
  5
11ACB
331
11BAA
  5
11BAA
331
11C3D
  5
11C3D
331
11F48
  5
11F48
331
13A01
  5
13F8A
331
12018
  5
12018
331
13F73
  5
139FF
331
139E2
  5
13A3D
331
13F8F
  5
139D9
331
13F68
  5
139F2
331
107C2
  5
107C2
331
10793
  5
10793
331
10888
  5
10888
331
11C74
  5
11C74
331
11C1F
  5
11C1F
331
11C3E
  5
11C3E
331
11F49
  5
11F49
331
11BE9
  5
11BE9
331
11C00
  5
11C00
331
11BAB
  5
11BAB
331
11BCA
  5
11BCA
331
11ACC
  5
11ACC
331
13F74
  5
13A00
331
13A02
  5
13F8B
331
13F69
  5
139F3
331
13F90
  5
139DA
331
10889
  5
10889
331
108A8
  5
108A8
331
10794
  5
10794
331
10852
  5
10852
331
11F4A
  5
11F4A
331
11C75
  5
11C75
331
11C01
  5
11C01
331
11C20
  5
11C20
331
11BCB
  5
11BCB
331
11BEA
  5
11BEA
331
11ACD
  5
11ACD
331
11BAC
  5
11BAC
331
11C3F
  5
11C3F
331
13A03
  5
13F8C
331
13F75
  5
13A01
331
10385
  5
10385
331
13F91
  5
139DB
331
BEF5
  5
BEF5
331
13F6A
  5
139F4
331
10853
  5
10853
331
10795
  5
10795
331
1088A
  5
1088A
331
12387
  5
12387
331
11C76
  5
11C76
331
11C21
  5
11C21
331
11C40
  5
11C40
331
11BEB
  5
11BEB
331
11C02
  5
11C02
331
11ACE
  5
11ACE
331
11BAD
  5
11BAD
331
11BCC
  5
11BCC
331
11F92
  5
11F92
331
121F8
  5
121F8
331
139E5
  5
13F6A
331
13A04
  5
13F8D
331
10386
  5
10386
331
13F6B
  5
139F5
331
13F92
  5
139DC
331
10854
  5
10854
331
1088B
  5
1088B
331
10796
  5
10796
331
107C5
  5
107C5
331
12388
  5
12388
331
11F93
  5
11F93
331
11C41
  5
11C41
331
11C03
  5
11C03
331
11C22
  5
11C22
331
11BCD
  5
11BCD
331
11BEC
  5
11BEC
331
11C77
  5
11C77
331
11ACF
  5
11ACF
331
11BAE
  5
11BAE
331
139E6
  5
13F6B
331
13A05
  5
13F8E
331
13A20
  5
13F9E
331
13F6C
  5
139F6
331
13F93
  5
139DD
331
107C6
  5
107C6
331
10797
  5
10797
331
1088C
  5
1088C
331
12389
  5
12389
331
11F94
  5
11F94
331
11C42
  5
11C42
331
11BED
  5
11BED
331
11C04
  5
11C04
331
11BAF
  5
11BAF
331
11BCE
  5
11BCE
331
13A06
  5
13F8F
331
139C0
  5
13A02
331
139E7
  5
13F6C
331
10414
  5
10414
331
13F6D
  5
139F7
331
13F94
  5
139DE
331
10923
  5
10923
331
10856
  5
10856
331
10798
  5
10798
331
107C7
  5
107C7
331
108AC
  5
108AC
331
1238A
  5
1238A
331
11F95
  5
11F95
331
11C43
  5
11C43
331
11C62
  5
11C62
331
11C05
  5
11C05
331
11C24
  5
11C24
331
11BB0
  5
11BB0
331
11BCF
  5
11BCF
331
11AD1
  5
11AD1
331
11BEE
  5
11BEE
331
11C79
  5
11C79
331
139E8
  5
13F6D
331
13A07
  5
13F90
331
10444
  5
10444
331
10415
  5
10415
331
13F6E
  5
139FA
331
13F95
  5
139DF
331
1088E
  5
1088E
331
107C8
  5
107C8
331
10857
  5
10857
331
10799
  5
10799
331
10924
  5
10924
331
1238B
  5
1238B
331
11F96
  5
11F96
331
11C63
  5
11C63
331
11C7A
  5
11C7A
331
11C25
  5
11C25
331
11C44
  5
11C44
331
11BEF
  5
11BEF
331
11C06
  5
11C06
331
11AD2
  5
11AD2
331
11BB1
  5
11BB1
331
11BD0
  5
11BD0
331
13A08
  5
13F91
331
139E9
  5
13F6E
331
10416
  5
10416
331
13F96
  5
139E0
331
13F6F
  5
139FB
331
10925
  5
10925
331
10858
  5
10858
331
1088F
  5
1088F
331
1079A
  5
1079A
331
107C9
  5
107C9
331
10773
  5
10773
331
108AE
  5
108AE
331
11F97
  5
11F97
331
11C45
  5
11C45
331
11C64
  5
11C64
331
11C07
  5
11C07
331
11BB2
  5
11BB2
331
11BD1
  5
11BD1
331
11AD3
  5
11AD3
331
11C26
  5
11C26
331
11C7B
  5
11C7B
331
139EA
  5
13F71
331
12008
  5
12008
331
103C9
  5
103C9
331
13F97
  5
139E1
331
10890
  5
10890
331
108AF
  5
108AF
331
107CA
  5
107CA
331
10859
  5
10859
331
10774
  5
10774
331
1079B
  5
1079B
331
10926
  5
10926
331
11F98
  5
11F98
331
11C65
  5
11C65
331
11C7C
  5
11C7C
331
11BD2
  5
11BD2
331
11C27
  5
11C27
331
11AD4
  5
11AD4
331
11BB3
  5
11BB3
331
11C46
  5
11C46
331
139EB
  5
13F72
331
12009
  5
12009
331
103CA
  5
103CA
331
11988
  5
11988
331
108B0
  5
108B0
331
10927
  5
10927
331
1085A
  5
1085A
331
10891
  5
10891
331
10775
  5
10775
331
11F99
  5
11F99
331
11C7D
  5
11C7D
331
11C47
  5
11C47
331
11C66
  5
11C66
331
11C09
  5
11C09
331
11BB4
  5
11BB4
331
11BD3
  5
11BD3
331
11AD5
  5
11AD5
331
11C28
  5
11C28
331
1200A
  5
1200A
331
139EC
  5
13F73
331
13A0B
  5
13F9C
331
119A8
  5
119A8
331
10892
  5
10892
331
10776
  5
10776
331
1085B
  5
1085B
331
11989
  5
11989
331
11F9A
  5
11F9A
331
11C67
  5
11C67
331
11C29
  5
11C29
331
11BD4
  5
11BD4
331
11BB5
  5
11BB5
331
11C0A
  5
11C0A
331
13A0C
  5
13F9D
331
139ED
  5
13F74
331
1038E
  5
1038E
331
119C8
  5
119C8
331
1198A
  5
1198A
331
119A9
  5
119A9
331
1085C
  5
1085C
331
10893
  5
10893
331
11F7C
  5
11F7C
331
11F9B
  5
11F9B
331
11C7F
  5
11C7F
331
11C0B
  5
11C0B
331
11BB6
  5
11BB6
331
11BD5
  5
11BD5
331
11AD7
  5
11AD7
331
11C2A
  5
11C2A
331
139EE
  5
13F75
331
1038F
  5
1038F
331
119AA
  5
119AA
331
119C9
  5
119C9
331
1092A
  5
1092A
331
10894
  5
10894
331
10778
  5
10778
331
1085D
  5
1085D
331
1198B
  5
1198B
331
11F9C
  5
11F9C
331
11C2B
  5
11C2B
331
11C80
  5
11C80
331
11F7D
  5
11F7D
331
11BD6
  5
11BD6
331
11BB7
  5
11BB7
331
11C0C
  5
11C0C
331
139EF
  5
13F78
331
119CA
  5
119CA
331
1198C
  5
1198C
331
119AB
  5
119AB
331
1092B
  5
1092B
331
1085E
  5
1085E
331
10895
  5
10895
331
139BA
  5
139BA
331
11F7E
  5
11F7E
331
11F9D
  5
11F9D
331
11C4B
  5
11C4B
331
11C0D
  5
11C0D
331
11BD7
  5
11BD7
331
11C2C
  5
11C2C
331
139F0
  5
13F79
331
1041D
  5
1041D
331
119AC
  5
119AC
331
119CB
  5
119CB
331
107D0
  5
107D0
331
1085F
  5
1085F
331
1198D
  5
1198D
331
139BB
  5
139BB
331
11F9E
  5
11F9E
331
11C0E
  5
11C0E
331
11C2D
  5
11C2D
331
11C4C
  5
11C4C
331
11F7F
  5
11F7F
331
12027
  5
12027
331
139F1
  5
13F7A
331
10373
  5
10373
331
1041E
  5
1041E
331
119CC
  5
119CC
331
1198E
  5
1198E
331
119AD
  5
119AD
331
107D1
  5
107D1
331
139BC
  5
139BC
331
11C83
  5
11C83
331
11C4D
  5
11C4D
331
11F9F
  5
11F9F
331
11C0F
  5
11C0F
331
11C2E
  5
11C2E
331
139F2
  5
13F7B
331
12205
  5
12205
331
103D1
  5
103D1
331
10393
  5
10393
331
1198F
  5
1198F
331
119AE
  5
119AE
331
1092E
  5
1092E
331
107A3
  5
107A3
331
10898
  5
10898
331
119CD
  5
119CD
331
139BD
  5
139BD
331
11FA0
  5
11FA0
331
11D73
  5
11D73
331
11C2F
  5
11C2F
331
11C4E
  5
11C4E
331
13A3D
  5
13F9F
331
121E8
  5
121E8
331
139F3
  5
13F7C
331
103D2
  5
103D2
331
119CE
  5
119CE
331
11990
  5
11990
331
108C8
  5
108C8
331
107A4
  5
107A4
331
10899
  5
10899
331
119AF
  5
119AF
331
12007
  5
12007
331
11C85
  5
11C85
331
11C4F
  5
11C4F
331
11D74
  5
11D74
331
11FA1
  5
11FA1
331
121E9
  5
121E9
331
139F4
  5
13F7D
331
103D3
  5
103D3
331
11991
  5
11991
331
119B0
  5
119B0
331
1089A
  5
1089A
331
107A5
  5
107A5
331
107D4
  5
107D4
331
108C9
  5
108C9
331
119CF
  5
119CF
331
139F5
  5
13F7E
331
103D4
  5
103D4
331
119B1
  5
119B1
331
119D0
  5
119D0
331
11992
  5
11992
331
108CA
  5
108CA
331
1089B
  5
1089B
331
12220
  5
12220
331
12034
  5
12034
331
139D7
  5
13A03
331
139F6
  5
13F7F
331
10433
  5
10433
331
103D5
  5
103D5
331
11993
  5
11993
331
119B2
  5
119B2
331
10885
  5
10885
331
107D6
  5
107D6
331
108CB
  5
108CB
331
119D1
  5
119D1
331
11D77
  5
11D77
331
139F7
  5
13F80
331
119B3
  5
119B3
331
119D2
  5
119D2
331
11994
  5
11994
331
108CC
  5
108CC
331
107D7
  5
107D7
331
10886
  5
10886
331
107A8
  5
107A8
331
1089D
  5
1089D
331
10591
  5
10591
331
11995
  5
11995
331
119B4
  5
119B4
331
10887
  5
10887
331
1089E
  5
1089E
331
107A9
  5
107A9
331
107D8
  5
107D8
331
10600
  5
10600
331
10592
  5
10592
331
1037B
  5
1037B
331
119B5
  5
119B5
331
11996
  5
11996
331
107D9
  5
107D9
331
1078B
  5
1078B
331
107AA
  5
107AA
331
10601
  5
10601
331
10593
  5
10593
331
119D5
  5
119D5
331
11997
  5
11997
331
119B6
  5
119B6
331
107DA
  5
107DA
331
1078C
  5
1078C
331
108CF
  5
108CF
331
10602
  5
10602
331
1037D
  5
1037D
331
119B7
  5
119B7
331
11998
  5
11998
331
108A1
  5
108A1
331
107DB
  5
107DB
331
1078D
  5
1078D
331
108D0
  5
108D0
331
10603
  5
10603
331
105B4
  5
105B4
331
11999
  5
11999
331
119B8
  5
119B8
331
108A2
  5
108A2
331
107DC
  5
107DC
331
1078E
  5
1078E
331
1069B
  5
1069B
331
10604
  5
10604
331
10596
  5
10596
331
1040B
  5
1040B
331
119B9
  5
119B9
331
119D8
  5
119D8
331
1199A
  5
1199A
331
108A3
  5
108A3
331
107DD
  5
107DD
331
1078F
  5
1078F
331
108D2
  5
108D2
331
10597
  5
10597
331
1069C
  5
1069C
331
10729
  5
10729
331
1040C
  5
1040C
331
1043B
  5
1043B
331
1199B
  5
1199B
331
108A4
  5
108A4
331
119BA
  5
119BA
331
107DE
  5
107DE
331
1069D
  5
1069D
331
106CC
  5
106CC
331
10749
  5
10749
331
10598
  5
10598
331
1040D
  5
1040D
331
119BB
  5
119BB
331
108A5
  5
108A5
331
107DF
  5
107DF
331
1199C
  5
1199C
331
1074A
  5
1074A
331
106CD
  5
106CD
331
1070C
  5
1070C
331
10599
  5
10599
331
1069E
  5
1069E
331
1072B
  5
1072B
331
1040E
  5
1040E
331
1199D
  5
1199D
331
108A6
  5
108A6
331
119BC
  5
119BC
331
1069F
  5
1069F
331
106CE
  5
106CE
331
10620
  5
10620
331
1074B
  5
1074B
331
1059A
  5
1059A
331
1043E
  5
1043E
331
119BD
  5
119BD
331
1197F
  5
1197F
331
108A7
  5
108A7
331
1199E
  5
1199E
331
106CF
  5
106CF
331
10621
  5
10621
331
1059B
  5
1059B
331
106A0
  5
106A0
331
1072D
  5
1072D
331
1043F
  5
1043F
331
11980
  5
11980
331
1199F
  5
1199F
331
119BE
  5
119BE
331
1070F
  5
1070F
331
10622
  5
10622
331
1074D
  5
1074D
331
119A0
  5
119A0
331
119BF
  5
119BF
331
11981
  5
11981
331
1072F
  5
1072F
331
1074E
  5
1074E
331
10710
  5
10710
331
10623
  5
10623
331
106A2
  5
106A2
331
11982
  5
11982
331
119A1
  5
119A1
331
119C0
  5
119C0
331
10711
  5
10711
331
106A3
  5
106A3
331
106EA
  5
106EA
331
1059E
  5
1059E
331
10624
  5
10624
331
1074F
  5
1074F
331
119A2
  5
119A2
331
119C1
  5
119C1
331
11983
  5
11983
331
10750
  5
10750
331
106EB
  5
106EB
331
10712
  5
10712
331
1059F
  5
1059F
331
106A4
  5
106A4
331
119C2
  5
119C2
331
11984
  5
11984
331
119A3
  5
119A3
331
10713
  5
10713
331
106A5
  5
106A5
331
105A0
  5
105A0
331
105C7
  5
105C7
331
10732
  5
10732
331
119A4
  5
119A4
331
119C3
  5
119C3
331
11985
  5
11985
331
10752
  5
10752
331
105C8
  5
105C8
331
106ED
  5
106ED
331
105A1
  5
105A1
331
10714
  5
10714
331
119C4
  5
119C4
331
11986
  5
11986
331
119A5
  5
119A5
331
10753
  5
10753
331
105C9
  5
105C9
331
10734
  5
10734
331
119A6
  5
119A6
331
119C5
  5
119C5
331
11987
  5
11987
331
10735
  5
10735
331
105CA
  5
105CA
331
106B8
  5
106B8
331
119C6
  5
119C6
331
119A7
  5
119A7
331
106B9
  5
106B9
331
105CB
  5
105CB
331
13F78
  5
13F97
331
119C7
  5
119C7
331
10737
  5
10737
331
106F9
  5
106F9
331
13F98
  5
139E2
331
13F79
  5
13F98
331
10719
  5
10719
331
105CD
  5
105CD
331
10738
  5
10738
331
13F7A
  5
13F99
331
13F99
  5
139E3
331
10739
  5
10739
331
105CE
  5
105CE
331
1071A
  5
1071A
331
13F9A
  5
139E4
331
13F7B
  5
13F9A
331
106FC
  5
106FC
331
1071B
  5
1071B
331
105CF
  5
105CF
331
13F7C
  5
13F9B
331
13F9B
  5
139E5
331
1073B
  5
1073B
331
106FD
  5
106FD
331
105D0
  5
105D0
331
1068F
  5
1068F
331
1071C
  5
1071C
331
13F9C
  5
139E6
331
13F7D
  5
13F92
331
11BB8
  5
11BB8
331
106FE
  5
106FE
331
10690
  5
10690
331
1071D
  5
1071D
331
105AA
  5
105AA
331
105D1
  5
105D1
331
13F7E
  5
13F93
331
13F9D
  5
139E7
331
11BD8
  5
11BD8
331
11BB9
  5
11BB9
331
11ABB
  5
11ABB
331
1071E
  5
1071E
331
1073D
  5
1073D
331
106FF
  5
106FF
331
10691
  5
10691
331
105AB
  5
105AB
331
13F9E
  5
139E8
331
13F7F
  5
13F94
331
11BF0
  5
11BF0
331
11BBA
  5
11BBA
331
11ABC
  5
11ABC
331
11BD9
  5
11BD9
331
10700
  5
10700
331
10692
  5
10692
331
105AC
  5
105AC
331
1071F
  5
1071F
331
1073E
  5
1073E
331
13F80
  5
13F95
331
13F9F
  5
139E9
331
11C10
  5
11C10
331
11BDA
  5
11BDA
331
11BF1
  5
11BF1
331
11ABD
  5
11ABD
331
11BBB
  5
11BBB
331
10720
  5
10720
331
1073F
  5
1073F
331
10701
  5
10701
331
105AD
  5
105AD
331
10693
  5
10693
331
13FA0
  5
139EA
331
13F81
  5
13F96
331
11C30
  5
11C30
331
11C11
  5
11C11
331
11BBC
  5
11BBC
331
11ABE
  5
11ABE
331
11BDB
  5
11BDB
331
10740
  5
10740
331
10702
  5
10702
331
1075F
  5
1075F
331
105D5
  5
105D5
331
13F82
  5
13F65
331
11C12
  5
11C12
331
11C31
  5
11C31
331
11ABF
  5
11ABF
331
11B9E
  5
11B9E
331
11BBD
  5
11BBD
331
11C50
  5
11C50
331
105D6
  5
105D6
331
10703
  5
10703
331
13F83
  5
13F66
331
11C32
  5
11C32
331
11C51
  5
11C51
331
11BF4
  5
11BF4
331
11C13
  5
11C13
331
11B9F
  5
11B9F
331
11BBE
  5
11BBE
331
11AC0
  5
11AC0
331
11BDD
  5
11BDD
331
10742
  5
10742
331
10704
  5
10704
331
13F84
  5
13F67
331
11C52
  5
11C52
331
11C69
  5
11C69
331
11C14
  5
11C14
331
11C33
  5
11C33
331
11BDE
  5
11BDE
331
11BF5
  5
11BF5
331
11C88
  5
11C88
331
11AC1
  5
11AC1
331
11BA0
  5
11BA0
331
11BBF
  5
11BBF
331
10743
  5
10743
331
139D8
  5
13A04
331
13F85
  5
13F68
331
11C89
  5
11C89
331
11D78
  5
11D78
331
11C34
  5
11C34
331
11C53
  5
11C53
331
11BF6
  5
11BF6
331
11C15
  5
11C15
331
11BA1
  5
11BA1
331
11BC0
  5
11BC0
331
11AC2
  5
11AC2
331
11BDF
  5
11BDF
331
11C6A
  5
11C6A
331
10744
  5
10744
331
10706
  5
10706
331
139D9
  5
13A05
331
139F8
  5
13F81
331
13F86
  5
13F69
331
11D79
  5
11D79
331
11C54
  5
11C54
331
11C16
  5
11C16
331
11C35
  5
11C35
331
11BC1
  5
11BC1
331
11BE0
  5
11BE0
331
11AC3
  5
11AC3
331
11BA2
  5
11BA2
331
11BF7
  5
11BF7
331
11C8A
  5
11C8A
331
10745
  5
10745
331
139F9
  5
13F82
331
139DA
  5
13A06
331
13F87
  5
13ACB
331
11F80
  5
11F80
331
11C6C
  5
11C6C
331
11C8B
  5
11C8B
331
11C36
  5
11C36
331
11C55
  5
11C55
331
11BF8
  5
11BF8
331
11C17
  5
11C17
331
11D7A
  5
11D7A
331
11BC2
  5
11BC2
331
11BE1
  5
11BE1
331
10746
  5
10746
331
139DB
  5
13A07
331
139FA
  5
13F83
331
13F61
  5
139EB
331
13F88
  5
13F61
331
11F81
  5
11F81
331
11D7B
  5
11D7B
331
11C56
  5
11C56
331
11C18
  5
11C18
331
11C37
  5
11C37
331
11BC3
  5
11BC3
331
11BE2
  5
11BE2
331
11BA4
  5
11BA4
331
11BF9
  5
11BF9
331
11C8C
  5
11C8C
331
10747
  5
10747
331
139FB
  5
13F84
331
139DC
  5
13A08
331
13F89
  5
13F62
331
13F62
  5
139EC
331
11F82
  5
11F82
331
11C8D
  5
11C8D
331
11C38
  5
11C38
331
11C57
  5
11C57
331
11BE3
  5
11BE3
331
11BFA
  5
11BFA
331
11BA5
  5
11BA5
331
11BC4
  5
11BC4
331
11AC6
  5
11AC6
331
11C19
  5
11C19
331
11D7C
  5
11D7C
331
11FFB
  5
11FFB
331
139DD
  5
13A09
331
139FC
  5
13F85
331
13F63
  5
139ED
331
13F8A
  5
13F63
331
11C8E
  5
11C8E
331
11F83
  5
11F83
331
11C58
  5
11C58
331
11C6F
  5
11C6F
331
11C1A
  5
11C1A
331
11C39
  5
11C39
331
11BC5
  5
11BC5
331
11BE4
  5
11BE4
331
11AC7
  5
11AC7
331
11BA6
  5
11BA6
331
11BFB
  5
11BFB
  0
XRECORD
  5
1438F
102
{ACAD_REACTORS
330
1438E
102
}
330
1438E
100
AcDbXrecord
280
     1
102
SHADEPLOT
 70
     0
  0
XRECORD
  5
14391
102
{ACAD_REACTORS
330
14390
102
}
330
14390
100
AcDbXrecord
280
     1
102
SHADEPLOT
 70
     0
  0
LAYOUT
  5
1235B
102
{ACAD_XDICTIONARY
360
14393
102
}
102
{ACAD_REACTORS
330
12359
102
}
330
12359
100
AcDbPlotSettings
  1

  2
HP Designjet 500 plus 24
  4

  6

 40
0.0
 41
0.0
 42
0.0
 43
0.0
 44
0.0
 45
0.0
 46
0.0
 47
0.0
 48
0.0
 49
0.0
140
0.0
141
0.0
142
1.0
143
1.0
 70
  1712
 72
     0
 73
     0
 74
     0
  7

 75
     0
147
1.0
148
0.0
149
0.0
100
AcDbLayout
  1
Model
 70
     1
 71
     0
 10
0.0
 20
0.0
 11
12.0
 21
9.0
 12
0.0
 22
0.0
 32
0.0
 14
0.0
 24
0.0
 34
0.0
 15
0.0
 25
0.0
 35
0.0
146
0.0
 13
0.0
 23
0.0
 33
0.0
 16
1.0
 26
0.0
 36
0.0
 17
0.0
 27
1.0
 37
0.0
 76
     0
330
1A
331
141A1
  0
LAYOUT
  5
1235C
102
{ACAD_XDICTIONARY
360
1236C
102
}
102
{ACAD_REACTORS
330
12359
102
}
330
12359
100
AcDbPlotSettings
  1

  2
Adobe PDF
  4
A3
  6

 40
3.174999952316283
 41
3.174999952316283
 42
3.17498779296875
 43
3.17498779296875
 44
297.0318298339844
 45
420.1583251953125
 46
0.0
 47
0.0
 48
0.0
 49
0.0
140
0.0
141
0.0
142
1.0
143
1.0
 70
   688
 72
     1
 73
     1
 74
     5
  7
monochrome.ctb
 75
    16
147
1.0
148
-7.864042323644865
149
-6.334077725395218
100
AcDbLayout
  1
レイアウト1
 70
     1
 71
     1
 10
4.689054530676115
 20
3.159077773078933
 11
424.8473797259886
 21
300.1909076070633
 12
0.0
 22
0.0
 32
0.0
 14
7.849731390318197
 24
6.345317731877798
 34
-0.0015258207003583
 15
419.4107617439737
 25
295.0330985033474
 35
0.0000000349246037
146
0.0
 13
0.0
 23
0.0
 33
0.0
 16
1.0
 26
0.0
 36
0.0
 17
0.0
 27
1.0
 37
0.0
 76
     0
330
17
331
22
1001
ACAD_PSEXT
1000
Adobe PDF
1000
Adobe PDF Converter
1000
Desktop
1000

1070
     0
  0
MATERIAL
  5
141BF
102
{ACAD_XDICTIONARY
360
141C0
102
}
102
{ACAD_REACTORS
330
12355
102
}
330
12355
100
AcDbMaterial
  1
ByBlock
 72
     0
 43
0.0208333333333333
 43
0.0
 43
0.0
 43
0.0
 43
0.0
 43
0.0208333333333333
 43
0.0
 43
0.0
 43
0.0
 43
0.0
 43
1.0
 43
0.0
 43
0.0
 43
0.0
 43
0.0
 43
1.0
 77
     0
 47
0.0208333333333333
 47
0.0
 47
0.0
 47
0.0
 47
0.0
 47
0.0208333333333333
 47
0.0
 47
0.0
 47
0.0
 47
0.0
 47
1.0
 47
0.0
 47
0.0
 47
0.0
 47
0.0
 47
1.0
171
     0
 49
0.0208333333333333
 49
0.0
 49
0.0
 49
0.0
 49
0.0
 49
0.0208333333333333
 49
0.0
 49
0.0
 49
0.0
 49
0.0
 49
1.0
 49
0.0
 49
0.0
 49
0.0
 49
0.0
 49
1.0
175
     0
142
0.0208333333333333
142
0.0
142
0.0
142
0.0
142
0.0
142
0.0208333333333333
142
0.0
142
0.0
142
0.0
142
0.0
142
1.0
142
0.0
142
0.0
142
0.0
142
0.0
142
1.0
179
     0
144
0.0208333333333333
144
0.0
144
0.0
144
0.0
144
0.0
144
0.0208333333333333
144
0.0
144
0.0
144
0.0
144
0.0
144
1.0
144
0.0
144
0.0
144
0.0
144
0.0
144
1.0
147
0.0208333333333333
147
0.0
147
0.0
147
0.0
147
0.0
147
0.0208333333333333
147
0.0
147
0.0
147
0.0
147
0.0
147
1.0
147
0.0
147
0.0
147
0.0
147
0.0
147
1.0
  0
MATERIAL
  5
141B7
102
{ACAD_XDICTIONARY
360
141B8
102
}
102
{ACAD_REACTORS
330
12355
102
}
330
12355
100
AcDbMaterial
  1
ByLayer
 72
     0
 43
0.0208333333333333
 43
0.0
 43
0.0
 43
0.0
 43
0.0
 43
0.0208333333333333
 43
0.0
 43
0.0
 43
0.0
 43
0.0
 43
1.0
 43
0.0
 43
0.0
 43
0.0
 43
0.0
 43
1.0
 77
     0
 47
0.0208333333333333
 47
0.0
 47
0.0
 47
0.0
 47
0.0
 47
0.0208333333333333
 47
0.0
 47
0.0
 47
0.0
 47
0.0
 47
1.0
 47
0.0
 47
0.0
 47
0.0
 47
0.0
 47
1.0
171
     0
 49
0.0208333333333333
 49
0.0
 49
0.0
 49
0.0
 49
0.0
 49
0.0208333333333333
 49
0.0
 49
0.0
 49
0.0
 49
0.0
 49
1.0
 49
0.0
 49
0.0
 49
0.0
 49
0.0
 49
1.0
175
     0
142
0.0208333333333333
142
0.0
142
0.0
142
0.0
142
0.0
142
0.0208333333333333
142
0.0
142
0.0
142
0.0
142
0.0
142
1.0
142
0.0
142
0.0
142
0.0
142
0.0
142
1.0
179
     0
144
0.0208333333333333
144
0.0
144
0.0
144
0.0
144
0.0
144
0.0208333333333333
144
0.0
144
0.0
144
0.0
144
0.0
144
1.0
144
0.0
144
0.0
144
0.0
144
0.0
144
1.0
147
0.0208333333333333
147
0.0
147
0.0
147
0.0
147
0.0
147
0.0208333333333333
147
0.0
147
0.0
147
0.0
147
0.0
147
1.0
147
0.0
147
0.0
147
0.0
147
0.0
147
1.0
  0
MATERIAL
  5
12409
102
{ACAD_XDICTIONARY
360
1240A
102
}
102
{ACAD_REACTORS
330
12355
102
}
330
12355
100
AcDbMaterial
  1
Global
  0
MLEADERSTYLE
  5
141FB
102
{ACAD_REACTORS
330
141FA
102
}
330
141FA
100
AcDbMLeaderStyle
170
     2
171
     1
172
     0
 90
        2
 40
0.0
 41
0.0
173
     1
 91
-1056964608
340
14
 92
       -2
290
     1
 42
2.0
291
     1
 43
0.36
  3
Standard
 44
4.0
300

342
10
174
     1
178
     6
175
     1
176
     0
 93
-1056964608
 45
4.0
292
     0
297
     0
 46
4.0
 94
-1056964608
 47
1.0
 49
1.0
140
1.0
293
     1
141
0.0
294
     1
177
     0
142
1.0
295
     0
296
     0
143
0.125
1001
ACAD_MLEADERVER
1070
     2
  0
MLINESTYLE
  5
13
102
{ACAD_REACTORS
330
E
102
}
330
E
100
AcDbMlineStyle
  2
STANDARD
 70
     0
  3

 62
     0
 51
90.0
 52
90.0
 71
     2
 49
0.5
 62
   256
  6
BYLAYER
 49
-0.5
 62
   256
  6
BYLAYER
  0
ACDBPLACEHOLDER
  5
12354
102
{ACAD_REACTORS
330
12353
102
}
330
12353
  0
SCALE
  5
141D9
102
{ACAD_REACTORS
330
141D8
102
}
330
141D8
100
AcDbScale
 70
     0
300
1:1
140
1.0
141
1.0
290
     1
  0
SCALE
  5
141DA
102
{ACAD_REACTORS
330
141D8
102
}
330
141D8
100
AcDbScale
 70
     0
300
1:2
140
1.0
141
2.0
290
     0
  0
SCALE
  5
141DB
102
{ACAD_REACTORS
330
141D8
102
}
330
141D8
100
AcDbScale
 70
     0
300
1:4
140
1.0
141
4.0
290
     0
  0
SCALE
  5
141DC
102
{ACAD_REACTORS
330
141D8
102
}
330
141D8
100
AcDbScale
 70
     0
300
1:5
140
1.0
141
5.0
290
     0
  0
SCALE
  5
141DD
102
{ACAD_REACTORS
330
141D8
102
}
330
141D8
100
AcDbScale
 70
     0
300
1:8
140
1.0
141
8.0
290
     0
  0
SCALE
  5
141DE
102
{ACAD_REACTORS
330
141D8
102
}
330
141D8
100
AcDbScale
 70
     0
300
1:10
140
1.0
141
10.0
290
     0
  0
SCALE
  5
141DF
102
{ACAD_REACTORS
330
141D8
102
}
330
141D8
100
AcDbScale
 70
     0
300
1:16
140
1.0
141
16.0
290
     0
  0
SCALE
  5
141E0
102
{ACAD_REACTORS
330
141D8
102
}
330
141D8
100
AcDbScale
 70
     0
300
1:20
140
1.0
141
20.0
290
     0
  0
SCALE
  5
141E1
102
{ACAD_REACTORS
330
141D8
102
}
330
141D8
100
AcDbScale
 70
     0
300
1:30
140
1.0
141
30.0
290
     0
  0
SCALE
  5
141E2
102
{ACAD_REACTORS
330
141D8
102
}
330
141D8
100
AcDbScale
 70
     0
300
1:40
140
1.0
141
40.0
290
     0
  0
SCALE
  5
141E3
102
{ACAD_REACTORS
330
141D8
102
}
330
141D8
100
AcDbScale
 70
     0
300
1:50
140
1.0
141
50.0
290
     0
  0
SCALE
  5
141E4
102
{ACAD_REACTORS
330
141D8
102
}
330
141D8
100
AcDbScale
 70
     0
300
1:100
140
1.0
141
100.0
290
     0
  0
SCALE
  5
141E5
102
{ACAD_REACTORS
330
141D8
102
}
330
141D8
100
AcDbScale
 70
     0
300
2:1
140
2.0
141
1.0
290
     0
  0
SCALE
  5
141E6
102
{ACAD_REACTORS
330
141D8
102
}
330
141D8
100
AcDbScale
 70
     0
300
4:1
140
4.0
141
1.0
290
     0
  0
SCALE
  5
141E7
102
{ACAD_REACTORS
330
141D8
102
}
330
141D8
100
AcDbScale
 70
     0
300
8:1
140
8.0
141
1.0
290
     0
  0
SCALE
  5
141E8
102
{ACAD_REACTORS
330
141D8
102
}
330
141D8
100
AcDbScale
 70
     0
300
10:1
140
10.0
141
1.0
290
     0
  0
SCALE
  5
141E9
102
{ACAD_REACTORS
330
141D8
102
}
330
141D8
100
AcDbScale
 70
     0
300
100:1
140
100.0
141
1.0
290
     0
  0
SCALE
  5
141EA
102
{ACAD_REACTORS
330
141D8
102
}
330
141D8
100
AcDbScale
 70
     0
300
1/128" = 1'-0"
140
0.0078125
141
12.0
290
     0
  0
SCALE
  5
141EB
102
{ACAD_REACTORS
330
141D8
102
}
330
141D8
100
AcDbScale
 70
     0
300
1/64" = 1'-0"
140
0.015625
141
12.0
290
     0
  0
SCALE
  5
141EC
102
{ACAD_REACTORS
330
141D8
102
}
330
141D8
100
AcDbScale
 70
     0
300
1/32" = 1'-0"
140
0.03125
141
12.0
290
     0
  0
SCALE
  5
141ED
102
{ACAD_REACTORS
330
141D8
102
}
330
141D8
100
AcDbScale
 70
     0
300
1/16" = 1'-0"
140
0.0625
141
12.0
290
     0
  0
SCALE
  5
141EE
102
{ACAD_REACTORS
330
141D8
102
}
330
141D8
100
AcDbScale
 70
     0
300
3/32" = 1'-0"
140
0.09375
141
12.0
290
     0
  0
SCALE
  5
141EF
102
{ACAD_REACTORS
330
141D8
102
}
330
141D8
100
AcDbScale
 70
     0
300
1/8" = 1'-0"
140
0.125
141
12.0
290
     0
  0
SCALE
  5
141F0
102
{ACAD_REACTORS
330
141D8
102
}
330
141D8
100
AcDbScale
 70
     0
300
3/16" = 1'-0"
140
0.1875
141
12.0
290
     0
  0
SCALE
  5
141F1
102
{ACAD_REACTORS
330
141D8
102
}
330
141D8
100
AcDbScale
 70
     0
300
1/4" = 1'-0"
140
0.25
141
12.0
290
     0
  0
SCALE
  5
141F2
102
{ACAD_REACTORS
330
141D8
102
}
330
141D8
100
AcDbScale
 70
     0
300
3/8" = 1'-0"
140
0.375
141
12.0
290
     0
  0
SCALE
  5
141F3
102
{ACAD_REACTORS
330
141D8
102
}
330
141D8
100
AcDbScale
 70
     0
300
1/2" = 1'-0"
140
0.5
141
12.0
290
     0
  0
SCALE
  5
141F4
102
{ACAD_REACTORS
330
141D8
102
}
330
141D8
100
AcDbScale
 70
     0
300
3/4" = 1'-0"
140
0.75
141
12.0
290
     0
  0
SCALE
  5
141F5
102
{ACAD_REACTORS
330
141D8
102
}
330
141D8
100
AcDbScale
 70
     0
300
1" = 1'-0"
140
1.0
141
12.0
290
     0
  0
SCALE
  5
141F6
102
{ACAD_REACTORS
330
141D8
102
}
330
141D8
100
AcDbScale
 70
     0
300
1-1/2" = 1'-0"
140
1.5
141
12.0
290
     0
  0
SCALE
  5
141F7
102
{ACAD_REACTORS
330
141D8
102
}
330
141D8
100
AcDbScale
 70
     0
300
3" = 1'-0"
140
3.0
141
12.0
290
     0
  0
SCALE
  5
141F8
102
{ACAD_REACTORS
330
141D8
102
}
330
141D8
100
AcDbScale
 70
     0
300
6" = 1'-0"
140
6.0
141
12.0
290
     0
  0
SCALE
  5
141F9
102
{ACAD_REACTORS
330
141D8
102
}
330
141D8
100
AcDbScale
 70
     0
300
1'-0" = 1'-0"
140
12.0
141
12.0
290
     0
  0
TABLESTYLE
  5
12358
102
{ACAD_XDICTIONARY
360
1438A
102
}
102
{ACAD_REACTORS
330
12357
102
}
330
12357
100
AcDbTableStyle
  3
Standard
 70
     0
 71
     0
 40
1.5
 41
1.5
280
     0
281
     0
  7
STANDARD
140
4.5
170
     2
 62
     0
 63
     7
283
     0
274
    -2
284
     1
 64
     0
275
    -2
285
     1
 65
     0
276
    -2
286
     1
 66
     0
277
    -2
287
     1
 67
     0
278
    -2
288
     1
 68
     0
279
    -2
289
     1
 69
     0
  7
STANDARD
140
6.0
170
     5
 62
     0
 63
     7
283
     0
274
    -2
284
     1
 64
     0
275
    -2
285
     1
 65
     0
276
    -2
286
     1
 66
     0
277
    -2
287
     1
 67
     0
278
    -2
288
     1
 68
     0
279
    -2
289
     1
 69
     0
  7
STANDARD
140
4.5
170
     5
 62
     0
 63
     7
283
     0
274
    -2
284
     1
 64
     0
275
    -2
285
     1
 65
     0
276
    -2
286
     1
 66
     0
277
    -2
287
     1
 67
     0
278
    -2
288
     1
 68
     0
279
    -2
289
     1
 69
     0
  0
VISUALSTYLE
  5
141CD
102
{ACAD_REACTORS
330
141C7
102
}
330
141C7
100
AcDbVisualStyle
  2
2dWireframe
 70
     4
 71
     0
 72
     2
 73
     0
 90
        0
 40
-0.6
 41
-30.0
 62
     5
 63
     7
 74
     1
 91
        4
 64
     7
 65
   257
 75
     1
175
     1
 42
1.0
 92
        0
 66
   257
 43
1.0
 76
     1
 77
     6
 78
     2
 67
     7
 79
     5
170
     0
171
     0
290
     0
174
     0
 93
        1
 44
0.0
173
     0
291
     0
 45
0.0
1001
ACAD
1000
AcDbSavedByObjectVersion
1070
     0
  0
VISUALSTYLE
  5
141CF
102
{ACAD_REACTORS
330
141C7
102
}
330
141C7
100
AcDbVisualStyle
  2
3D Hidden
 70
     6
 71
     1
 72
     2
 73
     2
 90
        0
 40
-0.6
 41
-30.0
 62
     5
 63
     7
 74
     2
 91
        2
 64
     7
 65
   257
 75
     2
175
     1
 42
40.0
 92
        0
 66
   257
 43
1.0
 76
     1
 77
     6
 78
     2
 67
     7
 79
     3
170
     0
171
     0
290
     0
174
     0
 93
        1
 44
0.0
173
     0
291
     0
 45
0.0
1001
ACAD
1000
AcDbSavedByObjectVersion
1070
     0
  0
VISUALSTYLE
  5
141CE
102
{ACAD_REACTORS
330
141C7
102
}
330
141C7
100
AcDbVisualStyle
  2
3dWireframe
 70
     5
 71
     0
 72
     2
 73
     0
 90
        0
 40
-0.6
 41
-30.0
 62
     5
 63
     7
 74
     1
 91
        4
 64
     7
 65
   257
 75
     1
175
     1
 42
1.0
 92
        0
 66
   257
 43
1.0
 76
     1
 77
     6
 78
     2
 67
     7
 79
     5
170
     0
171
     0
290
     0
174
     0
 93
        1
 44
0.0
173
     0
291
     0
 45
0.0
1001
ACAD
1000
AcDbSavedByObjectVersion
1070
     0
  0
VISUALSTYLE
  5
141CC
102
{ACAD_REACTORS
330
141C7
102
}
330
141C7
100
AcDbVisualStyle
  2
Basic
 70
     7
 71
     1
 72
     0
 73
     1
 90
        0
 40
-0.6
 41
-30.0
 62
     5
 63
     7
 74
     0
 91
        4
 64
     7
 65
   257
 75
     1
175
     1
 42
1.0
 92
        8
 66
     7
 43
1.0
 76
     1
 77
     6
 78
     2
 67
     7
 79
     5
170
     0
171
     0
290
     0
174
     0
 93
        1
 44
0.0
173
     0
291
     1
 45
0.0
1001
ACAD
1000
AcDbSavedByObjectVersion
1070
     0
  0
VISUALSTYLE
  5
141D3
102
{ACAD_REACTORS
330
141C7
102
}
330
141C7
100
AcDbVisualStyle
  2
Brighten
 70
    12
 71
     2
 72
     2
 73
     0
 90
        0
 40
-0.6
 41
-30.0
 62
     5
 63
     7
 74
     1
 91
        4
 64
     7
 65
   257
 75
     1
175
     1
 42
1.0
 92
        8
 66
     7
 43
1.0
 76
     1
 77
     6
 78
     2
 67
     7
 79
     5
170
     0
171
     0
290
     0
174
     0
 93
        1
 44
50.0
173
     0
291
     1
 45
0.0
1001
ACAD
1000
AcDbSavedByObjectVersion
1070
     0
  0
VISUALSTYLE
  5
141D7
102
{ACAD_REACTORS
330
141C7
102
}
330
141C7
100
AcDbVisualStyle
  2
ColorChange
 70
    16
 71
     2
 72
     2
 73
     3
 90
        0
 40
-0.6
 41
-30.0
 62
     5
 63
     8
 74
     1
 91
        4
 64
     7
 65
   257
 75
     1
175
     1
 42
1.0
 92
        8
 66
     8
 43
1.0
 76
     1
 77
     6
 78
     2
 67
     7
 79
     5
170
     0
171
     0
290
     0
174
     0
 93
        1
 44
0.0
173
     0
291
     1
 45
0.0
1001
ACAD
1000
AcDbSavedByObjectVersion
1070
     0
  0
VISUALSTYLE
  5
141D0
102
{ACAD_REACTORS
330
141C7
102
}
330
141C7
100
AcDbVisualStyle
  2
Conceptual
 70
     9
 71
     3
 72
     2
 73
     0
 90
        0
 40
-0.6
 41
-30.0
 62
     5
 63
     7
 74
     2
 91
        2
 64
     7
 65
   257
 75
     1
175
     1
 42
40.0
 92
        8
 66
     7
 43
1.0
 76
     1
 77
     6
 78
     2
 67
     7
 79
     3
170
     0
171
     0
290
     0
174
     0
 93
        1
 44
0.0
173
     0
291
     0
 45
0.0
1001
ACAD
1000
AcDbSavedByObjectVersion
1070
     0
  0
VISUALSTYLE
  5
141D2
102
{ACAD_REACTORS
330
141C7
102
}
330
141C7
100
AcDbVisualStyle
  2
Dim
 70
    11
 71
     2
 72
     2
 73
     0
 90
        0
 40
-0.6
 41
-30.0
 62
     5
 63
     7
 74
     1
 91
        4
 64
     7
 65
   257
 75
     1
175
     1
 42
1.0
 92
        8
 66
     7
 43
1.0
 76
     1
 77
     6
 78
     2
 67
     7
 79
     5
170
     0
171
     0
290
     0
174
     0
 93
        1
 44
-50.0
173
     0
291
     1
 45
0.0
1001
ACAD
1000
AcDbSavedByObjectVersion
1070
     0
  0
VISUALSTYLE
  5
141D6
102
{ACAD_REACTORS
330
141C7
102
}
330
141C7
100
AcDbVisualStyle
  2
Facepattern
 70
    15
 71
     2
 72
     2
 73
     0
 90
        0
 40
-0.6
 41
-30.0
 62
     5
 63
     7
 74
     1
 91
        4
 64
     7
 65
   257
 75
     1
175
     1
 42
1.0
 92
        8
 66
     7
 43
1.0
 76
     1
 77
     6
 78
     2
 67
     7
 79
     5
170
     0
171
     0
290
     0
174
     0
 93
        1
 44
0.0
173
     0
291
     1
 45
0.0
1001
ACAD
1000
AcDbSavedByObjectVersion
1070
     0
  0
VISUALSTYLE
  5
141C8
102
{ACAD_REACTORS
330
141C7
102
}
330
141C7
100
AcDbVisualStyle
  2
Flat
 70
     0
 71
     2
 72
     1
 73
     1
 90
        2
 40
-0.6
 41
30.0
 62
     5
 63
     7
 74
     0
 91
        4
 64
     7
 65
   257
 75
     1
175
     1
 42
1.0
 92
        8
 66
     7
 43
1.0
 76
     1
 77
     6
 78
     2
 67
     7
 79
     5
170
     0
171
     0
290
     0
174
     0
 93
       13
 44
0.0
173
     0
291
     1
 45
0.0
1001
ACAD
1000
AcDbSavedByObjectVersion
1070
     0
  0
VISUALSTYLE
  5
141C9
102
{ACAD_REACTORS
330
141C7
102
}
330
141C7
100
AcDbVisualStyle
  2
FlatWithEdges
 70
     1
 71
     2
 72
     1
 73
     1
 90
        2
 40
-0.6
 41
30.0
 62
     5
 63
     7
 74
     1
 91
        4
 64
     7
 65
   257
 75
     1
175
     1
 42
1.0
 92
        0
 66
   257
 43
1.0
 76
     1
 77
     6
 78
     2
 67
     7
 79
     5
170
     0
171
     0
290
     0
174
     0
 93
       13
 44
0.0
173
     0
291
     1
 45
0.0
1001
ACAD
1000
AcDbSavedByObjectVersion
1070
     0
  0
VISUALSTYLE
  5
141CA
102
{ACAD_REACTORS
330
141C7
102
}
330
141C7
100
AcDbVisualStyle
  2
Gouraud
 70
     2
 71
     2
 72
     2
 73
     1
 90
        2
 40
-0.6
 41
30.0
 62
     5
 63
     7
 74
     0
 91
        4
 64
     7
 65
   257
 75
     1
175
     1
 42
1.0
 92
        0
 66
     7
 43
1.0
 76
     1
 77
     6
 78
     2
 67
     7
 79
     5
170
     0
171
     0
290
     0
174
     0
 93
       13
 44
0.0
173
     0
291
     1
 45
0.0
1001
ACAD
1000
AcDbSavedByObjectVersion
1070
     0
  0
VISUALSTYLE
  5
141CB
102
{ACAD_REACTORS
330
141C7
102
}
330
141C7
100
AcDbVisualStyle
  2
GouraudWithEdges
 70
     3
 71
     2
 72
     2
 73
     1
 90
        2
 40
-0.6
 41
30.0
 62
     5
 63
     7
 74
     1
 91
        4
 64
     7
 65
   257
 75
     1
175
     1
 42
1.0
 92
        0
 66
   257
 43
1.0
 76
     1
 77
     6
 78
     2
 67
     7
 79
     5
170
     0
171
     0
290
     0
174
     0
 93
       13
 44
0.0
173
     0
291
     1
 45
0.0
1001
ACAD
1000
AcDbSavedByObjectVersion
1070
     0
  0
VISUALSTYLE
  5
141D5
102
{ACAD_REACTORS
330
141C7
102
}
330
141C7
100
AcDbVisualStyle
  2
Linepattern
 70
    14
 71
     2
 72
     2
 73
     0
 90
        0
 40
-0.6
 41
-30.0
 62
     5
 63
     7
 74
     1
 91
        4
 64
     7
 65
   257
 75
     7
175
     7
 42
1.0
 92
        8
 66
     7
 43
1.0
 76
     1
 77
     6
 78
     2
 67
     7
 79
     5
170
     0
171
     0
290
     0
174
     0
 93
        1
 44
0.0
173
     0
291
     1
 45
0.0
1001
ACAD
1000
AcDbSavedByObjectVersion
1070
     0
  0
VISUALSTYLE
  5
141D1
102
{ACAD_REACTORS
330
141C7
102
}
330
141C7
100
AcDbVisualStyle
  2
Realistic
 70
     8
 71
     2
 72
     2
 73
     0
 90
        0
 40
-0.6
 41
-30.0
 62
     5
 63
     7
 74
     1
 91
        0
 64
     7
 65
   257
 75
     1
175
     1
 42
1.0
 92
        8
 66
     8
 43
1.0
 76
     1
 77
     6
 78
     2
 67
     7
 79
     5
170
     0
171
     0
290
     0
174
     0
 93
       13
 44
0.0
173
     0
291
     0
 45
0.0
1001
ACAD
1000
AcDbSavedByObjectVersion
1070
     0
  0
VISUALSTYLE
  5
141D4
102
{ACAD_REACTORS
330
141C7
102
}
330
141C7
100
AcDbVisualStyle
  2
Thicken
 70
    13
 71
     2
 72
     2
 73
     0
 90
        0
 40
-0.6
 41
-30.0
 62
     5
 63
     7
 74
     1
 91
        4
 64
     7
 65
   257
 75
     1
175
     1
 42
1.0
 92
       12
 66
     7
 43
1.0
 76
     1
 77
     6
 78
     2
 67
     7
 79
     5
170
     0
171
     0
290
     0
174
     0
 93
        1
 44
0.0
173
     0
291
     1
 45
0.0
1001
ACAD
1000
AcDbSavedByObjectVersion
1070
     0
  0
DICTIONARYVAR
  5
14387
102
{ACAD_REACTORS
330
12364
102
}
330
12364
100
DictionaryVariables
280
     0
  1
1:1
  0
DICTIONARYVAR
  5
14386
102
{ACAD_REACTORS
330
12364
102
}
330
12364
100
DictionaryVariables
280
     0
  1
STANDARD
  0
DICTIONARYVAR
  5
12365
102
{ACAD_REACTORS
330
12364
102
}
330
12364
100
DictionaryVariables
280
     0
  1
STANDARD
  0
DICTIONARYVAR
  5
123D2
102
{ACAD_REACTORS
330
12364
102
}
330
12364
100
DictionaryVariables
280
     0
  1
1
  0
DICTIONARYVAR
  5
14389
102
{ACAD_REACTORS
330
12364
102
}
330
12364
100
DictionaryVariables
280
     0
  1
0
  0
DICTIONARYVAR
  5
123D3
102
{ACAD_REACTORS
330
12364
102
}
330
12364
100
DictionaryVariables
280
     0
  1

  0
DICTIONARYVAR
  5
14388
102
{ACAD_REACTORS
330
12364
102
}
330
12364
100
DictionaryVariables
280
     0
  1
127
  0
DICTIONARY
  5
14393
330
1235B
100
AcDbDictionary
280
     1
281
     1
  3
ACAD_XREC_ROUNDTRIP
360
14394
  0
DICTIONARY
  5
1236C
330
1235C
100
AcDbDictionary
280
     1
281
     1
  3
ACAD_XREC_ROUNDTRIP
360
14395
  3
ADSK_XREC_LAYOUTTHUMBNAIL
360
1236D
  0
DICTIONARY
  5
141C0
330
141BF
100
AcDbDictionary
280
     1
281
     1
  3
ACAD_XREC_ROUNDTRIP
360
14397
  3
BUMPTILE
360
141C2
  3
DIFFUSETILE
360
141C1
  3
OPACITYTILE
360
141C5
  3
REFLECTIONTILE
360
141C4
  3
REFRACTIONTILE
360
141C6
  3
SPECULARTILE
360
141C3
  0
DICTIONARY
  5
141B8
330
141B7
100
AcDbDictionary
280
     1
281
     1
  3
ACAD_XREC_ROUNDTRIP
360
14396
  3
BUMPTILE
360
141BA
  3
DIFFUSETILE
360
141B9
  3
OPACITYTILE
360
141BD
  3
REFLECTIONTILE
360
141BC
  3
REFRACTIONTILE
360
141BE
  3
SPECULARTILE
360
141BB
  0
DICTIONARY
  5
1240A
330
12409
100
AcDbDictionary
280
     1
281
     1
  3
ACAD_XREC_ROUNDTRIP
360
1240B
  0
DICTIONARY
  5
1438A
330
12358
100
AcDbDictionary
280
     1
281
     1
  3
ACAD_ROUNDTRIP_2008_TABLESTYLE_CELLSTYLEMAP
360
1438B
  3
ACAD_XREC_ROUNDTRIP
360
14392
  0
XRECORD
  5
14394
102
{ACAD_REACTORS
330
14393
102
}
330
14393
100
AcDbXrecord
280
     1
102
SHADEPLOT
 70
     0
102
SHADEPLOTRESLEVEL
 70
     2
102
SHADEPLOTCUSTOMDPI
 70
   300
  0
XRECORD
  5
14395
102
{ACAD_REACTORS
330
1236C
102
}
330
1236C
100
AcDbXrecord
280
     1
102
SHADEPLOT
 70
     0
102
SHADEPLOTRESLEVEL
 70
     2
102
SHADEPLOTCUSTOMDPI
 70
   300
  0
XRECORD
  5
1236D
102
{ACAD_REACTORS
330
1236C
102
}
330
1236C
100
AcDbXrecord
280
     1
310
28000000B40000007F00000001000800000000004C590000000000000000000000010000000000000000000000000000FFFFFF000000000000000000000000000000000000000000000000000000000000000000330000006600000099000000CC000000FF00000000330000333300006633000099330000CC330000FF3300
310
0000660000336600006666000099660000CC660000FF66000000990000339900006699000099990000CC990000FF99000000CC000033CC000066CC000099CC0000CCCC0000FFCC000000FF000033FF000066FF000099FF0000CCFF0000FFFF000000003300330033006600330099003300CC003300FF003300003333003333
310
33006633330099333300CC333300FF33330000663300336633006666330099663300CC663300FF66330000993300339933006699330099993300CC993300FF99330000CC330033CC330066CC330099CC3300CCCC3300FFCC330000FF330033FF330066FF330099FF3300CCFF3300FFFF330000006600330066006600660099
310
006600CC006600FF00660000336600333366006633660099336600CC336600FF33660000666600336666006666660099666600CC666600FF66660000996600339966006699660099996600CC996600FF99660000CC660033CC660066CC660099CC6600CCCC6600FFCC660000FF660033FF660066FF660099FF6600CCFF6600
310
FFFF660000009900330099006600990099009900CC009900FF00990000339900333399006633990099339900CC339900FF33990000669900336699006666990099669900CC669900FF66990000999900339999006699990099999900CC999900FF99990000CC990033CC990066CC990099CC9900CCCC9900FFCC990000FF99
310
0033FF990066FF990099FF9900CCFF9900FFFF99000000CC003300CC006600CC009900CC00CC00CC00FF00CC000033CC003333CC006633CC009933CC00CC33CC00FF33CC000066CC003366CC006666CC009966CC00CC66CC00FF66CC000099CC003399CC006699CC009999CC00CC99CC00FF99CC0000CCCC0033CCCC0066CC
310
CC0099CCCC00CCCCCC00FFCCCC0000FFCC0033FFCC0066FFCC0099FFCC00CCFFCC00FFFFCC000000FF003300FF006600FF009900FF00CC00FF00FF00FF000033FF003333FF006633FF009933FF00CC33FF00FF33FF000066FF003366FF006666FF009966FF00CC66FF00FF66FF000099FF003399FF006699FF009999FF00CC
310
99FF00FF99FF0000CCFF0033CCFF0066CCFF0099CCFF00CCCCFF00FFCCFF0000FFFF0033FFFF0066FFFF0099FFFF00CCFFFF00FFFFFF00000000000D0D0D001A1A1A00282828003535350043434300505050005D5D5D006B6B6B00787878008686860093939300A1A1A100AEAEAE00BBBBBB00C9C9C900D6D6D600E4E4E400
310
F1F1F100FFFFFF0000000000000000000000000000000000000000000000000000000000000000000000000000000000F5F5F5F5F5F5F5F5F5F5F5F5F5F5F5F5F5F5F5F5F5F5F5F5F5F5F5F5F5F5F5F5F5F5F5F5F5F5F5F5F5F5F5F5F5F5F5F5F5F5F5F5F5F5F5F5F5F5F5F5F5F5F5F5F5F5F5F5F5F5F5F5F5F5F5F5F5F5F5
310
F5F5F5F5F5F5F5F5F5F5F5F5F5F5F5F5F5F5F5F5F5F5F5F5F5F5F5F5F5F5F5F5F5F5F5F5F5F5F5F5F5F5F5F5F5F5F5F5F5F5F5F5F5F5F5F5F5F5F5F5F5F5F5F5F5F5F5F5F5F5F5F5F5F5F5F5F5F5F5F5F5F5F5F5F5F5F5F5F5F5F5F5F5F5F5F5F5F5F5F5F5F5E2F5F5F5F5F5F5F5F5F5F5F5F5F5F5F5F5F5F5F5F5F5F5F5F5
310
F5F5F5F5F5F5F5F5F5F5F5F5F5F5F5F5F5F5F5F5F5F5F5F5F5F5F5F5F5F5F5F5F5F5F5F5F5F5F5F5F5F5F5F5F5F5F5F5F5F5F5F5F5F5F5F5F5F5F5F5F5F5F5F5F5F5F5F5F5F5F5F5F5F5F5F5F5F5F5F5F5F5F5F5F5F5F5F5F5F5F5F5F5F5F5F5F5F5F5F5F5F5F5F5F5F5F5F5F5F5F5F5F5F5F5F5F5F5F5F5F5F5F5F5F5F5F5
310
F5F5F5F5F5F5F5F5F5F5F5F5F5F5F5F5F5F5F5F5F5F5F5F5E2F5F5F5E2F5E2E2E2E2E2E2E2E2E2E2E2E2E2E2E2E2E2E2E2E2E2E2E2E2E2E2E2F0E2E2E2E2E2E2E2E2E2E2E2E2E2E2E2E2E2E2E2E2E2E2E2E2E2E2E2E2E2E2E2E2E2E2E2E2E2E2E2F0E2E2E2E2E2E2E2E2E2E2E2E2E2E2E2E2E2E2E2E2E2E2E2E2E2E2E2E2E2
310
E2E2E2E2E2E2E2E2E2E2E2E2E2E2E2E2E2E2F0E2E2E2E2E2E2E2E2E2E2E2E2E2E2E2E2E2E2E2E2E2E2E2E2E2E2E2E2E2E2E2E2E2E2E2E2E2E2E2E2F0E2E2E2E2E2E2E2E2E2E2E2E2E2E2E2E2F5E2F5F5F5E2F5E2E2E2E2E2E2E2E2E2E2E2E2E2E2E2E2E2E2E2E2E2E2E2E2E2E2E2F0F0F0F0F0F0F0F0F0F0F0F0F0F0F0F0F0
310
F0F0F0F0F0F0F0F0F0F0F0F0F0F0F0F0F0F0F0F0F0F0F0ECE2E2E2E2E2E2E2E2E2E2E2E2E2E2E2E2E2E2E2E2E2E2E2E2E2E2E2E2E2E2E2E2E2E2E2E2E2E2E2E2E2E2E2E2E2E2E2F0F0F0F0F0F0F0F0F0F0F0F0F0F0F0F0F0F0F0F0F0F0F0F0F0F0F0F0F0F0F0F0F0F0F0F0F0F0F0F0F0ECE2E2E2E2E2E2E2E2E2E2E2E2E2E2
310
E2E2F5E2F5F5F5E2F5E2E2E2E2E2E2E2E2E2E2E2E2E2E2E2E2E2E2E2E2E2E2E2E2E2E2E2F0F0F0E2E2E2E2E2E2E2E2E2E2E2E2E2E2E2E2DCDCDCDCE2E2E2E2E2E2E2E2E2E2E2E2E2E2E2E2F0F0E2E2E2E2E2E2E2E2E2E2E2E2E2E2E2E2E2E2E2E2E2E2E2E2E2E2E2E2E2E2E2E2E2E2E2E2E2E2E2E2E2E2E2E2E2E2E2F0F0F0
310
E2E2E2E2E2E2E2E2E2E2E2E2E2E2E2E2E2DCDCDCE2E2E2E2E2E2E2E2E2E2E2E2E2E2E2E2E2F0F0E2E2E2E2E2E2E2E2E2E2E2E2E2E2E2E2F5E2F5F5F5E2F5E2E2E2E2E2E2E2E2E2E2E2E2E2E2E2E2E2E2E2E2E2E2E2E2E2E2E2F0E2E2E2E2E2E2E2E2E2E2E2E2E2E2E2E2E2E2DCDCDCDCE2E2E2E2E2E2E2E2E2E2E2E2E2E2E2
310
E2E2F0E2E2E2E2E2E2E2E2E2E2E2E2E2E2E2E2E2E2E2E2E2E2E2E2E2E2E2E2E2E2E2E2E2E2E2E2E2E2E2E2E2E2E2E2E2E2E2F0E2E2E2E2E2E2E2E2E2E2E2E2E2E2E2E2E2E2DCDCDCDCE2E2E2E2E2E2E2E2E2E2E2E2E2E2E2E2E2E2F0E2E2E2E2E2E2E2E2E2E2E2E2E2E2E2E2F5E2F5F5F5E2F5E2E2E2E2E2E2E2E2E2E2E2E2
310
E2E2E2E2E2E2E2E2E2E2E2E2E2E2E2F0E2E2E2E2E2E2E2E2E2E2E2E2E2E2E2E2E2E2E2E2E2E2E2E2E2E2E2E2E2E2E2E2E2E2E2E2E2E2E2F0E2E2E2E2E2E2E2E2E2E2E2E2E2E2E2E2E2E2E2E2E2E2E2E2E2E2E2E2E2E2E2E2E2E2E2E2E2E2E2E2E2E2E2E2E2E2E2F0E2E2E2E2E2E2E2E2E2E2E2E2E2E2E2E2E2E2E2E2E2E2E2
310
E2E2E2E2E2E2E2E2E2E2E2E2E2E2E2E2E2F0E2E2E2E2E2E2E2E2E2E2E2E2E2E2E2E2F5E2F5F5F5E2F5E2E2E2E2E2E2E2E2E2E2E2E2E2E2E2E2E2E2E2E2E2E2E2E2E2E2E2F0E2E2E2E2E2E2E2E2E2E2E2E2E2E2E2E2E2E2E2E2E2E2E2E2E2E2E2E2E2E2E2E2E2E2E2E2E2E2E2F0E2E2E2E2E2E2E2E2E2E2E2E2E2E2E2E2E2E2
310
E2E2E2E2E2E2E2E2E2E2E2E2E2E2E2E2E2E2E2E2E2E2E2E2E2E2E2E2E2F0E2E2E2E2E2E2E2E2E2E2E2E2E2E2E2E2E2E2E2E2E2E2E2E2E2E2E2E2E2E2E2E2E2E2E2E2E2E2E2E2F0E2E2E2E2E2E2E2E2E2E2E2E2E2E2E2E2F5E2F5F5F5E2F5E2E2E2E2E2E2E2E2E2E2E2E2E2E2E2E2E2E2E2E2E2E2E2E2E2E2E2F0E2E2E2E2E2
310
E2E2E2E2E2E2E2E2E2E2E2E2E2E2E2E2E2E2E2E2E2E2E2E2E2E2E2E2E2E2E2E2E2E2F0E2E2E2E2E2E2E2E2E2E2E2E2E2E2E2E2E2E2E2E2E2E2E2E2E2E2E2E2E2E2E2E2E2E2E2E2E2E2E2E2E2E2E2E2E2E2E2F0E2E2E2E2E2E2E2E2E2E2E2E2E2E2E2E2E2E2E2E2E2E2E2E2E2E2E2E2E2E2E2E2E2E2E2E2E2E2E2E2F0E2E2E2
310
E2E2E2E2E2E2E2E2E2E2E2E2E2F5E2F5F5F5E2F5E2E2E2E2E2E2E2E2E2E2E2E2E2E2E2E2E2E2E2E2E2E2E2E2E2E2E2F0E2E2E2E2E2E2E2E2E2E2E2E2E2E2E2E2E2E2E2E2E2E2E2E2E2E2E2E2E2E2E2E2E2E2E2E2E2E2E2F0E2E2E2E2E2E2E2E2E2E2E2E2E2E2E2E2E2E2E2E2E2E2E2E2E2E2E2E2E2E2E2E2E2E2E2E2E2E2E2
310
E2E2E2E2E2E2E2E2F0E2E2E2E2E2E2E2E2E2E2E2E2E2E2E2E2E2E2E2E2E2E2E2E2E2E2E2E2E2E2E2E2E2E2E2E2E2E2E2E2F0E2E2E2E2E2E2E2E2E2E2E2E2E2E2E2E2F5E2F5F5F5E2F5E2E2E2E2E2E2E2E2E2E2E2E2E2E2E2E2E2E2E2E2E2E2E2E2E2E2E2F0E2E2E2E2E2E2E2E2E2E2E2E2E2E2E2E2E2E2E2E2E2E2E2E2E2E2
310
E2E2E2E2E2E2E2E2E2E2E2E2E2F0E2E2E2E2E2E2E2E2E2E2E2E2E2E2E2E2E2E2E2E2E2E2E2E2E2E2E2E2E2E2E2E2E2E2E2E2E2E2E2E2E2E2E2E2E2E2E2F0E2E2E2E2E2E2E2E2E2E2E2E2E2E2E2E2E2E2E2E2E2E2E2E2E2E2E2E2E2E2E2E2E2E2E2E2E2E2E2E2F0E2E2E2E2E2E2E2E2E2E2E2E2E2E2E2E2F5E2F5F5F5E2F5E2
310
E2E2E2E2E2E2E2E2E2E2E2E2E2E2F0ECF0F0F0F0F0F0F0F0F0ECECF5F5F5F5F5F5F5F5F5F5F5F5F5F5F5F5F5F5F5F5F5F5F5F5F5F5F5F5F5F5F5F5F5F5F5F5F5F5F5ECF5F5F5F5E2E2E2E2E2E2E2E2E2E2E2E2E2E2E2E2E2E2E2E2E2E2E2E2E2E2E2E2E2E2E2E2E2E2E2E2E2E2E2E2F5F5F5ECF5F5F5F5F5F5F5F5F5F5F5F5
310
F5F5F5F5F5F5F5F5F5F5F5F5F5F5F5F5F5F5F5F5F5F5F5F5F5F5F5F5ECF5F5F5E2E2E2E2E2E2E2E2E2E2E2E2E2F5E2F5F5F5E2F5E2E2E2E2E2E2E2E2E2E2E2E2E2E2E2E2F0F0E2E2E2E2E2E2F5F5F5F5F5F5F5F5F5F5F5F5F5F5F5F5F5F5F5F5F5F5F5F5F5F5F5F5F5F5F5F5F5F5F5F5F5F5F5F5F5F5F5F5F5F5F5F5E2E2E2
310
E2E2E2E2E2E2E2E2E2E2E2E2E2E2E2E2E2E2E2E2E2E2E2E2E2E2E2E2E2E2E2E2E2E2E2E2E2F5F5F5F5F5F5F5F5F5F5F5F5F5F5F5F5F5F5F5F5F5F5F5F5F5F5F5F5F5F5F5F5F5F5F5F5F5F5F5F5F5F5F5F5F5F5F5F5E2E2E2E2E2E2E2E2E2E2E2E2E2F5E2F5F5F5E2F5E2E2E2E2E2E2E2E2E2E2E2E2E2E2E2E2F0E2E2E2E2E2
310
E2E2F5E2E2E2E2E2E2E2E2E2E2E2E2E2E2E2E2E2E2E2E2E2E2E2E2E2E2E2E2E2E2E2E2E2E2E2E2E2E2E2E2E2E2E2E2E2E2F5E2E2E2E2E2E2E2E2E2E2E2E2E2E2E2E2E2E2E2E2E2E2E2E2E2E2E2E2E2E2E2E2E2E2E2E2E2E2E2E2E2F5E2E2E2E2E2F5E2E2E2E2E2E2E2E2E2E2E2E2E2E2E2E2E2E2F5F5E2E2E2F5F5F5E2F5E2
310
E2E2E2F5F5E2E2E2E2F5F5E2E2E2E2E2E2E2E2E2E2E2E2E2F5E2F5F5F5E2F5E2E2E2E2E2E2E2E2E2E2E2E2E2E2E2E2F0E2E2E2E2E2E2E2F5E2E2E2E2E2E2E2E2E2E2E2E2E2E2E2E2E2E2E2E2E2E2E2E2E2E2E2E2E2E2E2E2E2E2E2E2E2E2E2E2E2E2E2E2E2E2F5E2E2E2E2E2E2E2E2E2E2E2E2E2E2E2E2E2E2E2E2E2E2E2E2
310
E2E2E2E2E2E2E2E2E2E2E2E2E2E2E2E2E2F5E2E2E2E2E2F5E2E2E2E2E2E2E2E2E2E2E2E2E2E2E2E2E2E2F5F5E2E2E2F5E2F5E2F5E2F5F5F5F5F5E2E2E2E2F5F5E2E2E2E2E2E2E2E2E2E2E2E2E2F5E2F5F5F5E2F5E2E2E2E2E2E2E2E2E2E2E2E2E2E2E2E2F0E2E2E2E2E2E2E2F5E2E2E2E2E2E2E2E2E2E2E2E2E2E2E2E2E2E2
310
E2E2E2E2E2E2E2E2E2E2E2E2E2E2E2E2E2E2E2E2E2E2E2E2E2E2E2E2F5E2E2E2E2E2E2E2E2E2E2E2E2E2E2E2E2E2E2E2E2E2E2E2E2E2E2E2E2E2E2E2E2E2E2E2E2E2E2E2E2F5F5E2E2E2E2E2F5E2E2E2E2E2E2E2E2E2E2E2E2E2E2E2E2E2E2F5F5E2E2E2F5F5F5E2F5E2F5F5F5F5F5E2E2E2E2E2F5F5E2E2E2E2E2E2E2E2E2
310
E2E2E2F5E2F5F5F5E2F5E2E2E2E2E2E2E2E2E2E2E2E2E2E2E2E2F0E2E2E2E2E2E2E2F5F5F5F5F5F5F5F5F5F5F5F5F5F5F5F5F5F5F5F5F5F5F5F5F5F5F5F5F5F5F5F5F5F5F5F5F5F5F5F5F5F5F5F5F5F5F5F5E2E2E2E2E2E2E2E2E2E2E2E2E2E2E2E2E2E2E2E2E2E2E2E2E2E2E2E2E2E2E2E2E2E2E2E2E2E2E2E2F5E2E2E2E2
310
E2E2F5E2E2E2E2E2E2E2E2E2F5E2E2E2E2E2E2E2E2F5F5E2E2E2F5F5F5E2F5E2F5F5F5F5F5E2E2E2E2E2F5F5E2E2E2E2E2E2E2E2E2E2E2E2F5E2F5F5F5E2F5E2E2E2E2E2E2E2E2E2E2E2E2E2E2E2E2F0E2E2E2E2E2E2E2F5E2E2E2E2E2E2E2E2E2E2E2E2E2E2E2E2E2E2E2E2E2E2E2E2E2E2E2E2E2E2E2E2E2E2E2E2E2E2E2
310
E2E2E2E2E2E2E2F5E2E2E2E2E2E2E2E2E2E2E2E2E2E2E2E2E2E2E2E2E2E2E2E2E2E2E2E2E2E2E2E2E2E2E2E2E2E2E2E2F5E2E2E2E2E2E2F5E2E2E2E2E2E2E2E2F5F5F5E2E2E2E2E2E2E2F5F5E2E2E2F5F5F5E2F5E2F5F5F5F5F5E2E2E2E2E2F5F5E2E2E2E2E2E2E2E2E2E2E2E2F5E2F5F5F5E2F5E2E2E2E2E2E2E2E2E2E2E2
310
E2E2E2E2E2F0E2E2E2E2E2E2E2F5E2E2E2E2E2E2E2E2E2E2E2E2E2E2E2E2E2E2E2E2E2E2E2E2E2E2E2E2E2E2E2E2E2E2E2E2E2E2E2E2E2E2E2E2E2E2F5E2E2E2E2E2E2E2E2E2E2E2E2E2E2E2E2E2E2E2E2E2E2E2E2E2E2E2E2E2E2E2E2E2E2E2E2E2E2E2E2F5E2E2E2E2E2E2F5E2E2E2E2E2E2E2E2F5F5F5E2E2E2E2E2E2E2
310
F5F5E2E2E2F5F5F5F5F5F5F5F5F5F5F5E2E2E2E2E2F5F5E2E2E2E2E2E2E2E2E2E2E2E2F5E2F5F5F5E2F5E2E2E2E2E2E2E2E2E2E2E2E2E2E2E2DCDCE2E2E2E2E2E2E2F5E2E2E2E2E2E2E2E2E2E2E2E2E2E2E2E2E2E2E2E2E2E2E2E2E2E2E2E2E2E2E2E2E2E2E2E2E2E2E2E2E2E2E2E2E2E2F5E2E2E2E2E2E2E2E2E2E2E2E2E2
310
E2E2E2E2E2E2E2E2E2E2E2E2E2E2E2E2E2E2E2E2E2E2E2E2E2E2E2F5E2E2E2E2E2E2F5F5F5F5F5F5F5F5F5F5F5F5F5F5F5F5F5F5F5F5F5E2E2E2E2E2F5E2E2E2E2E2E2F5F5E2E2E2E2E2F5E2E2E2E2E2E2E2E2E2E2E2E2E2F5E2F5F5F5E2F5E2E2E2E2E2E2E2E2E2E2E2E2E2E2E2DCDCE2E2E2E2E2E2E2F5E2E2E2E2E2E2E2
310
E2E2E2E2E2E2E2E2E2E2E2E2E2E2E2E2E2E2E2E2E2E2E2E2E2E2E2E2E2E2E2E2E2E2E2E2E2E2E2F5E2E2E2E2E2E2E2E2E2E2E2E2E2E2E2E2E2E2E2E2E2E2E2E2E2E2E2E2E2E2E2E2E2E2E2E2E2E2E2E2F5E2E2E2E2E2E2E2E2E2E2E2E2E2E2E2E2E2E2E2E2E2E2E2E2E2E2E2E2E2E2E2E2F5E2E2E2E2E2E2F5F5E2E2E2E2E2
310
F5E2E2E2E2E2E2E2E2E2E2E2E2E2F5E2F5F5F5E2F5E2E2E2E2E2E2E2E2E2E2E2E2E2E2E2E2F0E2E2E2E2E2E2E2F5E2E2E2F5F5F5F5F5F5F5F5F5F5F5F5F5F5F5F5F5F5F5F5F5F5F5F5F5F5F5F5F5F5F5F5F5F5F5F5F5F5F5F5E2E2E2F5E2E2E2E2E2E2E2E2E2E2E2E2E2E2E2E2E2E2E2E2E2E2E2E2E2E2E2E2E2E2E2E2E2E2
310
E2E2E2E2E2E2F5F5F5F5F5F5F5F5F5F5F5F5F5F5F5F5F5F5F5F5F5F5F5F5F5F5F5F5F5F5F5F5F5F5F5F5F5F5F5F5F5F5F5F5F5F5F5F5E2E2E2E2E2E2E2E2E2E2E2E2E2F5E2F5F5F5E2F5E2E2E2E2E2E2E2E2E2E2E2E2E2E2E2E2F0E2E2E2E2E2E2E2F5E2E2E2F5E2E2F5F5F5F5F5F5F5F5F5F5F5F5F5F5F5F5F5F5F5F5F5F5
310
F5F5F5F5F5E2F5F5F5F5F5F5E2E2F5E2E2E2F5E2E2E2E2E2E2E2E2E2E2E2E2E2E2E2E2E2E2E2E2E2E2E2E2E2E2E2E2E2E2E2E2E2E2E2E2E2E2E2E2F5E2E2E2E2E2E2E2E2E2E2E2E2E2E2E2E2E2E2E2E2E2E2E2E2E2E2E2E2E2E2E2E2F5F5F5F5F5E2E2E2E2E2E2E2E2E2F5E2E2E2E2E2E2E2E2E2E2E2E2E2F5E2F5F5F5E2F5
310
E2E2E2E2E2E2E2E2E2E2E2E2E2E2E2E2F0E2E2E2E2E2E2E2F5E2E2E2F5E2E2F5F5F5F5F5F5F5F5F5F5F5F5F5F5F5F5F5F5F5F5F5F5F5F5F5F5F5F5F5F5F5F5F5F5F5F5E2F5E2E2F5E2E2E2E2E2E2E2E2E2E2E2E2E2E2E2E2E2E2E2E2E2E2E2E2E2E2E2E2E2E2E2E2E2E2E2E2E2E2E2E2F5E2E2E2E2E2E2E2E2E2E2E2E2E2E2
310
E2E2E2E2E2E2E2E2E2E2E2E2E2E2E2E2E2E2E2E2E2E2E2E2E2E2E2E2E2E2E2E2F5E2E2E2E2E2E2E2E2E2E2E2E2E2F5E2F5F5F5E2F5E2E2E2E2E2E2E2E2E2E2E2E2E2E2E2E2F0E2E2E2E2E2E2E2F5E2F5F5F5F5F5F5F5F5F5F5F5F5F5F5F5F5F5F5F5F5F5F5F5F5F5F5F5F5F5F5F5F5F5F5F5F5F5F5F5F5F5F5F5F5E2F5E2E2
310
E2E2E2E2E2E2E2E2E2E2E2E2E2E2E2E2E2E2E2E2E2E2E2E2E2E2E2E2E2E2E2E2E2E2E2E2E2E2F5F5E2E2E2E2E2E2E2E2E2E2E2E2E2E2E2E2E2E2E2E2E2E2E2E2E2E2E2E2E2E2E2E2E2E2E2E2E2E2E2E2E2E2E2E2E2F5E2E2E2E2E2E2E2E2E2E2E2E2E2F5E2F5F5F5E2F5E2E2E2E2E2E2E2E2E2E2E2E2E2E2E2E2F0E2E2E2E2
310
E2E2E2E2F5F5F5F5F5F5F5F5F5F5F5F5F5F5F5F5F5F5F5F5F5F5F5F5F5F5F5F5F5F5F5F5F5F5F5F5F5F5F5F5F5F5F5F5F5F5E2E2E2E2E2E2E2E2E2E2E2E2E2E2E2E2E2E2E2E2E2E2E2E2E2E2E2E2E2E2E2E2E2E2E2E2E2E2E2E2E2E2F5F5F5F5F5F5F5F5F5F5F5F5F5F5F5F5F5F5F5F5F5F5F5F5F5F5F5F5F5F5F5F5F5F5F5
310
F5F5F5F5F5F5F5F5F5F5F5E2E2E2E2E2E2E2E2E2E2E2E2E2E2F5E2F5F5F5E2F5E2E2E2E2E2E2E2E2E2E2E2E2E2E2E2E2F0E2E2E2E2E2E2E2E2E2E2F5F5F5F5F5F5F5ECF5F5F5F5F5F5F5F5F5F5F5F5F5F5F5F5F5F5F5F5F5F5F5F5F5F5ECF5F5F5F5F5F5F5E2E2E2E2E2E2E2E2E2E2E2E2E2E2E2E2E2E2E2E2E2E2E2E2E2E2
310
E2E2E2E2E2E2E2E2E2E2E2E2E2E2E2E2E2E2E2E2F5F5F5F5F5F5F5F5F5F5F5F5F5F5F5F5F5F5F5F5F5F5F5F5F5F5F5F5F5F5F5F5F5F5F5F5F5F5F5F5F5F5F5E2E2E2E2E2E2E2E2E2E2E2E2E2E2E2F5E2F5F5F5E2F5E2E2E2E2E2E2E2E2E2E2E2E2E2E2E2E2F0F0E2E2E2E2E2E2E2E2E2E2E2E2E2E2E2E2F0E2E2E2E2E2E2E2
310
E2E2E2E2E2E2E2E2E2E2E2E2E2E2E2E2E2E2E2F0E2E2E2E2E2E2E2E2E2E2E2E2E2E2E2E2E2E2E2E2E2E2E2E2E2E2E2E2E2E2E2E2E2E2E2E2E2E2E2E2E2E2E2E2E2E2E2E2E2E2E2E2E2E2E2E2E2E2E2E2E2F5E2E2E2E2E2E2E2E2E2E2E2E2E2E2E2E2E2E2E2E2E2E2E2E2E2F5E2E2E2E2E2E2E2E2E2E2E2E2E2E2E2E2E2E2E2
310
E2E2E2E2F5E2F5F5F5E2F5E2E2E2E2E2E2E2E2E2E2E2E2E2E2E2F0F0F0F0F0F0F0F0F0F0F0F0F0F0F0F0F0F0F0F0F5F5F5F5F5F5F5F5F5F5F5F5F5F5F5F5F5F5F5F5F5F5F5F5F5F5F0E2E2E2E2E2E2E2E2E2E2E2E2E2E2E2E2E2E2E2E2E2E2E2E2E2E2E2E2E2E2E2E2E2E2E2E2E2E2E2E2E2E2E2E2E2E2E2E2E2E2E2E2E2E2
310
E2E2E2E2E2E2E2F5F5F5F5F5F5F5F5F5F5F5F5F5F5F5F5F5F5F5F5F5F5F5F5F5F5F5E2E2E2E2E2E2E2E2E2E2E2E2E2E2E2E2E2E2E2E2E2E2E2F5E2F5F5F5E2F5E2E2E2E2E2E2E2E2E2E2E2E2E2E2E2E2E2E2E2E2E2E2E2E2E2E2E2E2E2E2E2E2E2E2F0E2E2E2E2E2E2E2E2E2E2E2E2E2E2E2E2E2E2E2E2E2E2E2E2E2E2F0E2
310
E2E2E2E2E2E2E2E2E2E2E2E2E2E2E2E2E2E2E2E2E2E2E2E2E2E2E2E2E2E2E2E2E2E2E2E2E2E2E2E2E2E2E2E2E2E2E2E2E2E2E2E2E2E2E2E2E2E2E2E2E2E2E2E2E2E2E2E2E2E2E2E2E2E2E2E2E2E2E2E2E2E2E2E2E2E2E2E2E2E2E2E2E2E2E2E2E2E2E2E2E2E2E2E2E2E2E2E2E2E2F5E2F5F5F5E2F5E2E2E2E2E2E2E2E2E2E2
310
E2E2E2E2E2E2E2E2E2E2E2E2E2E2E2E2E2E2E2E2E2E2E2E2F0E2E2E2E2E2E2E2E2E2E2E2E2E2E2E2E2E2E2E2E2E2E2E2E2E2E2F0E2E2E2E2E2E2E2E2E2E2E2E2E2E2E2E2E2E2E2E2E2E2E2E2E2E2E2E2E2E2E2E2E2E2E2E2E2E2E2E2E2E2E2E2E2E2E2E2E2E2E2E2E2E2E2E2E2E2E2E2E2E2E2E2E2E2E2E2E2E2E2E2E2E2E2
310
E2E2E2E2E2E2E2E2E2E2E2E2E2E2E2E2E2E2E2E2E2E2E2E2E2E2E2E2E2E2E2E2E2E2E2E2F5E2F5F5F5E2F5E2E2E2E2E2E2E2E2E2E2E2E2E2E2E2E2E2E2E2E2E2E2E2E2E2E2E2E2E2E2E2E2E2E2F0E2E2E2E2E2E2E2E2E2E2E2E2E2E2E2E2E2E2E2E2E2E2E2E2E2E2F0E2E2E2E2E2E2E2E2E2E2E2E2E2E2E2E2E2E2E2E2E2E2
310
E2E2E2E2E2E2E2E2E2E2E2E2E2E2E2E2E2E2E2E2E2E2E2E2E2E2E2E2E2E2E2E2E2E2E2E2E2E2E2E2E2E2E2E2E2E2E2E2E2E2E2E2E2E2E2E2E2E2E2E2E2E2E2E2E2E2E2E2E2E2E2E2E2E2E2E2E2E2E2E2E2E2E2E2E2E2E2E2E2F5E2F5F5F5E2F5E2E2E2E2E2E2E2E2E2E2E2E2E2E2E2E2E2E2E2E2E2E2E2E2E2E2E2E2E2E2E2
310
E2E2E2F0E2E2E2E2E2E2E2E2E2E2E2E2E2E2E2E2E2E2E2E2E2E2E2E2E2E2F0E2E2E2E2E2E2E2E2E2E2E2E2E2E2E2E2E2E2E2E2E2E2E2E2E2E2E2E2E2E2E2E2E2E2E2E2E2E2E2E2E2E2E2E2E2E2E2E2E2E2E2E2E2E2E2E2E2E2E2E2E2E2E2E2E2E2E2E2E2E2E2E2E2E2E2E2E2E2E2E2E2E2E2E2E2E2E2E2E2E2E2E2E2E2E2E2
310
E2E2E2E2E2E2E2E2E2E2E2E2E2E2E2F5E2F5F5F5E2F5E2E2E2E2E2E2E2E2E2E2E2E2E2E2E2E2E2E2E2E2E2E2E2E2E2E2E2E2E2E2E2E2E2E2F0E2E2E2E2E2E2E2E2E2E2E2E2E2E2E2E2E2E2E2E2E2E2E2E2E2E2F0E2E2E2E2E2E2E2E2E2E2E2E2E2E2E2E2E2E2E2E2E2E2E2E2E2E2E2E2E2E2E2E2E2E2E2E2E2E2E2E2E2E2E2
310
E2E2E2E2E2E2E2E2E2E2E2E2E2E2E2E2E2E2E2E2E2E2E2E2E2E2E2E2E2E2E2E2E2E2E2E2E2E2E2E2E2E2E2E2E2E2E2E2E2E2E2E2E2E2E2E2E2E2E2E2E2E2E2E2E2E2E2E2F5E2F5F5F5E2F5E2E2E2E2E2E2E2E2E2E2E2E2E2E2E2E2E2E2E2E2E2E2E2E2E2E2E2E2E2E2E2E2E2E2F0E2E2E2E2E2E2E2E2E2E2E2E2E2E2E2E2E2
310
E2E2E2E2E2E2E2E2E2F0E2E2E2E2E2E2E2E2E2E2E2E2E2E2E2E2E2E2E2E2E2E2E2E2E2E2E2E2E2E2E2E2E2E2E2E2E2E2E2E2E2E2E2E2E2E2E2E2E2E2E2E2E2E2E2E2E2E2E2E2E2E2E2E2E2E2E2E2E2E2E2E2E2E2E2E2E2E2E2E2E2E2E2E2E2E2E2E2E2E2E2E2E2E2E2E2E2E2E2E2E2E2E2E2E2E2E2E2E2E2E2F5E2F5F5F5E2
310
F5E2E2E2E2E2E2E2E2E2E2E2E2E2E2E2E2E2E2E2E2E2E2E2E2E2E2E2E2E2E2E2E2E2E2F0F0F0F0F0F0F0F0F0F0F0F0F0F0F0F0F0F0F0F0F0F0F0F0F0F0F0ECE2E2E2E2E2E2E2E2E2E2E2E2E2E2E2E2E2E2E2E2E2E2E2E2E2E2E2E2E2E2E2E2E2E2E2E2E2E2E2E2E2E2E2E2E2E2E2E2E2E2E2E2E2E2E2E2E2E2E2E2E2E2E2E2
310
E2E2E2E2E2E2E2E2E2E2E2E2E2E2E2E2E2E2E2E2E2E2E2E2E2E2E2E2E2E2E2E2E2E2E2E2E2E2E2E2E2E2E2E2E2E2E2F5E2F5F5F5E2F5E2E2E2E2E2E2E2E2E2E2E2E2E2E2E2E2E2E2E2E2E2E2E2E2E2E2E2E2E2E2E2E2E2E2F0E2E2E2E2E2E2E2E2E2E2DCDCDCDCDCDCE2E2E2E2E2E2E2E2E2E2F0E2E2E2E2E2E2E2E2E2E2E2
310
E2E2E2E2E2E2E2E2E2E2E2E2E2E2E2E2E2E2E2E2E2E2E2E2E2E2E2E2E2E2E2E2E2E2E2E2E2E2E2E2E2E2E2E2E2E2E2E2E2E2E2E2E2E2E2E2E2E2E2E2E2E2E2E2E2E2E2E2E2E2E2E2E2E2E2E2E2E2E2E2E2E2E2E2E2E2E2E2E2E2E2E2E2E2E2E2E2E2E2E2F5E2F5F5F5E2F5E2E2E2E2E2E2E2E2E2E2E2E2E2E2E2E2E2E2E2E2
310
E2E2E2E2E2E2E2E2E2E2E2E2E2E2E2E2E2E2E2E2E2E2E2E2E2DCDCDCDCE2DCE2E2E2E2E2E2E2E2E2E2E2E2E2E2E2E2E2E2E2E2E2E2E2E2E2E2E2E2E2E2E2E2E2E2E2E2E2E2E2E2E2E2E2E2E2E2E2E2E2E2E2E2E2E2E2E2E2E2E2E2E2E2E2E2E2E2E2E2E2E2E2E2E2E2E2E2E2E2E2E2E2E2E2E2E2E2E2E2E2E2E2E2E2E2E2E2
310
E2E2E2E2E2E2E2E2E2E2E2E2E2E2E2E2E2E2E2E2E2E2E2E2E2E2F5E2F5F5F5E2F5E2E2E2E2E2E2E2E2E2E2E2E2E2E2E2E2E2E2E2E2E2E2E2E2E2E2E2E2E2E2E2E2E2E2E2E2E2E2E2E2E2E2E2E2E2E2E2E2E2E2E2E2E2E2E2E2E2E2E2E2E2E2E2E2E2E2E2E2E2E2E2E2E2E2E2E2E2E2E2E2E2E2E2E2E2E2E2E2E2E2E2E2E2E2
310
E2E2E2E2E2E2E2E2E2E2E2E2E2E2E2E2E2E2E2E2E2E2E2E2E2E2E2E2E2E2E2E2E2E2E2E2E2E2E2E2E2E2E2E2E2E2E2E2E2E2E2E2E2E2E2E2E2E2E2E2E2E2E2E2E2E2E2E2E2E2E2E2E2E2E2E2E2E2E2F5E2F5F5F5E2F5E2E2E2E2E2E2E2E2E2E2E2E2E2E2E2E2E2E2E2E2E2E2E2E2E2E2E2E2E2E2E2E2E2E2E2E2E2E2E2E2E2
310
E2E2E2E2E2E2E2E2E2E2E2E2E2E2E2E2E2E2E2E2E2E2E2E2E2E2E2E2E2E2E2E2E2E2E2E2E2E2E2E2E2E2E2E2E2E2E2E2E2E2E2E2E2E2E2E2E2E2E2E2E2E2E2E2E2E2E2E2E2E2E2E2E2E2E2E2E2E2E2E2E2E2E2E2E2E2E2E2E2E2E2E2E2E2E2E2E2E2E2E2E2E2E2E2E2E2E2E2E2E2E2E2E2E2E2E2E2E2E2E2E2E2E2E2E2E2E2
310
E2E2E2E2E2F5E2F5F5F5E2F5E2E2E2E2E2E2E2E2E2E2E2E2E2E2E2E2E2E2E2E2E2E2E2E2E2E2E2E2E2E2E2E2E2E2E2E2E2E2E2E2E2E2E2E2E2E2E2E2E2E2E2E2E2E2E2E2E2E2E2E2E2E2E2E2E2E2E2E2E2E2E2E2E2E2E2E2E2E2E2E2E2E2E2E2E2E2E2E2E2E2E2E2E2E2E2E2E2E2E2E2E2E2E2E2E2E2E2E2E2E2E2E2E2E2E2
310
E2E2E2E2E2E2E2E2E2E2E2E2E2E2E2E2E2E2E2E2E2E2E2E2E2E2E2E2E2E2E2E2E2E2E2E2E2E2E2E2E2E2E2E2E2E2E2E2E2E2E2E2E2E2E2E2E2E2F5E2F5F5F5E2F5E2E2E2E2E2E2E2E2E2E2E2E2E2E2E2E2E2E2E2E2E2E2E2E2E2E2E2E2E2E2E2E2E2E2E2E2E2E2E2E2E2E2E2E2E2E2E2E2E2E2E2E2E2E2E2E2E2E2E2E2E2E2
310
E2E2E2E2E2E2E2E2E2E2E2E2E2E2E2E2E2E2E2E2E2E2E2E2E2E2E2E2E2E2E2E2E2E2E2E2E2E2E2E2E2E2E2E2E2E2E2E2E2E2E2E2E2E2E2E2E2E2E2E2E2E2E2E2E2E2E2E2E2E2E2E2E2E2E2E2E2E2E2E2E2E2E2E2E2E2E2E2E2E2E2E2E2E2E2E2E2E2E2E2E2E2E2E2E2E2E2E2E2E2E2F5E2F5F5F5E2F5E2E2E2E2E2E2E2E2E2
310
E2E2E2E2E2E2E2E2E2E2E2E2E2E2E2E2E2E2E2E2E2E2E2E2E2E2E2E2E2E2E2E2E2E2E2E2E2E2E2E2E2E2E2E2E2E2E2E2E2E2E2E2E2E2E2E2E2E2E2E2E2E2E2E2E2E2E2E2E2E2E2E2E2E2E2E2E2E2E2E2E2E2E2E2E2E2E2E2E2E2E2E2E2E2E2E2E2E2E2E2E2E2E2E2E2E2E2E2E2E2E2E2E2E2E2E2E2E2E2E2E2E2E2E2E2E2E2
310
E2E2E2E2E2E2E2E2E2E2E2E2E2E2E2E2E2E2E2E2E2E2E2E2E2E2E2E2E2E2E2E2E2E2E2E2E2F5E2F5F5F5E2F5E2E2E2E2E2E2E2E2E2E2E2E2E2E2E2E2E2E2E2E2E2E2E2E2E2E2E2E2E2E2E2E2E2E2E2E2E2E2E2E2E2E2E2E2E2E2E2E2E2E2E2E2E2E2E2E2E2E2E2E2E2E2E2E2E2E2E2E2E2E2E2E2E2E2E2E2E2E2E2E2E2E2E2
310
E2E2E2E2E2E2E2E2E2E2E2E2E2E2E2E2E2E2E2E2E2E2E2E2E2E2E2E2E2E2E2E2E2E2E2E2E2E2E2E2E2E2E2E2E2E2E2E2E2E2E2E2E2E2E2E2E2E2E2E2E2E2E2E2E2E2E2E2E2E2E2E2E2E2E2E2E2E2E2E2E2E2E2E2E2E2E2E2E2E2F5E2F5F5F5E2F5E2E2E2E2E2E2E2E2E2E2E2E2E2E2E2E2E2E2E2E2E2E2E2E2E2E2E2E2E2E2
310
E2E2E2E2E2E2E2E2E2E2E2E2E2E2E2E2E2E2E2E2E2E2E2E2E2E2E2E2E2E2E2E2E2E2E2E2E2E2E2E2E2E2E2E2E2E2E2E2E2E2E2E2E2E2E2E2E2E2E2E2E2E2E2E2E2E2E2E2E2E2E2E2E2E2E2E2E2E2E2E2E2E2E2E2E2E2E2E2E2E2E2E2E2E2E2E2E2E2E2E2E2E2E2E2E2E2E2E2E2E2E2E2E2E2E2E2E2E2E2E2E2E2E2E2E2E2E2
310
E2E2E2E2E2E2E2E2E2E2E2E2E2E2E2E2F5E2F5F5F5E2F5E2E2E2E2E2E2E2E2E2E2E2E2E2E2E2E2E2E2E2E2E2E2E2E2F0E2E2E2E2E2E2E2E2E2E2E2E2E2E2E2E2E2E2E2E2E2E2E2E2E2E2E2E2E2E2E2E2E2E2E2E2E2E2E2E2E2E2E2E2E2E2F0E2E2E2E2E2E2E2E2E2E2E2E2E2E2E2E2E2E2E2E2E2E2E2E2E2E2E2E2E2E2E2E2
310
E2E2E2E2E2E2E2E2E2E2E2E2E2E2E2E2E2E2E2E2E2E2E2E2E2E2E2E2E2E2E2E2E2E2E2E2E2E2E2E2E2E2E2E2E2E2E2E2E2E2E2E2E2E2E2E2E2E2E2E2E2E2E2E2E2E2E2E2E2F5E2F5F5F5E2F5E2E2E2E2E2E2E2E2E2E2E2E2E2E2E2E2E2E2E2E2E2E2E2E2F0F0F0F0F0F0F0F0F0F0F0F0F0F0F0F0F0F0F0F0F0F0DCDCDCDCF0
310
F0F0F0F0F0F0F0F0F0F0F0F0F0F0F0F0F0F0F0F0ECE2E2E2E2E2E2E2E2E2E2E2E2E2E2E2E2E2E2E2E2E2E2E2E2E2E2E2E2E2E2E2E2E2E2E2E2E2E2E2E2E2E2E2E2E2E2E2E2E2E2E2E2E2E2E2E2E2E2E2E2E2E2E2E2E2E2E2E2E2E2E2E2E2E2E2E2E2E2E2E2E2E2E2E2E2E2E2E2E2E2E2E2E2E2E2E2E2E2E2E2E2F5E2F5F5F5
310
E2F5E2E2E2E2E2E2E2E2E2E2E2E2E2E2E2E2E2E2E2E2E2E2E2E2F0E2E2E2E2E2E2E2E2E2E2E2E2E2E2E2E2E2E2E2E2E2DCDCDCDCE2E2E2E2E2E2E2E2E2E2E2E2E2E2E2E2E2E2E2E2E2F0E2E2E2E2E2E2E2E2E2E2E2E2E2E2E2E2E2E2E2E2E2E2E2E2E2E2E2E2E2E2E2E2E2E2E2E2E2E2E2E2E2E2E2E2E2E2E2E2E2E2E2E2E2
310
E2E2E2E2E2E2E2E2E2E2E2E2E2E2E2E2E2E2E2E2E2E2E2E2E2E2E2E2E2E2E2E2E2E2E2E2E2E2E2E2E2E2E2E2E2E2E2E2F5E2F5F5F5E2F5E2E2E2E2E2E2E2E2E2E2E2E2E2E2E2E2E2E2E2E2E2E2E2E2F0E2E2E2E2E2E2E2E2E2E2E2E2E2E2E2E2E2E2E2E2E2DCDCDCDCE2E2E2E2E2E2E2E2E2E2E2E2E2E2E2E2E2E2E2E2E2F0
310
E2E2E2E2E2E2E2E2E2E2E2E2E2E2E2E2E2E2E2E2E2E2E2E2E2E2E2E2E2E2E2E2E2E2E2E2E2E2E2E2E2E2E2E2E2E2E2E2E2E2E2E2E2E2E2E2E2E2E2E2E2E2E2E2E2E2E2E2E2E2E2E2E2E2E2E2E2E2E2E2E2E2E2E2E2E2E2E2E2E2E2E2E2E2E2E2E2E2E2E2E2F5E2F5F5F5E2F5E2E2E2E2E2E2E2E2E2E2E2E2E2E2E2E2E2E2E2
310
E2E2E2E2E2F0E2E2E2E2E2E2E2E2E2E2E2E2E2E2E2E2E2E2E2E2E2E2E2E2E2E2E2E2E2E2E2E2E2E2E2E2E2E2E2E2E2E2E2E2E2E2F0E2E2E2E2E2E2E2E2E2E2E2E2E2E2E2E2E2E2E2E2E2E2E2E2E2E2E2E2E2E2E2E2E2E2E2E2E2E2E2E2E2E2E2E2E2E2E2E2E2E2E2E2E2E2E2E2E2E2E2E2E2E2E2E2E2E2E2E2E2E2E2E2E2E2
310
E2E2E2E2E2E2E2E2E2E2E2E2E2E2E2E2E2E2E2E2E2E2E2E2E2E2E2F5E2F5F5F5E2F5E2E2E2E2E2E2E2E2E2E2E2E2E2E2E2E2E2E2E2E2E2E2E2E2F0E2E2E2E2E2E2E2E2E2E2E2E2E2E2E2E2E2E2E2E2E2E2E2E2E2E2E2E2E2E2E2E2E2E2E2E2E2E2E2E2E2E2E2E2E2E2F0E2E2E2E2E2E2E2E2E2E2E2E2E2E2E2E2E2E2E2E2E2
310
E2E2E2E2E2E2E2E2E2E2E2E2E2E2E2E2E2E2E2E2E2E2E2E2E2E2E2E2E2E2E2E2E2E2E2E2E2E2E2E2E2E2E2E2E2E2E2E2E2E2E2E2E2E2E2E2E2E2E2E2E2E2E2E2E2E2E2E2E2E2E2E2E2E2E2E2E2E2E2E2F5E2F5F5F5E2F5E2E2E2E2E2E2E2E2E2E2E2E2E2E2E2E2E2E2E2E2E2E2E2E2F0E2E2E2E2E2E2E2E2E2E2E2E2E2E2E2
310
E2E2E2E2E2E2E2E2E2E2E2E2E2E2E2E2E2E2E2E2E2E2E2E2E2E2E2E2E2E2E2F0E2E2E2E2E2E2E2E2E2E2E2E2E2E2E2E2E2E2E2E2E2E2E2E2E2E2E2E2E2E2E2E2E2E2E2E2E2E2E2E2E2E2E2E2E2E2E2E2E2E2E2E2E2E2E2E2E2E2E2E2E2E2E2E2E2E2E2E2E2E2E2E2E2E2E2E2E2E2E2E2E2E2E2E2E2E2E2E2E2E2E2E2E2E2E2
310
E2E2E2E2E2E2F5E2F5F5F5E2F5E2E2E2E2E2E2E2E2E2E2E2E2E2E2E2E2E2E2E2E2E2E2E2E2F0E2E2E2E2E2E2E2E2E2E2E2E2E2E2E2E2E2E2E2E2E2E2E2E2E2E2E2E2E2E2E2E2E2E2E2E2E2E2E2E2E2E2E2E2E2E2F0E2E2E2E2E2E2E2E2E2E2E2E2E2E2E2E2E2E2E2E2E2E2E2E2E2E2E2E2E2E2E2E2E2E2E2E2E2E2E2E2E2E2
310
E2E2E2E2E2E2E2E2E2E2E2E2E2E2E2E2E2E2E2E2E2E2E2E2E2E2E2E2E2E2E2E2E2E2E2E2E2E2E2E2E2E2E2E2E2E2E2E2E2E2E2E2E2E2E2E2E2E2E2F5E2F5F5F5E2F5E2E2E2E2E2E2E2E2E2E2E2E2F0ECF0F0F0F0ECF0F0F0F0F0F0F0F0F0F0F0F0F0F0F0F0F0F0F0F0F0F0F0F0F0F0F0F0ECF0F0F0F0F0F0F0F0F0F0F0F0F0
310
F0F0F0F0F0F0F0F0F0F0F0F0F0F0F0F0F0F0F0E2E2E2E2E2E2E2E2E2E2E2E2E2E2E2E2E2E2E2E2E2E2E2E2E2F5F5F5ECF0F0F0F0F0F0F0F0F0F0F0F0ECF0E2E2E2E2E2E2E2E2E2E2E2E2E2E2E2E2E2E2E2E2E2E2E2E2E2E2E2E2E2E2E2E2E2E2E2E2E2E2E2E2E2E2E2E2E2E2E2E2E2E2F5E2F5F5F5E2F5E2E2E2E2E2E2E2E2
310
E2E2E2E2E2F0E2E2F0F0E2E2E2E2E2E2F0E2E2F5F5F5F5F5F5F5F5E2E2E2E2E2E2E2E2E2E2E2E2E2E2E2E2E2E2E2E2E2E2E2E2E2E2F5F5F5F5F5F5F5F5E2E2F0E2E2E2E2E2E2F0F0E2E2E2E2E2E2E2E2E2E2E2E2E2E2E2E2E2E2E2E2E2E2E2E2F5E2E2E2F5E2F5F5E2E2E2E2E2E2E2E2E2F0E2E2E2E2E2E2E2E2E2E2E2E2E2
310
E2E2E2E2E2E2E2E2E2E2E2E2E2E2E2E2E2E2E2E2E2E2E2E2E2E2E2E2E2E2E2E2E2E2E2E2E2E2F5E2F5F5F5E2F5E2E2E2E2E2E2E2E2E2E2E2E2E2F0E2E2F0E2E2E2E2E2E2E2F0F5F5E2E2F5F5F5F5F5F5F5F5F5F5F5F5F5F5F5F5F5F5F5F5F5F5F5F5F5F5F5F5F5F5F5F5F5F5F5F5F5F5E2E2F5E2F0E2E2E2E2E2E2F0E2E2E2
310
E2E2E2E2E2E2E2E2E2E2E2E2E2E2E2E2E2E2E2E2E2E2F5E2E2E2F5E2E2E2F5E2E2E2E2E2E2E2E2F0E2E2E2E2E2E2E2E2E2E2E2E2E2E2E2E2E2E2E2E2E2E2E2E2E2E2E2E2E2E2E2E2E2E2E2E2E2E2E2E2E2E2E2E2E2E2E2E2E2E2E2F5E2F5F5F5E2F5E2E2E2E2E2E2E2E2E2E2E2E2E2F0E2E2F0E2E2E2E2E2E2E2F0F5E2E2F5
310
F5E2E2E2E2E2E2E2E2E2E2E2E2E2E2E2E2E2E2E2E2E2E2E2E2E2E2E2E2E2E2E2E2E2E2E2E2F5E2E2E2F5F0E2E2E2E2E2E2F0E2E2E2E2E2E2E2E2E2E2E2E2E2E2E2E2E2E2E2E2E2E2E2E2F5E2E2E2E2F5E2E2E2E2F5E2E2E2E2E2E2E2F0E2E2E2E2E2E2E2E2E2E2E2E2E2E2E2E2E2E2E2E2E2E2E2E2E2E2E2E2E2E2E2E2E2E2
310
E2E2E2E2E2E2E2E2E2E2E2E2E2E2E2E2E2F5E2F5F5F5E2F5E2E2E2E2E2E2E2E2E2E2E2E2E2F0E2E2F0E2E2E2E2E2E2E2F0F5E2E2F5F5E2F5F5F5F5F5F5F5F5F5F5F5F5F5F5F5F5F5F5F5F5F5F5E2F5F5F5E2E2E2F5F5F5F5E2E2F5E2E2E2F5F0E2E2E2E2E2E2F0E2E2E2E2E2E2E2E2E2E2E2E2E2E2E2E2E2E2E2E2E2E2E2E2
310
F5E2E2E2E2F5E2E2E2E2F5E2E2E2E2E2DCDCDCE2E2E2E2E2E2E2E2E2E2E2E2E2E2E2E2E2E2E2E2E2E2E2E2E2E2E2E2E2E2E2E2E2E2E2E2E2E2E2E2E2E2E2E2E2E2E2E2E2E2E2F5E2F5F5F5E2F5E2E2E2E2E2E2E2E2E2E2E2E2E2F0E2E2F0E2E2E2E2E2E2E2F0F5E2E2F5E2E2F5E2E2E2E2E2E2E2E2E2E2E2E2E2E2E2E2E2E2
310
E2E2F5F5F5E2F5F5E2E2F5E2E2F5F5E2E2F5E2E2F5F0E2E2E2E2E2E2F0E2E2E2E2E2E2E2E2E2E2E2E2E2E2E2E2E2E2E2E2E2E2E2F5E2E2E2E2E2F5E2E2E2E2F5E2E2E2E2E2DCDCDCE2E2E2E2E2E2E2E2E2E2E2E2E2E2E2E2E2E2E2E2E2E2E2E2E2E2E2E2E2E2E2E2E2E2E2E2E2E2E2E2E2E2E2E2E2E2E2E2E2E2E2F5E2F5F5
310
F5E2F5E2E2E2E2E2E2E2E2E2E2E2E2E2F0E2E2F0E2E2E2E2E2E2E2F0F5E2E2F5E2E2F5E2E2E2E2E2E2E2E2E2E2E2E2E2E2E2E2E2E2E2E2F5F5F5E2E2F5E2E2F5E2E2E2F5E2E2F5E2E2F5F0E2E2E2E2E2E2F0E2E2E2E2E2E2E2E2E2E2E2E2E2E2E2E2E2E2E2E2E2E2E2F5E2E2E2E2E2F5E2E2E2F5F5E2E2E2E2E2DCDCDCE2E2
310
E2E2E2E2E2E2E2E2E2E2E2E2E2E2E2E2E2E2E2E2E2E2E2E2E2E2E2E2E2E2E2E2E2E2E2E2E2E2E2E2E2E2E2E2E2E2E2E2E2F5E2F5F5F5E2F5E2E2E2E2E2E2E2E2E2E2E2E2E2F0E2E2F0E2E2E2E2E2E2E2F0F5E2F5F5E2E2F5E2E2E2E2E2E2E2E2E2E2E2E2E2E2E2E2E2E2E2E2F5E2F5F5F5F5E2E2F5F5E2F5F5E2E2F5E2E2F5
310
F0E2E2E2E2E2E2F0E2E2E2E2E2E2E2E2E2E2E2E2E2E2E2E2E2E2E2E2E2E2E2F5E2E2E2E2E2F5E2E2E2F5F5E2E2E2E2E2E2E2F0E2E2E2E2E2E2E2E2E2E2E2E2E2E2E2E2E2E2E2E2E2E2E2E2E2E2E2E2E2E2E2E2E2E2E2E2E2E2E2E2E2E2E2E2E2E2E2E2E2E2E2F5E2F5F5F5E2F5E2E2E2E2E2E2E2E2E2E2E2E2E2F0E2E2F0E2
310
E2E2E2E2E2E2F0F5E2F5F5E2E2F5E2E2E2E2E2E2E2E2E2E2E2E2E2E2E2E2E2E2E2E2F5E2F5F5F5F5F5F5F5F5F5F5F5F5E2F5E2E2F5F0E2E2E2E2E2E2F0E2E2E2E2E2E2E2E2E2E2E2E2E2E2E2E2E2E2E2E2E2E2E2F5E2E2E2E2E2F5E2E2E2F5F5E2E2E2E2E2E2E2F0E2E2E2E2E2E2E2E2E2E2E2E2E2E2E2E2E2E2E2E2E2E2E2
310
E2E2E2E2E2E2E2E2E2E2E2E2E2E2E2E2E2E2E2E2E2E2E2E2E2E2E2E2F5E2F5F5F5E2F5E2E2E2E2E2E2E2E2E2E2E2E2E2F0E2E2F0E2E2E2E2E2E2E2F0E2E2F5F5E2E2F5E2E2E2E2E2E2E2E2E2E2E2E2E2E2E2E2E2E2E2E2F5F5F5E2E2F5F5E2E2F5F5E2E2E2F5F5E2E2E2F0E2E2E2E2E2E2F0E2E2E2E2E2E2E2E2E2E2E2E2E2
310
E2E2E2E2E2E2E2E2E2F5E2E2E2E2E2E2F5E2E2E2F5F5ECF0F0F0F0F0F0F0F0E2E2E2E2E2E2E2E2E2E2E2E2E2E2E2E2E2E2E2E2E2E2E2E2E2E2E2E2E2E2E2E2E2E2E2E2E2E2E2E2E2E2E2E2E2E2E2E2E2E2F5E2F5F5F5E2F5E2E2E2E2E2E2E2E2E2E2E2E2E2F0E2E2F0E2E2E2E2E2E2E2F0E2E2F5E2E2E2F5E2E2E2E2E2E2E2
310
E2E2E2E2E2E2E2E2E2E2E2E2E2F5E2F5E2E2F5F5F5E2F5F5F5E2F5F5F5E2E2E2F0E2E2E2E2E2E2F0E2E2E2E2E2E2E2E2E2E2E2E2E2E2E2E2E2E2E2E2E2E2F5E2E2E2E2E2E2F5E2E2E2F5F5E2E2E2E2E2E2E2F0E2E2E2E2E2E2E2E2E2E2E2E2E2E2E2E2E2E2E2E2E2E2E2E2E2E2E2E2E2E2E2E2E2E2E2E2E2E2E2E2E2E2E2E2
310
E2E2E2E2E2E2E2F5E2F5F5F5E2F5E2E2E2E2E2E2E2E2E2E2E2E2E2F0E2E2F0E2E2E2E2E2E2E2F0E2E2F5E2E2E2F5F5F5F5F5F5F5F5F5F5F5F5F5F5F5F5F5F5F5F5F5F5E2E2F5F5E2E2F5F5F5E2F5F5F5E2F5E2E2E2F0E2E2E2E2E2E2F0E2E2E2E2E2E2E2E2E2E2E2E2E2E2E2E2E2E2E2E2E2E2F5E2E2E2E2E2E2F5E2E2E2F5
310
F5E2E2E2E2E2E2E2F0E2E2E2E2E2E2E2E2E2E2E2E2E2E2E2E2E2E2E2E2E2E2E2E2E2E2E2E2E2E2E2E2E2E2E2E2E2E2E2E2E2E2E2E2E2E2E2E2E2E2E2F5E2F5F5F5E2F5E2E2E2E2E2E2E2E2E2E2E2E2E2F0E2E2F0E2E2E2E2E2E2E2F0E2E2F5E2E2E2E2E2E2E2E2E2E2E2E2E2E2E2E2E2E2E2E2E2E2E2E2E2E2E2E2E2E2E2E2
310
E2E2E2E2E2E2E2F5F5E2E2F0E2E2E2E2E2E2F0E2E2E2E2E2E2E2E2E2E2E2E2E2E2E2E2E2E2E2E2E2E2F5E2E2E2E2E2E2F5E2E2E2F5F5E2E2E2E2E2E2E2F0E2E2E2E2E2E2E2E2E2E2E2E2E2E2E2E2E2E2E2E2E2E2E2E2E2E2E2E2E2E2E2E2E2E2E2E2E2E2E2E2E2E2E2E2E2E2E2E2E2E2E2F5E2F5F5F5E2F5E2E2E2E2E2E2E2
310
E2E2E2E2E2E2F0E2E2F0E2E2E2E2E2E2E2F0E2E2F5F5F5F5F5F5F5F5F5F5F5F5F5F5F5F5F5F5F5F5F5F5F5F5F5F5F5F5F5F5F5F5F5F5F5F5F5F5F5F5F5F5E2E2F0E2E2E2E2E2E2F0E2E2E2E2E2E2E2E2E2E2E2E2E2E2E2E2E2E2E2E2E2E2F5E2E2E2E2E2E2F5E2E2E2F5F5E2E2E2E2E2E2E2F0E2E2E2E2E2E2E2E2E2E2E2E2
310
E2E2E2E2E2E2E2E2E2E2E2E2E2E2E2E2E2E2E2E2E2E2E2E2E2E2E2E2E2E2E2E2E2E2E2E2E2E2E2F5E2F5F5F5E2F5E2E2E2E2E2E2E2E2E2E2E2E2E2F0E2E2F0E2E2E2E2E2E2E2F0E2E2F5E2E2E2E2E2E2E2E2E2E2E2E2E2E2E2E2E2E2E2E2E2E2E2E2E2E2E2E2E2E2E2E2E2E2E2E2E2E2E2E2F5E2E2F0E2E2E2E2E2E2F0E2E2
310
E2E2E2E2E2E2E2E2E2E2E2E2E2E2E2E2E2E2E2F5E2E2E2E2E2E2E2F5E2E2E2E2F5E2E2E2E2E2E2E2F0E2E2E2E2E2E2E2E2E2E2E2E2E2E2E2E2E2E2E2E2E2E2E2E2E2E2E2E2E2E2E2E2E2E2E2E2E2E2E2E2E2E2E2E2E2E2E2E2E2E2E2F5E2F5F5F5E2F5E2E2E2E2E2E2E2E2E2E2E2E2E2F0E2E2F0E2E2E2E2E2E2E2F0E2E2F5
310
F5F5F5F5F5F5F5F5F5F5F5F5F5F5F5F5F5F5F5F5F5F5F5F5F5F5F5F5F5F5F5F5F5F5F5F5F5F5F5F5F5E2E2F0E2E2E2E2E2E2F0E2E2E2E2E2E2E2E2E2E2E2E2E2E2E2E2E2E2E2E2E2F5E2E2E2E2E2E2E2F5E2E2E2E2F5E2E2E2E2E2E2E2F0E2E2E2E2E2E2E2E2E2E2E2E2E2E2E2E2E2E2E2E2E2E2E2E2E2E2E2E2E2E2E2E2E2
310
E2E2E2E2E2E2E2E2E2E2E2E2E2E2E2E2E2E2F5E2F5F5F5E2F5E2E2E2E2E2E2E2E2E2E2E2E2E2F0E2E2F0E2E2E2E2E2E2E2F0E2F5F5F5F5F5F5F5F5F5F5F5F5F5F5F5F5F5F5F5F5F5F5F5F5F5F5F5F5F5F5F5F5F5F5F5F5F5F5F5F5F5F5F5F5E2F0E2E2E2E2DCDCDCE2E2E2E2E2E2E2E2E2E2E2E2E2E2E2E2E2E2E2E2E2F5E2
310
E2E2E2E2E2E2F5E2E2E2E2F5E2E2E2E2E2E2E2F0E2E2E2E2E2E2E2E2E2E2E2E2E2E2E2E2E2E2E2E2E2E2E2E2E2E2E2E2E2E2E2E2E2E2E2E2E2E2E2E2E2E2E2E2E2E2E2E2E2E2E2F5E2F5F5F5E2F5E2E2E2E2E2E2E2E2E2E2E2E2E2F0E2E2F0E2E2E2E2E2E2E2F0E2F5E2E2E2E2E2E2E2E2E2E2E2E2E2E2E2E2E2E2E2E2E2E2
310
E2E2E2E2E2E2E2E2E2E2E2E2E2E2E2E2E2E2E2E2F5E2F0E2E2E2E2DCDCDCE2E2E2E2E2E2E2E2E2E2E2E2E2E2E2E2E2E2E2E2E2F5E2E2E2E2E2E2E2F5E2E2E2E2F5E2E2E2E2E2E2E2F0E2E2E2E2E2E2E2E2E2E2E2E2E2E2E2E2E2E2E2E2E2E2E2E2E2E2E2E2E2E2E2E2E2E2E2E2E2E2E2E2E2E2E2E2E2E2E2E2E2E2E2F5E2F5
310
F5F5E2F5E2E2E2E2E2E2E2E2E2E2E2E2E2F0E2E2F0E2E2E2E2E2E2E2F0E2F5E2E2E2E2E2E2E2E2E2E2E2E2E2E2E2E2E2E2E2E2E2E2E2E2E2E2E2E2E2E2E2E2E2E2E2E2E2E2E2E2E2E2F5E2F0E2E2E2E2DCDCDCE2E2E2E2E2E2E2E2E2E2E2E2E2E2E2E2E2E2E2E2E2F5E2E2E2E2E2E2E2F5E2E2E2E2F5E2E2E2E2E2E2E2F0E2
310
E2E2E2E2E2E2E2E2E2E2E2E2E2E2E2E2E2E2E2E2E2E2E2E2E2E2E2E2E2E2E2E2E2E2E2E2E2E2E2E2E2E2E2E2E2E2E2E2E2E2F5E2F5F5F5E2F5E2E2E2E2E2E2E2E2E2E2E2E2E2F0E2E2F0E2E2E2E2E2E2E2F0E2F5E2E2E2E2E2E2E2E2E2E2E2E2E2E2E2E2E2E2E2E2E2E2E2E2E2E2E2E2E2E2E2E2E2E2E2E2E2E2E2E2E2E2F5
310
E2F0E2E2E2E2DCDCDCE2E2E2E2E2E2E2E2E2E2E2E2E2E2E2E2E2E2E2E2F5F5E2E2F5F5F5F5F5F5F5F5F5F5F5E2E2E2E2E2E2E2F0E2E2E2E2E2E2E2E2E2E2E2E2E2E2E2E2E2E2E2E2E2E2E2E2E2E2E2E2E2E2E2E2E2E2E2E2E2E2E2E2E2E2E2E2E2E2E2E2E2E2E2F5E2F5F5F5E2F5E2E2E2E2E2E2E2E2E2E2E2E2E2F0E2E2F0
310
E2E2E2E2E2E2E2F0E2F5F5E2E2E2E2E2E2E2E2E2E2E2E2E2E2E2E2E2E2E2ECE2E2E2E2E2E2E2E2E2E2E2E2E2E2E2E2E2E2E2E2F5F5E2F0E2E2E2E2DCDCDCE2E2E2E2E2E2E2E2E2E2E2E2E2E2E2E2E2E2E2E2F5F5E2E2F5E2E2E2F5F5F5E2E2E2F5E2E2E2E2E2E2E2F0E2E2E2E2E2E2E2E2E2E2E2E2E2E2E2E2E2E2E2E2E2E2
310
E2E2E2E2E2E2E2E2E2E2E2E2E2E2E2E2E2E2E2E2E2E2E2E2E2E2E2E2E2F5E2F5F5F5E2F5E2E2E2E2E2E2E2E2E2E2E2E2E2F0E2E2F0E2E2E2E2E2E2E2F0E2F5F5F5F5F5F5F5F5F5F5F5F5F5F5F5F5F5F5F5F5F5F5F5F5F5F5F5F5F5F5F5F5F5F5F5F5F5F5F5F5F5F5F5F5E2F0E2E2E2E2DCDCDCE2E2E2E2E2E2E2E2E2E2E2E2
310
E2E2E2E2E2E2E2E2F5F5E2E2F5E2E2E2F5F5F5E2E2E2F5E2E2E2E2E2E2E2F0E2E2E2E2E2E2E2E2E2E2E2E2E2E2E2E2E2E2E2E2E2E2E2E2E2E2E2E2E2E2E2E2E2E2E2E2E2E2E2E2E2E2E2E2E2E2E2E2E2E2E2F5E2F5F5F5E2F5E2E2E2E2E2E2E2E2E2E2E2E2E2F0E2E2F0E2E2E2E2E2E2E2ECE2F5F5E2E2E2E2E2E2E2E2E2E2
310
E2E2E2E2E2E2E2E2E2ECE2E2E2E2E2E2E2E2E2E2E2E2E2E2E2E2E2E2E2E2F5F5E2ECE2E2E2E2E2E2F0E2E2E2E2E2E2E2E2E2E2E2E2E2E2E2E2E2E2E2E2F5F5E2E2F5E2E2E2F5F5F5E2E2E2F5E2E2E2E2E2E2E2F0E2E2E2E2E2E2E2E2E2E2E2E2E2E2E2E2E2E2E2E2E2E2E2E2E2E2E2E2E2E2E2E2E2E2E2E2E2E2E2E2E2E2E2
310
E2E2E2E2E2E2E2E2F5E2F5F5F5E2F5E2E2E2E2E2E2E2E2E2E2E2E2E2F0E2E2F0E2E2E2E2E2E2E2F5E2F5F5E2E2E2E2E2E2E2E2E2E2E2E2E2E2E2E2E2E2E2ECE2E2E2E2E2E2E2E2E2E2E2E2E2E2E2E2E2E2E2E2F5F5E2F5E2E2E2E2E2E2F0E2E2E2E2E2E2E2E2E2E2E2E2E2E2E2E2E2E2E2E2F5F5E2E2F5E2E2E2F5F5F5E2E2
310
E2F5E2E2E2E2E2E2E2F0E2E2E2E2E2E2E2E2E2E2E2E2E2E2E2E2E2E2E2E2E2E2E2E2E2E2E2E2E2E2E2E2E2E2E2E2E2E2E2E2E2E2E2E2E2E2E2E2E2E2E2F5E2F5F5F5E2F5E2E2E2E2E2E2E2E2E2E2E2E2E2F0E2E2F0E2E2E2E2E2E2E2F5E2F5F5E2E2E2E2E2E2E2E2E2E2E2E2E2E2E2E2F5F5F5F5F5F5F5F5E2E2E2E2E2E2E2
310
E2E2E2E2E2E2E2E2E2F5F5E2F5E2E2E2E2E2E2F0E2E2E2E2E2E2E2E2E2E2E2E2E2E2E2E2E2F5F5F5F5F5E2E2F5E2E2E2F5F5F5F5F5F5F5E2E2E2E2E2E2E2F0E2E2E2E2E2E2E2E2E2E2E2E2E2E2E2E2E2E2E2E2E2E2E2E2E2E2E2E2E2E2E2E2E2E2E2E2E2E2E2E2E2E2E2E2E2E2E2E2E2E2E2F5E2F5F5F5E2F5E2E2E2E2E2E2
310
E2E2E2E2E2E2E2F0E2E2F0E2E2E2E2E2E2E2F5E2F5F5E2E2E2E2E2E2E2E2E2E2E2E2E2E2F5F5F5F5F5F5F5F5F5F5F5F5E2E2E2E2E2E2E2E2E2E2E2E2E2E2F5F5E2F5E2E2E2E2E2E2F0E2E2E2E2E2E2E2E2E2E2E2E2E2E2E2E2E2F5E2F5F5F5E2E2F5E2E2E2F5F5F5F5F5F5F5E2E2E2E2E2E2E2F0E2E2E2E2E2E2E2E2E2E2E2
310
E2E2E2E2E2E2E2E2E2E2E2E2E2E2E2E2E2E2E2E2E2E2E2E2E2E2E2E2E2E2E2E2E2E2E2E2E2E2E2E2F5E2F5F5F5E2F5E2E2E2E2E2E2E2E2E2E2E2E2E2F0E2E2F0E2E2E2E2E2E2E2F5E2F5F5E2E2E2E2E2E2E2E2E2E2E2E2F5F5F5F5E2E2E2ECE2E2E2E2F5F5F5F5E2E2E2E2E2E2E2E2E2E2E2E2F5F5E2F5E2E2E2E2E2E2F0E2
310
E2E2E2E2E2E2E2E2E2E2E2E2E2E2E2E2F5E2F5F5F5E2E2F5E2E2E2F5F5F5E2E2F5F5E2E2E2E2E2E2E2F0E2E2E2E2E2E2E2E2E2E2E2E2E2E2E2E2E2E2E2E2E2E2E2E2E2E2E2E2E2E2E2E2E2E2E2E2E2E2E2E2E2E2E2E2E2E2E2E2E2E2E2F5E2F5F5F5E2F5E2E2E2E2E2E2E2E2E2E2E2E2E2F0E2DCDCE2E2E2E2E2E2E2F5E2F5
310
F5E2E2E2E2E2E2E2E2E2E2E2F5E2F5E2E2E2E2E2ECE2E2E2E2E2E2F5E2F5E2E2E2E2E2E2E2E2E2E2E2F5F5E2F5E2E2E2E2E2E2F0E2E2E2E2E2E2E2E2E2E2E2E2E2E2E2E2E2F5E2F5F5F5E2E2F5E2E2E2F5F5F5E2E2F5F5E2E2E2E2E2E2E2F0E2E2E2E2E2E2E2E2E2E2E2E2E2E2E2E2E2E2E2E2E2E2E2E2E2E2E2E2E2E2E2E2
310
E2E2E2E2E2E2E2E2E2E2E2E2E2E2E2E2E2E2E2F5E2F5F5F5E2F5E2E2E2E2E2E2E2E2E2E2E2E2E2F0E2DCDCE2E2E2E2E2E2E2F5E2F5F5E2E2E2E2E2E2E2E2E2E2F5E2F5E2E2E2E2F5F5F5F5F5F5E2E2E2E2F5E2F5E2E2E2E2E2E2E2E2E2E2F5F5E2F5E2E2E2E2E2E2F0E2E2E2E2E2E2E2E2E2E2E2E2E2E2E2E2E2F5E2F5F5F5
310
E2E2F5E2E2E2F5F5F5E2E2F5F5E2E2E2E2E2DCDCDCE2E2E2E2E2E2E2E2E2E2E2E2E2E2E2E2E2E2E2E2E2E2E2E2E2E2E2E2E2E2E2E2E2E2E2E2E2E2E2E2E2E2E2E2E2E2E2E2E2E2E2F5E2F5F5F5E2F5E2E2E2E2E2E2E2E2E2E2E2DCDCDCE2DCDCE2E2E2E2E2E2E2F5E2F5F5E2E2E2E2E2E2E2E2E2F5E2F5E2E2E2F5F5E2E2EC
310
E2E2E2F5F5E2E2E2F5E2F5E2E2E2E2E2E2E2E2E2F5F5E2F5E2E2E2E2E2E2F0E2E2E2E2E2E2E2E2E2E2E2E2E2E2E2E2E2F5E2F5F5F5E2E2F5E2E2E2F5F5F5E2E2F5F5E2E2E2E2E2DCDCDCE2E2E2E2E2E2E2E2E2E2E2E2E2E2E2E2E2E2E2E2E2E2E2E2E2E2E2E2E2E2E2E2E2E2E2E2E2E2E2E2E2E2E2E2E2E2E2E2E2E2E2F5E2
310
F5F5F5E2F5E2E2E2E2E2E2E2E2E2E2E2DCDCDCE2DCDCE2E2E2E2E2E2E2F5E2F5F5E2E2E2E2E2E2E2E2F5F5F5E2E2F5F5E2E2E2E2ECE2E2E2E2E2F5F5E2E2F5E2F5E2E2E2E2E2E2E2E2F5F5E2F5E2E2E2E2E2E2F0E2E2E2E2E2E2E2E2E2E2E2E2E2E2E2E2E2F5E2F5F5F5E2E2F5E2E2E2F5F5F5E2E2F5F5E2E2E2E2E2DCDCDC
310
E2E2E2E2E2E2E2E2E2E2E2E2E2E2E2E2E2E2E2E2E2E2E2E2E2E2E2E2E2E2E2E2E2E2E2E2E2E2E2E2E2E2E2E2E2E2E2E2E2E2E2F5E2F5F5F5E2F5E2E2E2E2E2E2E2E2E2E2E2DCDCDCE2E2F0E2E2E2E2E2E2E2F5E2F5F5E2E2E2E2E2E2E2F5F5E2F5E2F5E2E2E2E2E2E2ECE2E2E2E2E2E2E2F5E2E2F5F5E2E2E2E2E2E2E2E2F5
310
F5E2F5E2E2E2E2E2E2F0E2E2E2E2E2E2E2E2E2E2E2E2E2E2E2E2E2F5E2F5F5F5E2E2F5E2E2E2F5F5F5E2E2F5F5E2E2E2E2E2DCDCDCE2E2E2E2E2E2E2E2E2E2E2E2E2E2E2E2E2E2E2E2E2E2E2E2E2E2E2E2E2E2E2E2E2E2E2E2E2E2E2E2E2E2E2E2E2E2E2E2E2E2E2F5E2F5F5F5E2F5E2E2E2E2E2E2E2E2E2E2E2DCDCDCE2E2
310
F0E2E2E2E2E2E2E2F5E2F5F5E2E2E2E2E2E2E2F5F5F5E2F5E2E2E2E2E2E2E2ECE2E2E2E2E2E2E2F5E2E2F5F5E2E2E2E2F5F5E2E2F5F5E2F5E2E2E2E2E2E2F0E2E2E2E2E2E2E2E2E2E2E2E2E2E2E2E2E2F5E2F5F5F5E2E2F5E2E2E2F5F5F5E2E2F5F5E2E2E2E2E2E2E2F0E2E2E2E2E2E2E2E2E2E2E2E2E2E2E2E2E2E2E2E2E2
310
E2E2E2E2E2E2E2E2E2E2E2E2E2E2E2E2E2E2E2E2E2E2E2E2E2E2E2E2E2E2F5E2F5F5F5E2F5E2E2E2E2E2E2E2E2E2E2E2E2E2F0E2E2F0E2E2E2E2E2E2E2F5E2F5F5E2E2E2E2E2E2F5F5E2F5E2F5E2E2E2E2E2E2E2ECE2E2E2E2E2E2E2F5E2E2E2F5F5E2E2E2F5F5F5E2F5F5E2F5E2E2E2E2E2E2F0E2E2E2E2E2E2E2E2E2E2E2
310
E2E2E2E2E2E2F5E2F5F5F5E2E2F5E2E2E2F5F5F5E2E2F5F5E2E2E2E2E2E2E2F0E2E2E2E2E2E2E2E2E2E2E2E2E2E2E2E2E2E2E2E2E2E2E2E2E2E2E2E2E2E2E2E2E2E2E2E2E2E2E2E2E2E2E2E2E2E2E2E2E2E2E2F5E2F5F5F5E2F5E2E2E2E2E2E2E2E2E2E2E2E2E2F0E2E2F0E2E2E2E2E2E2E2F5E2F5F5E2E2E2E2E2E2F5F5F5
310
E2F5E2E2E2E2E2E2E2E2ECE2E2E2E2E2E2E2E2F5E2E2F5F5E2E2E2F5F5E2E2F5F5E2F5E2E2E2E2E2E2F0E2E2E2E2E2E2E2E2E2E2E2E2E2E2E2E2E2F5E2F5F5F5E2E2F5E2E2E2F5F5F5E2E2F5F5E2E2E2E2E2E2E2F0E2E2E2E2E2E2E2E2E2E2E2E2E2E2E2E2E2E2E2E2E2E2E2E2E2E2E2E2E2E2E2E2E2E2E2E2E2E2E2E2E2E2
310
E2E2E2E2E2E2E2E2E2F5E2F5F5F5E2F5E2E2E2E2E2E2E2E2E2E2E2E2E2F0E2E2F0E2E2E2E2E2E2E2F5E2F5F5E2E2E2E2E2E2F5F5F5E2F5E2E2E2E2E2E2E2E2ECE2E2E2E2E2E2E2E2F5E2E2F5F5E2E2E2E2E2E2E2F5F5E2F5E2E2E2E2E2E2F0E2E2E2E2E2E2E2E2E2E2E2E2E2E2E2E2E2F5E2F5F5F5E2E2F5E2E2E2F5F5F5F5
310
F5F5F5E2E2E2E2E2E2E2F0E2E2E2E2E2E2E2E2E2E2E2E2E2E2E2E2E2E2E2E2E2E2E2E2E2E2E2E2E2E2E2E2E2E2E2E2E2E2E2E2E2E2E2E2E2E2E2E2E2E2E2F5E2F5F5F5E2F5E2E2E2E2E2E2E2E2E2E2E2E2E2F0E2E2F0E2E2E2E2E2E2E2F5E2F5F5E2E2E2E2E2E2F5E2F5E2F5E2E2E2E2E2E2E2E2ECE2E2E2E2E2E2E2E2E2F5
310
E2F5E2F5E2E2E2E2E2E2F5F5E2F5E2E2E2E2E2E2F0F0E2E2E2E2E2E2E2E2E2E2E2E2E2E2E2E2F5E2F5F5F5E2E2F5E2E2E2F5F5E2E2E2E2F5E2E2E2E2E2E2E2F0E2E2E2E2E2E2E2E2E2E2E2E2E2E2E2E2E2E2E2E2E2E2E2E2E2E2E2E2E2E2E2E2E2E2E2E2E2E2E2E2E2E2E2E2E2E2E2E2E2E2E2F5E2F5F5F5E2F5E2E2E2E2E2
310
E2E2E2E2E2E2E2E2F0E2E2F0E2E2E2E2E2E2E2F5E2F5F5ECECECECECECF5ECF5ECF5ECECECECECECECECECECECECECECECECECECF5ECF5ECF5ECECECECECF0F5F0F0F0F0F0F0F0F0F0ECF0E2E2E2E2E2E2E2E2E2E2E2E2E2E2E2E2F5E2F5F5F5E2E2F5E2E2E2F5F5E2E2E2E2F5E2E2E2E2E2E2E2F0E2E2E2E2E2E2E2E2E2E2
310
E2E2E2E2E2E2E2E2E2E2E2E2E2E2E2E2E2E2E2E2E2E2E2E2E2E2E2E2E2E2E2E2E2E2E2E2E2E2E2E2E2F5E2F5F5F5E2F5E2E2E2E2E2E2E2E2E2E2E2E2E2F0E2E2F0E2E2E2E2E2E2E2F5E2F5F5E2E2E2E2E2E2F5E2F5E2F5E2E2E2E2E2E2E2E2ECE2E2E2E2E2E2E2E2E2F5E2F5E2F5E2E2E2E2E2E2F5F5E2F5E2E2E2E2E2E2F0
310
F0E2E2E2E2E2E2E2E2E2E2E2E2E2E2E2E2F5E2F5F5F5E2E2F5E2E2E2F5F5E2E2E2E2F5E2E2E2E2E2E2E2F0E2E2E2E2E2E2E2E2E2E2E2E2E2E2E2E2E2E2E2E2E2E2E2E2E2E2E2E2E2E2E2E2E2E2E2E2E2E2E2E2E2E2E2E2E2E2E2E2E2E2E2F5E2F5F5F5E2F5E2E2E2E2E2E2E2E2E2E2E2E2E2F0E2E2F0E2E2E2E2E2E2E2F5E2
310
F5F5E2E2E2E2E2E2F5F5F5E2F5E2E2E2E2E2E2E2E2ECE2E2E2E2E2E2E2E2F5E2E2F5F5E2E2E2E2E2E2E2F5F5E2F5E2E2E2E2E2E2F0E2E2E2E2E2E2E2E2E2E2E2E2E2E2E2E2E2F5E2F5F5F5E2E2F5F5F5F5F5F5E2E2E2E2F5E2E2E2E2E2E2E2F0E2E2E2E2E2E2E2E2E2E2E2E2E2E2E2E2E2E2E2E2E2E2E2E2E2E2E2E2E2E2E2
310
E2E2E2E2E2E2E2E2E2E2E2E2E2E2E2E2E2E2E2E2F5E2F5F5F5E2F5E2E2E2E2E2E2E2E2E2E2E2E2E2F0E2E2F0E2E2E2E2E2E2E2ECE2F5F5E2E2F5E2E2E2F5F5F5E2F5E2E2E2E2E2E2E2E2ECE2E2E2E2E2E2E2E2F5E2E2F5F5E2E2E2E2E2E2E2F5F5E2ECE2E2E2E2E2E2F0E2E2E2E2E2E2E2E2E2E2E2E2E2E2E2E2E2F5E2F5F5
310
F5E2E2E2E2E2E2E2F5E2E2E2E2F5E2E2E2E2E2E2E2F0E2E2E2E2E2E2E2E2E2E2E2E2E2E2E2E2E2E2E2E2E2E2E2E2E2E2E2E2E2E2E2E2E2E2E2E2E2E2E2E2E2E2E2E2E2E2E2E2E2E2E2F5E2F5F5F5E2F5E2E2E2E2E2E2E2E2E2E2E2E2E2F0E2E2F0E2E2E2E2E2E2E2F0E2F5F5E2F5F5F5E2E2F5F5E2F5E2F5E2E2E2E2E2E2E2
310
ECE2E2E2E2E2E2E2E2F5E2E2F5F5E2E2E2E2E2E2E2F5F5E2F0E2E2E2E2E2E2F0E2E2E2E2E2E2E2E2E2E2E2E2E2E2E2E2E2F5E2F5F5F5E2E2E2E2E2E2E2F5E2E2E2E2F5E2E2E2E2E2E2E2F0E2E2E2E2E2E2E2E2E2E2E2E2E2E2E2E2E2E2E2E2E2E2E2E2E2E2E2E2E2E2E2E2E2E2E2E2E2E2E2E2E2E2E2E2E2E2E2E2E2E2E2F5
310
E2F5F5F5E2F5E2E2E2E2E2E2E2E2E2E2E2E2E2F0E2E2F0E2E2E2E2E2E2E2F0E2F5F5E2E2F5F5E2E2E2F5F5F5E2F5E2E2E2E2E2E2E2ECE2E2E2E2E2E2E2F5E2E2F5F5E2E2E2E2E2E2E2E2F5F5E2F0E2E2E2E2E2E2F0E2E2E2E2E2E2E2E2E2E2E2E2E2E2E2E2E2F5E2F5F5F5E2E2E2E2E2E2F5E2E2E2E2E2F5E2E2E2E2E2E2E2
310
F0E2E2E2E2E2E2E2E2E2E2E2E2E2E2E2E2E2E2E2E2E2E2E2E2E2E2E2E2E2E2E2E2E2E2E2E2E2E2E2E2E2E2E2E2E2E2E2E2E2E2E2F5E2F5F5F5E2F5E2E2E2E2E2E2E2E2E2E2E2E2E2F0E2E2F0E2E2E2E2E2E2E2F0E2F5F5E2E2E2E2E2E2E2F5F5F5E2E2F5E2E2E2E2E2E2ECE2E2E2E2E2E2E2F5E2E2F5F5E2E2E2E2E2E2E2E2
310
F5F5E2F0E2E2E2E2E2E2F0E2E2E2E2E2E2E2E2E2E2E2E2E2E2E2E2E2F5E2F5F5F5E2E2E2E2E2E2F5E2E2E2E2E2F5E2E2E2E2E2E2E2F0E2E2E2E2E2E2E2E2E2E2E2E2E2E2E2E2E2E2E2E2E2E2E2E2E2E2E2E2E2E2E2E2E2E2E2E2E2E2E2E2E2E2E2E2E2E2E2E2E2E2E2F5E2F5F5F5E2F5E2E2E2E2E2E2E2E2E2E2E2E2E2F0E2
310
E2F0E2E2E2E2E2E2E2F0E2F5F5E2E2E2E2E2E2E2E2F5F5F5E2E2F5E2E2E2E2E2ECE2E2E2E2E2E2F5E2E2F5E2F5E2E2E2E2E2E2E2E2F5F5E2F0E2E2E2E2E2E2F0E2E2E2E2E2E2E2E2E2E2E2E2E2E2E2E2E2F5E2F5F5F5E2E2E2E2E2E2F5E2E2E2E2E2F5E2E2E2E2E2E2E2F0E2E2E2E2E2E2E2E2E2E2E2E2E2E2E2E2E2E2E2E2
310
E2E2E2E2E2E2E2E2E2E2E2E2E2E2E2E2E2E2E2E2E2E2E2E2E2E2E2E2E2E2E2F5E2F5F5F5E2F5E2E2E2E2E2E2E2E2E2E2E2E2E2F0E2E2F0E2E2E2E2E2E2E2F0E2F5F5E2E2E2E2E2E2E2E2E2F5F5E2E2E2F5F5E2E2E2ECE2E2E2E2F5F5E2E2E2F5F5E2E2E2E2E2E2E2E2E2F5F5E2F0E2E2E2E2DCDCDCE2E2E2E2E2E2E2E2E2E2
310
E2E2E2E2E2E2E2F5E2F5F5F5E2E2E2E2E2F5E2E2E2E2E2E2F5E2E2E2E2E2E2E2F0E2E2E2E2E2E2E2E2E2E2E2E2E2E2E2E2E2E2E2E2E2E2E2E2E2E2E2E2E2E2E2E2E2E2E2E2E2E2E2E2E2E2E2E2E2E2E2E2E2E2E2F5E2F5F5F5E2F5E2E2E2E2E2E2E2E2E2E2E2E2E2F0E2E2F0E2E2E2E2E2E2E2F0E2F5F5E2E2E2E2E2E2E2E2
310
E2E2F5F5F5E2E2E2F5F5F5F5F5F5F5F5E2E2E2F5F5F5E2E2E2E2E2E2E2E2E2E2F5F5E2F0E2E2E2E2DCDCDCE2E2E2E2E2E2E2E2E2E2E2E2E2E2E2E2E2F5E2F5F5F5E2E2E2E2E2F5E2E2E2E2E2F5F5E2E2E2E2E2E2E2F0E2E2E2E2E2E2E2E2E2E2E2E2E2E2E2E2E2E2E2E2E2E2E2E2E2E2E2E2E2E2E2E2E2E2E2E2E2E2E2E2E2
310
E2E2E2E2E2E2E2E2E2E2F5E2F5F5F5E2F5E2E2E2E2E2E2E2E2E2E2E2E2E2F0E2E2F0E2E2E2E2E2E2E2F0E2F5F5E2E2E2E2E2E2E2E2E2E2F5F5E2F5E2E2E2E2E2ECE2E2E2E2E2E2F5E2F5F5E2E2E2E2E2E2E2E2E2E2F5F5E2F0E2E2E2E2DCDCDCE2E2E2E2E2E2E2E2E2E2E2E2E2E2E2E2E2F5E2F5F5F5E2E2E2E2F5E2E2E2E2
310
E2E2F5F5E2E2E2E2E2E2E2F0E2E2E2E2E2E2E2E2E2E2E2E2E2E2E2E2E2E2E2E2E2E2E2E2E2E2E2E2E2E2E2E2E2E2E2E2E2E2E2E2E2E2E2E2E2E2E2E2E2E2E2F5E2F5F5F5E2F5E2E2E2E2E2E2E2E2E2E2E2E2E2F0E2E2F0E2E2E2E2E2E2E2F0E2F5F5E2E2E2E2E2E2E2E2E2E2E2F5F5F5F5F5E2E2E2ECE2E2E2E2F5F5F5F5F5
310
E2E2E2E2E2E2E2E2E2E2E2F5F5E2F0E2E2E2E2DCDCDCE2E2E2E2E2E2E2E2E2E2E2E2E2E2E2E2E2F5E2F5F5F5E2E2E2E2F5E2E2E2E2E2E2F5F5E2E2E2E2E2E2E2F0E2E2E2E2E2E2E2E2E2E2E2E2E2E2E2E2E2E2E2E2E2E2E2E2E2E2E2E2E2E2E2E2E2E2E2E2E2E2E2E2E2E2E2E2E2E2E2E2E2E2E2F5E2F5F5F5E2F5E2E2E2E2
310
E2E2E2E2E2E2E2E2E2F0E2E2F0E2E2E2E2E2E2E2F0E2F5F5E2E2E2E2E2E2E2E2E2E2E2E2E2F5F5F5F5F5F5F5F5F5F5F5F5F5F5E2E2E2E2E2E2E2E2E2E2E2E2E2F5F5E2F0E2E2E2E2E2E2F0E2E2E2E2E2E2E2E2E2E2E2E2E2E2E2E2E2F5E2F5F5F5E2E2E2E2F5E2E2E2E2E2E2F5F5ECF0F0F0F0F0F0F0F0E2E2E2E2E2E2E2E2
310
E2E2E2E2E2E2E2E2E2E2E2E2E2E2E2E2E2E2E2E2E2E2E2E2E2E2E2E2E2E2E2E2E2E2E2E2E2E2E2E2E2E2F5E2F5F5F5E2F5E2E2E2E2E2E2E2E2E2E2E2E2E2F0E2E2F0E2E2E2E2E2E2E2F0E2F5F5E2E2E2E2E2E2E2E2E2E2E2E2E2E2E2F5F5F5F5F5F5F5F5F5E2E2E2E2E2E2E2E2E2E2E2E2E2E2E2E2F5F5E2F0E2E2E2E2E2E2
310
F0E2E2E2E2E2E2E2E2E2E2E2E2E2E2E2E2E2F5F5F5F5F5E2E2E2E2F5E2E2E2E2E2E2F5F5E2E2E2E2E2E2E2F0E2E2E2E2E2E2E2E2E2E2E2E2E2E2E2E2E2E2E2E2E2E2E2E2E2E2E2E2E2E2E2E2E2E2E2E2E2E2E2E2E2E2E2E2E2E2E2E2E2E2E2F5E2F5F5F5E2F5E2E2E2E2E2E2E2E2E2E2E2E2E2F0E2E2F0E2E2E2E2E2E2E2F0
310
E2F5F5E2E2E2E2E2E2E2E2E2E2E2E2E2E2E2E2E2E2E2ECE2E2E2E2E2E2E2E2E2E2E2E2E2E2E2E2E2E2E2E2F5F5E2F0E2E2E2E2E2E2F0E2E2E2E2E2E2E2E2E2E2E2E2E2E2E2E2E2E2E2E2F5F5E2E2E2F5E2E2E2E2E2E2E2F5F5E2E2E2E2E2E2E2F0E2E2E2E2E2E2E2E2E2E2E2E2E2E2E2E2E2E2E2E2E2E2E2E2E2E2E2E2E2E2
310
E2E2E2E2E2E2E2E2E2E2E2E2E2E2E2E2E2E2E2E2E2F5E2F5F5F5E2F5E2E2E2E2E2E2E2E2E2E2E2E2E2F0E2E2F0E2E2E2E2E2E2E2F0E2F5F5E2E2E2E2E2E2E2E2E2E2E2E2E2E2E2E2E2E2E2ECE2E2E2E2E2E2E2E2E2E2E2E2E2E2E2E2E2E2E2E2F5F5E2F0E2E2E2E2E2E2F0E2E2E2E2E2E2E2E2E2E2E2E2E2E2E2E2E2E2E2E2
310
F5F5E2E2E2F5E2E2E2E2E2E2E2F5F5E2E2E2E2E2DCDCDCE2E2E2E2E2E2E2E2E2E2E2E2E2E2E2E2E2E2E2E2E2E2E2E2E2E2E2E2E2E2E2E2E2E2E2E2E2E2E2E2E2E2E2E2E2E2E2E2E2E2E2F5E2F5F5F5E2F5E2E2E2E2E2E2E2E2E2E2E2E2E2F0E2E2F0E2E2E2E2E2E2E2F0E2F5F5F5F5F5F5F5F5F5F5F5F5F5F5F5F5F5F5F5F5
310
F5F5F5F5F5F5F5F5F5F5F5F5F5F5F5F5F5F5F5F5F5F5F5F5E2F0E2E2E2E2E2E2F0E2E2E2E2E2E2E2E2E2E2E2E2E2E2E2E2E2E2E2E2F5F5E2E2E2F5E2E2E2E2E2E2E2F5F5E2E2E2E2E2DCDCDCE2E2E2E2E2E2E2E2E2E2E2E2E2E2E2E2E2E2E2E2E2E2E2E2E2E2E2E2E2E2E2E2E2E2E2E2E2E2E2E2E2E2E2E2E2E2E2E2E2E2E2
310
F5E2F5F5F5E2F5E2E2E2E2E2E2E2E2E2E2E2E2E2F0E2E2F0E2E2E2E2E2E2E2F0E2F5F5E2E2E2E2E2E2E2E2E2E2E2E2E2E2E2E2E2E2E2F0E2E2E2E2E2E2E2E2E2E2E2E2E2E2E2E2E2E2E2E2E2F5E2F0E2E2E2E2E2E2F0E2E2E2E2E2E2E2E2E2E2E2E2E2E2E2E2E2E2E2E2E2F5E2E2E2F5E2E2E2E2E2E2E2E2F5E2E2E2E2E2DC
310
DCDCE2E2E2E2E2E2E2E2E2E2E2E2E2E2E2E2E2E2E2E2E2E2E2E2E2E2E2E2E2E2E2E2E2E2E2E2E2E2E2E2E2E2E2E2E2E2E2E2E2E2E2F5E2F5F5F5E2F5E2E2E2E2E2E2E2E2E2E2E2E2E2F0E2E2F0F0E2E2E2E2E2E2F0F5F5F5F5F5F5F5F5F5F5F5F5F5F5F5F5F5F5F5F5F5F5F0F5F5F5F5F5F5F5F5F5F5F5F5F5F5F5F5F5F5F5
310
F5F5F5E2F0E2E2E2E2E2E2F0F0E2E2E2E2E2E2E2E2E2E2E2E2E2E2E2E2E2E2E2E2F5E2E2F5E2E2E2E2E2E2E2E2F5E2E2E2E2E2E2E2E2F0E2E2E2E2E2E2E2E2E2E2E2E2E2E2E2E2E2E2E2E2E2E2E2E2E2E2E2E2E2E2E2E2E2E2E2E2E2E2E2E2E2E2E2E2E2E2E2E2E2E2E2F5E2F5F5F5E2F5E2E2E2E2E2E2E2E2E2E2E2E2E2F0
310
E2E2F0F0E2E2E2E2E2E2F0F5F5E2E2E2E2E2E2E2E2E2E2E2E2E2E2E2E2E2E2E2E2F0E2E2E2E2E2E2E2E2E2E2E2E2E2E2E2E2E2E2E2E2E2F5F5F0E2E2E2E2E2E2F0F0E2E2E2E2E2E2E2E2E2E2E2E2E2E2E2E2E2E2E2E2F5F5F5ECF0F0F0F0F0F0F0F0F0F0F0F0F0F0F0F0F0ECF0E2E2E2E2E2E2E2E2E2E2E2E2E2E2E2E2E2E2
310
E2E2E2E2E2E2E2E2E2E2E2E2E2E2E2E2E2E2E2E2E2E2E2E2E2E2E2E2E2E2E2E2F5E2F5F5F5E2F5E2E2E2E2E2E2E2E2E2E2E2E2E2F0E2F0F0F0F0F0F0F0F0F0F0F0F0ECF5F5F5F5F5F5F5F5F5F5F5F5F5F5F5F5F5F5F5F0F5F5F5F5F5F5F5F5F5F5F5F5F5F5F5F5F5F5F5F5ECF0F0F0F0F0F0F0F0F0F0F0E2E2E2E2E2E2E2E2
310
E2E2E2E2E2E2E2E2E2E2E2E2E2E2E2F5E2E2F5F5F5E2E2E2E2E2E2E2E2E2E2E2E2E2E2E2E2E2E2E2E2E2E2E2E2E2E2E2E2E2E2E2E2E2E2E2E2E2E2E2E2E2E2E2E2E2E2E2E2E2E2E2E2E2E2E2E2E2E2E2E2E2E2E2E2F5E2F5F5F5E2F5E2E2E2E2E2E2E2E2E2E2E2E2E2F0E2DCDCF0E2E2E2E2E2E2F0E2E2E2E2E2E2F5E2E2F5
310
F5E2F5F5F5E2E2E2E2E2E2E2F0E2E2E2E2E2E2E2E2E2E2E2E2E2E2E2E2E2E2E2E2E2E2E2F0E2E2E2E2E2E2E2E2E2E2E2E2E2E2E2E2E2E2E2E2E2E2E2E2E2E2E2E2E2E2E2F5E2E2F5E2E2E2E2E2E2E2E2E2E2E2E2E2E2E2E2E2E2E2E2E2E2E2E2E2E2E2E2E2E2E2E2E2E2E2E2E2E2E2E2E2E2E2E2E2E2E2E2E2E2E2E2E2E2E2
310
E2E2E2E2E2E2E2E2E2E2E2F5E2F5F5F5E2F5E2E2E2E2E2E2E2E2E2E2E2E2E2F0E2DCDCE2E2E2E2E2E2E2F0E2E2E2E2E2E2F5F5E2F5F5E2F5F5E2E2E2E2E2E2E2E2F0E2E2E2E2E2E2E2E2E2E2E2E2E2E2E2E2E2E2E2E2E2E2E2F0E2E2E2E2E2E2E2E2E2E2E2E2E2E2E2E2E2E2E2E2E2E2E2E2E2E2E2E2E2E2E2F5E2E2F5E2E2
310
E2E2E2E2E2E2E2E2E2E2E2E2E2E2E2E2E2E2E2E2E2E2E2E2E2E2E2E2E2E2E2E2E2E2E2E2E2E2E2E2E2E2E2E2E2E2E2E2E2E2E2E2E2E2E2E2E2E2E2E2E2E2E2E2F5E2F5F5F5E2F5E2E2E2E2E2E2E2E2E2E2E2E2E2F0E2E2DCF0E2E2E2E2E2E2F0E2E2E2E2E2E2F5F5F5F5F5F5F5F5E2E2E2E2E2E2E2E2F0E2E2E2E2E2E2E2E2
310
E2E2E2E2E2E2E2E2E2E2E2E2E2E2E2F0E2E2E2E2E2E2E2E2E2E2E2E2E2E2E2E2E2E2E2E2E2E2E2E2E2E2E2E2E2E2E2F5E2E2F5E2E2E2E2E2E2E2E2E2E2E2E2E2E2E2E2E2E2E2E2E2E2E2E2E2E2E2E2E2E2E2E2E2E2E2E2E2E2E2E2E2E2E2E2E2E2E2E2E2E2E2E2E2E2E2E2E2E2E2E2E2E2E2E2E2E2F5E2F5F5F5E2F5E2E2E2
310
E2E2E2E2E2E2E2E2E2F0F0F0F0F0F0ECF0F0F0F0F0F0F0F0F0F0F0F0F0ECF5F5F5F5F5F5E2E2E2E2E2E2E2E2F0E2E2E2E2E2E2E2E2E2E2E2E2E2E2E2E2E2E2E2E2E2E2E2F0E2E2E2E2E2E2E2E2E2E2E2E2E2E2E2E2E2E2E2E2E2E2E2E2E2E2E2E2E2E2E2F5F5F5F5E2E2E2E2E2E2E2E2E2E2E2E2E2E2E2E2E2E2E2E2E2E2E2
310
E2E2E2E2E2E2E2E2E2E2E2E2E2E2E2E2E2E2E2E2E2E2E2E2E2E2E2E2E2E2E2E2E2E2E2E2E2E2E2E2E2E2E2F5E2F5F5F5E2F5E2E2E2E2E2E2E2E2E2E2E2E2E2E2E2E2E2E2E2E2E2E2E2E2F0E2E2E2E2E2E2E2E2E2E2E2E2E2E2E2E2E2E2E2E2E2E2F0E2E2E2E2E2E2E2E2E2E2E2E2E2E2E2E2E2E2E2E2E2E2E2F0E2E2E2E2E2
310
E2E2E2E2E2E2E2E2E2E2E2E2E2E2E2E2E2E2E2E2E2E2E2E2E2E2E2E2E2E2E2E2E2E2E2E2E2E2E2E2E2E2E2E2E2E2E2E2E2E2E2E2E2E2E2E2E2E2E2E2E2E2E2E2E2E2E2E2E2E2E2E2E2E2E2E2E2E2E2E2E2E2E2E2E2E2E2E2E2E2E2E2E2E2E2E2F5E2F5F5F5E2F5E2E2E2E2E2E2E2E2E2E2E2E2E2E2E2E2E2E2E2E2E2E2E2E2
310
F0E2E2E2E2E2E2E2E2E2E2E2E2E2E2E2E2E2E2E2E2E2E2F0E2E2E2E2E2E2E2E2E2E2E2E2E2E2E2E2E2E2E2E2E2E2E2F0E2E2E2E2E2E2E2E2E2E2E2E2E2E2E2E2E2E2E2E2E2E2E2E2E2E2E2E2E2E2E2E2E2E2E2E2E2E2E2E2E2E2E2E2E2E2E2E2E2E2E2E2E2E2E2E2E2E2E2E2E2E2E2E2E2E2E2E2E2E2E2E2E2E2E2E2E2E2E2
310
E2E2E2E2E2E2E2E2E2E2E2E2E2E2E2E2E2E2E2E2E2E2F5E2F5F5F5E2F5E2E2E2E2E2E2E2E2E2E2E2E2E2E2E2E2E2E2E2E2E2E2E2E2F0E2E2E2E2E2E2E2E2E2E2E2E2E2E2E2E2E2E2E2E2E2E2F0E2E2E2E2E2E2E2E2E2E2E2E2E2E2E2E2E2E2E2E2E2E2E2F0E2E2E2E2E2E2E2E2E2E2E2E2E2E2E2E2E2E2E2E2E2E2E2E2E2E2
310
E2E2E2E2E2E2E2E2E2E2E2E2E2E2E2E2E2E2E2E2E2E2E2E2E2E2E2E2E2E2E2E2E2E2E2E2E2E2E2E2E2E2E2E2E2E2E2E2E2E2E2E2E2E2E2E2E2E2E2E2E2E2E2E2E2E2E2E2E2E2E2E2E2E2E2F5E2F5F5F5E2F5E2E2E2E2E2E2E2E2E2E2E2E2E2E2E2E2E2E2E2E2E2E2E2E2F0E2E2E2E2E2E2E2E2E2E2E2E2E2E2E2E2E2E2E2E2
310
E2E2F0E2E2E2E2E2E2E2E2E2E2E2E2E2E2E2E2E2E2E2E2E2E2E2F0E2E2E2E2E2E2E2E2E2E2E2E2E2E2E2E2E2E2E2E2E2E2E2E2E2E2E2E2E2E2E2E2E2E2E2E2E2E2E2E2E2E2E2E2E2E2E2E2E2E2E2E2E2E2E2E2E2E2E2E2E2E2E2E2E2E2E2E2E2E2E2E2E2E2E2E2E2E2E2E2E2E2E2E2E2E2E2E2E2E2E2E2E2E2E2E2E2E2E2E2
310
E2F5E2F5F5F5E2F5E2E2E2E2E2E2E2E2E2E2E2E2E2E2E2E2E2E2E2E2E2E2E2E2F0E2E2E2E2E2E2E2E2E2E2E2E2E2E2E2E2E2E2E2E2E2E2F0E2E2E2E2E2E2E2E2E2E2E2E2E2E2E2E2E2E2E2E2E2E2E2F0E2E2E2E2E2E2E2E2E2E2E2E2E2E2E2E2E2E2E2E2E2E2E2E2E2E2E2E2E2E2E2E2E2E2E2E2E2E2E2E2E2E2E2E2E2E2E2
310
E2E2E2E2E2E2E2E2E2E2E2E2E2E2E2E2E2E2E2E2E2E2E2E2E2E2E2E2E2E2E2E2E2E2E2E2E2E2E2E2E2E2E2E2E2E2E2E2E2E2E2E2E2E2F5E2F5F5F5E2F5E2E2E2E2E2E2E2E2E2E2E2E2E2E2E2E2E2E2E2E2E2E2E2E2F0E2E2E2E2E2E2E2E2E2E2E2E2E2E2E2E2E2E2E2E2E2E2F0E2E2E2E2E2E2E2E2E2E2E2E2E2E2E2E2E2E2
310
E2E2E2E2E2F0E2E2E2E2E2E2E2E2E2E2E2E2E2E2E2E2E2E2E2E2E2E2E2E2E2E2E2E2E2E2E2E2E2E2E2E2E2E2E2E2E2E2E2E2E2E2E2E2E2E2E2E2E2E2E2E2E2E2E2E2E2E2E2E2E2E2E2E2E2E2E2E2E2E2E2E2E2E2E2E2E2E2E2E2E2E2E2E2E2E2E2E2E2E2E2E2E2E2E2E2E2F5E2F5F5F5E2F5E2E2E2E2E2E2E2E2E2E2E2E2E2
310
E2E2E2E2E2E2E2E2E2E2E2F0F0F0F0F0F0F0F0F0F0DCF0F0DCF0F0F0F0F0F0F0F0F0ECF0F0F0F0F0F0F0F0F0F0DCF0F0DCF0F0F0F0F0F0F0F0F0F0E2E2E2E2E2E2E2E2E2E2E2E2E2E2E2E2E2E2E2E2E2E2E2E2E2E2E2E2E2E2E2E2E2E2E2E2E2E2E2E2E2E2E2E2E2E2E2E2E2E2E2E2E2E2E2E2E2E2E2E2E2E2E2E2E2E2E2E2
310
E2E2E2E2E2E2E2E2E2E2E2E2E2E2E2E2E2E2E2E2E2E2E2E2E2E2E2E2E2E2E2E2E2F5E2F5F5F5E2F5E2E2E2E2E2E2E2E2E2E2E2E2E2E2E2E2E2E2E2E2E2E2E2E2F0E2E2E2E2E2E2E2E2DCDCDCDCDCDCE2E2E2E2E2E2E2E2F0E2E2E2E2E2E2E2E2E2DCDCDCDCDCDCE2E2E2E2E2E2E2E2F0E2E2E2E2E2E2E2E2E2E2E2E2E2E2E2
310
E2E2E2E2E2E2E2E2E2E2E2E2E2E2E2E2E2E2E2E2E2E2E2E2E2E2E2E2E2E2E2E2E2E2E2E2E2E2E2E2E2E2E2E2E2E2E2E2E2E2E2E2E2E2E2E2E2E2E2E2E2E2E2E2E2E2E2E2E2E2E2E2E2E2E2E2E2E2E2E2E2E2E2E2E2E2F5E2F5F5F5E2F5E2E2E2E2E2E2E2E2E2E2E2E2E2E2E2E2E2E2E2E2E2E2E2E2E2E2E2E2E2E2E2E2E2DC
310
DCDCDCDCDCE2E2E2E2E2E2E2E2E2E2E2E2E2E2E2E2E2E2DCDCDCDCDCDCE2E2E2E2E2E2E2E2E2E2E2E2E2E2E2E2E2E2E2E2E2E2E2E2E2E2E2E2E2E2E2E2E2E2E2E2E2E2E2E2E2E2E2E2E2E2E2E2E2E2E2E2E2E2E2E2E2E2E2E2E2E2E2E2E2E2E2E2E2E2E2E2E2E2E2E2E2E2E2E2E2E2E2E2E2E2E2E2E2E2E2E2E2E2E2E2E2E2
310
E2E2E2E2E2E2E2E2E2E2E2E2F5E2F5F5F5E2F5F5F5F5F5F5F5F5F5F5F5F5F5F5F5F5F5F5F5F5F5F5F5F5F5F5F5F5F5F5F5F5F5F5F5F5F5F5F5F5F5F5F5F5F5F5F5F5F5F5F5F5F5F5F5F5F5F5F5F5F5F5F5F5F5F5F5F5F5F5F5F5F5F5F5F5F5F5F5F5F5F5F5F5F5F5F5F5F5F5F5F5F5F5F5F5F5F5F5F5F5F5F5F5F5F5F5F5F5
310
F5F5F5F5F5F5F5F5F5F5F5F5F5F5F5F5F5F5F5F5F5F5F5F5F5F5F5F5F5F5F5F5F5F5F5F5F5F5F5F5F5F5F5F5F5F5F5F5F5F5F5F5F5F5F5F5F5F5F5F5F5F5F5F5F5F5E2F5F5F5E2F5F5F5F5F5F5F5F5E2E2E2E2E2E2E2E2E2F5F5F5F5F5F5F5F5F5F5F5F5F5F5F5F5E2E2E2E2E2E2E2E2E2F5F5F5F5F5F5F5F5F5F5F5F5F5F5
310
F5F5E2E2E2E2E2E2E2E2E2F5F5F5F5F5F5F5F5F5F5F5F5F5F5F5F5E2E2E2E2E2E2E2E2E2F5F5F5F5F5F5F5F5F5F5F5F5F5F5F5F5E2E2E2E2E2E2E2E2E2F5F5F5F5F5F5F5F5F5F5F5F5F5F5F5F5E2E2E2E2E2E2E2E2E2F5F5F5F5F5F5F5F5F5F5F5F5F5F5F5F5E2E2E2E2E2E2E2E2E2F5F5F5F5F5F5F5F5E2F5EFF5F5F5F5F5
310
F5F5F5F5F5F5F5F5F5F5F5F5F5F5F5F5F5F5F5F5F5F5F5F5F5F5F5F5F5F5F5F5F5F5F5F5F5F5F5F5F5F5F5F5F5F5F5F5F5F5F5F5F5F5F5F5F5F5F5F5F5F5F5F5F5F5F5F5F5F5F5F5F5F5F5F5F5F5F5F5F5F5F5F5F5F5F5F5F5F5F5F5F5F5F5F5F5F5F5F5F5F5F5F5F5F5F5F5F5F5F5F5F5F5F5F5F5F5F5F5F5F5F5F5F5F5F5
310
F5F5F5F5F5F5F5F5F5F5F5F5F5F5F5F5F5F5F5F5F5F5F5F5F5F5F5F5F5F5F5F5F5F5F5F5F5F5F5F5F5F5F5F5F5F5F5EF
  0
XRECORD
  5
14397
102
{ACAD_REACTORS
330
141C0
102
}
330
141C0
100
AcDbXrecord
280
     1
102
MATERIAL
148
0.0
149
0.0
149
0.0
 93
        0
 94
      127
282
     0
 72
     0
 77
     0
171
     0
175
     0
179
     0
273
     0
  0
XRECORD
  5
141C2
102
{ACAD_REACTORS
330
141C0
102
}
330
141C0
100
AcDbXrecord
280
     1
270
     1
271
     1
  0
XRECORD
  5
141C1
102
{ACAD_REACTORS
330
141C0
102
}
330
141C0
100
AcDbXrecord
280
     1
270
     1
271
     1
  0
XRECORD
  5
141C5
102
{ACAD_REACTORS
330
141C0
102
}
330
141C0
100
AcDbXrecord
280
     1
270
     1
271
     1
  0
XRECORD
  5
141C4
102
{ACAD_REACTORS
330
141C0
102
}
330
141C0
100
AcDbXrecord
280
     1
270
     1
271
     1
  0
XRECORD
  5
141C6
102
{ACAD_REACTORS
330
141C0
102
}
330
141C0
100
AcDbXrecord
280
     1
270
     1
271
     1
  0
XRECORD
  5
141C3
102
{ACAD_REACTORS
330
141C0
102
}
330
141C0
100
AcDbXrecord
280
     1
270
     1
271
     1
  0
XRECORD
  5
14396
102
{ACAD_REACTORS
330
141B8
102
}
330
141B8
100
AcDbXrecord
280
     1
102
MATERIAL
148
0.0
149
0.0
149
0.0
 93
        0
 94
      127
282
     0
 72
     0
 77
     0
171
     0
175
     0
179
     0
273
     0
  0
XRECORD
  5
141BA
102
{ACAD_REACTORS
330
141B8
102
}
330
141B8
100
AcDbXrecord
280
     1
270
     1
271
     1
  0
XRECORD
  5
141B9
102
{ACAD_REACTORS
330
141B8
102
}
330
141B8
100
AcDbXrecord
280
     1
270
     1
271
     1
  0
XRECORD
  5
141BD
102
{ACAD_REACTORS
330
141B8
102
}
330
141B8
100
AcDbXrecord
280
     1
270
     1
271
     1
  0
XRECORD
  5
141BC
102
{ACAD_REACTORS
330
141B8
102
}
330
141B8
100
AcDbXrecord
280
     1
270
     1
271
     1
  0
XRECORD
  5
141BE
102
{ACAD_REACTORS
330
141B8
102
}
330
141B8
100
AcDbXrecord
280
     1
270
     1
271
     1
  0
XRECORD
  5
141BB
102
{ACAD_REACTORS
330
141B8
102
}
330
141B8
100
AcDbXrecord
280
     1
270
     1
271
     1
  0
XRECORD
  5
1240B
102
{ACAD_REACTORS
330
1240A
102
}
330
1240A
100
AcDbXrecord
280
     1
102
MATERIAL
148
0.0
149
0.0
149
0.0
 93
        0
 94
      127
282
     0
 72
     1
 77
     1
171
     1
175
     1
179
     1
273
     0
  0
CELLSTYLEMAP
  5
1438B
102
{ACAD_REACTORS
330
1438A
102
}
330
1438A
100
AcDbCellStyleMap
 90
        3
300
CELLSTYLE
  1
TABLEFORMAT_BEGIN
 90
        5
170
     1
 91
        0
 92
    32768
 62
   257
 93
        1
300
CONTENTFORMAT
  1
CONTENTFORMAT_BEGIN
 90
        0
 91
        0
 92
        4
 93
        0
300

 40
0.0
140
1.0
 94
        5
 62
     0
340
10
144
6.0
309
CONTENTFORMAT_END
171
     1
301
MARGIN
  1
CELLMARGIN_BEGIN
 40
1.5
 40
1.5
 40
1.5
 40
1.5
 40
0.18
 40
0.18
309
CELLMARGIN_END
 94
        6
 95
        1
302
GRIDFORMAT
  1
GRIDFORMAT_BEGIN
 90
        0
 91
        1
 62
     0
 92
       -2
340
0
 93
        0
 40
0.045
309
GRIDFORMAT_END
 95
        2
302
GRIDFORMAT
  1
GRIDFORMAT_BEGIN
 90
        0
 91
        1
 62
     0
 92
       -2
340
0
 93
        0
 40
0.045
309
GRIDFORMAT_END
 95
        4
302
GRIDFORMAT
  1
GRIDFORMAT_BEGIN
 90
        0
 91
        1
 62
     0
 92
       -2
340
0
 93
        0
 40
0.045
309
GRIDFORMAT_END
 95
        8
302
GRIDFORMAT
  1
GRIDFORMAT_BEGIN
 90
        0
 91
        1
 62
     0
 92
       -2
340
0
 93
        0
 40
0.045
309
GRIDFORMAT_END
 95
       16
302
GRIDFORMAT
  1
GRIDFORMAT_BEGIN
 90
        0
 91
        1
 62
     0
 92
       -2
340
0
 93
        0
 40
0.045
309
GRIDFORMAT_END
 95
       32
302
GRIDFORMAT
  1
GRIDFORMAT_BEGIN
 90
        0
 91
        1
 62
     0
 92
       -2
340
0
 93
        0
 40
0.045
309
GRIDFORMAT_END
309
TABLEFORMAT_END
  1
CELLSTYLE_BEGIN
 90
        1
 91
        1
300
_TITLE
309
CELLSTYLE_END
300
CELLSTYLE
  1
TABLEFORMAT_BEGIN
 90
        5
170
     1
 91
        0
 92
        0
 62
   257
 93
        1
300
CONTENTFORMAT
  1
CONTENTFORMAT_BEGIN
 90
        0
 91
        0
 92
        4
 93
        0
300

 40
0.0
140
1.0
 94
        5
 62
     0
340
10
144
4.5
309
CONTENTFORMAT_END
171
     1
301
MARGIN
  1
CELLMARGIN_BEGIN
 40
1.5
 40
1.5
 40
1.5
 40
1.5
 40
0.18
 40
0.18
309
CELLMARGIN_END
 94
        6
 95
        1
302
GRIDFORMAT
  1
GRIDFORMAT_BEGIN
 90
        0
 91
        1
 62
     0
 92
       -2
340
0
 93
        0
 40
0.045
309
GRIDFORMAT_END
 95
        2
302
GRIDFORMAT
  1
GRIDFORMAT_BEGIN
 90
        0
 91
        1
 62
     0
 92
       -2
340
0
 93
        0
 40
0.045
309
GRIDFORMAT_END
 95
        4
302
GRIDFORMAT
  1
GRIDFORMAT_BEGIN
 90
        0
 91
        1
 62
     0
 92
       -2
340
0
 93
        0
 40
0.045
309
GRIDFORMAT_END
 95
        8
302
GRIDFORMAT
  1
GRIDFORMAT_BEGIN
 90
        0
 91
        1
 62
     0
 92
       -2
340
0
 93
        0
 40
0.045
309
GRIDFORMAT_END
 95
       16
302
GRIDFORMAT
  1
GRIDFORMAT_BEGIN
 90
        0
 91
        1
 62
     0
 92
       -2
340
0
 93
        0
 40
0.045
309
GRIDFORMAT_END
 95
       32
302
GRIDFORMAT
  1
GRIDFORMAT_BEGIN
 90
        0
 91
        1
 62
     0
 92
       -2
340
0
 93
        0
 40
0.045
309
GRIDFORMAT_END
309
TABLEFORMAT_END
  1
CELLSTYLE_BEGIN
 90
        2
 91
        1
300
_HEADER
309
CELLSTYLE_END
300
CELLSTYLE
  1
TABLEFORMAT_BEGIN
 90
        5
170
     1
 91
        0
 92
        0
 62
   257
 93
        1
300
CONTENTFORMAT
  1
CONTENTFORMAT_BEGIN
 90
        0
 91
        0
 92
        4
 93
        0
300

 40
0.0
140
1.0
 94
        2
 62
     0
340
10
144
4.5
309
CONTENTFORMAT_END
171
     1
301
MARGIN
  1
CELLMARGIN_BEGIN
 40
1.5
 40
1.5
 40
1.5
 40
1.5
 40
0.18
 40
0.18
309
CELLMARGIN_END
 94
        6
 95
        1
302
GRIDFORMAT
  1
GRIDFORMAT_BEGIN
 90
        0
 91
        1
 62
     0
 92
       -2
340
0
 93
        0
 40
0.045
309
GRIDFORMAT_END
 95
        2
302
GRIDFORMAT
  1
GRIDFORMAT_BEGIN
 90
        0
 91
        1
 62
     0
 92
       -2
340
0
 93
        0
 40
0.045
309
GRIDFORMAT_END
 95
        4
302
GRIDFORMAT
  1
GRIDFORMAT_BEGIN
 90
        0
 91
        1
 62
     0
 92
       -2
340
0
 93
        0
 40
0.045
309
GRIDFORMAT_END
 95
        8
302
GRIDFORMAT
  1
GRIDFORMAT_BEGIN
 90
        0
 91
        1
 62
     0
 92
       -2
340
0
 93
        0
 40
0.045
309
GRIDFORMAT_END
 95
       16
302
GRIDFORMAT
  1
GRIDFORMAT_BEGIN
 90
        0
 91
        1
 62
     0
 92
       -2
340
0
 93
        0
 40
0.045
309
GRIDFORMAT_END
 95
       32
302
GRIDFORMAT
  1
GRIDFORMAT_BEGIN
 90
        0
 91
        1
 62
     0
 92
       -2
340
0
 93
        0
 40
0.045
309
GRIDFORMAT_END
309
TABLEFORMAT_END
  1
CELLSTYLE_BEGIN
 90
        3
 91
        2
300
_DATA
309
CELLSTYLE_END
  0
XRECORD
  5
14392
102
{ACAD_REACTORS
330
1438A
102
}
330
1438A
100
AcDbXrecord
280
     1
102
ACAD_ROUNDTRIP_PRE2007_TABLESTYLE
 90
        4
 91
        0
  1

 92
        4
 93
        0
  2

 94
        4
 95
        0
  3

  0
ENDSEC
  0
EOF
