  0
SECTION
  2
HEADER
  9
$ACADVER
  1
AC1015
  9
$ACADMAINTVER
 70
     6
  9
$DWGCODEPAGE
  3
ANSI_932
  9
$INSBASE
 10
0.0
 20
0.0
 30
0.0
  9
$EXTMIN
 10
88.80507867649185
 20
73.56605566573882
 30
-0.00000001
  9
$EXTMAX
 10
581.7779391911995
 20
511.5033743324492
 30
0.00000001
  9
$LIMMIN
 10
0.0
 20
0.0
  9
$LIMMAX
 10
10000.0
 20
10000.0
  9
$ORTHOMODE
 70
     0
  9
$REGENMODE
 70
     1
  9
$FILLMODE
 70
     1
  9
$QTEXTMODE
 70
     0
  9
$MIRRTEXT
 70
     1
  9
$LTSCALE
 40
10.0
  9
$ATTMODE
 70
     1
  9
$TEXTSIZE
 40
3.5
  9
$TRACEWID
 40
1.0
  9
$TEXTSTYLE
  7
AD-STANDARD
  9
$CLAYER
  8
0
  9
$CELTYPE
  6
BYLAYER
  9
$CECOLOR
 62
   256
  9
$CELTSCALE
 40
1.0
  9
$DISPSILH
 70
     0
  9
$DIMSCALE
 40
1.0
  9
$DIMASZ
 40
2.5
  9
$DIMEXO
 40
1.0
  9
$DIMDLI
 40
0.38
  9
$DIMRND
 40
0.0
  9
$DIMDLE
 40
0.0
  9
$DIMEXE
 40
2.0
  9
$DIMTP
 40
0.0
  9
$DIMTM
 40
0.0
  9
$DIMTXT
 40
3.5
  9
$DIMCEN
 40
-2.0
  9
$DIMTSZ
 40
0.0
  9
$DIMTOL
 70
     0
  9
$DIMLIM
 70
     0
  9
$DIMTIH
 70
     0
  9
$DIMTOH
 70
     0
  9
$DIMSE1
 70
     0
  9
$DIMSE2
 70
     0
  9
$DIMTAD
 70
     1
  9
$DIMZIN
 70
     8
  9
$DIMBLK
  1

  9
$DIMASO
 70
     1
  9
$DIMSHO
 70
     1
  9
$DIMPOST
  1

  9
$DIMAPOST
  1

  9
$DIMALT
 70
     0
  9
$DIMALTD
 70
     2
  9
$DIMALTF
 40
25.4
  9
$DIMLFAC
 40
1.0
  9
$DIMTOFL
 70
     1
  9
$DIMTVP
 40
0.0
  9
$DIMTIX
 70
     0
  9
$DIMSOXD
 70
     0
  9
$DIMSAH
 70
     0
  9
$DIMBLK1
  1

  9
$DIMBLK2
  1

  9
$DIMSTYLE
  2
AD-STANDARD
  9
$DIMCLRD
 70
     9
  9
$DIMCLRE
 70
     9
  9
$DIMCLRT
 70
     2
  9
$DIMTFAC
 40
1.0
  9
$DIMGAP
 40
0.5
  9
$DIMJUST
 70
     0
  9
$DIMSD1
 70
     0
  9
$DIMSD2
 70
     0
  9
$DIMTOLJ
 70
     1
  9
$DIMTZIN
 70
     8
  9
$DIMALTZ
 70
     0
  9
$DIMALTTZ
 70
     0
  9
$DIMUPT
 70
     0
  9
$DIMDEC
 70
     4
  9
$DIMTDEC
 70
     4
  9
$DIMALTU
 70
     2
  9
$DIMALTTD
 70
     2
  9
$DIMTXSTY
  7
AD-STANDARD
  9
$DIMAUNIT
 70
     0
  9
$DIMADEC
 70
     0
  9
$DIMALTRND
 40
0.0
  9
$DIMAZIN
 70
     0
  9
$DIMDSEP
 70
    46
  9
$DIMATFIT
 70
     3
  9
$DIMFRAC
 70
     0
  9
$DIMLDRBLK
  1

  9
$DIMLUNIT
 70
     2
  9
$DIMLWD
 70
    -2
  9
$DIMLWE
 70
    -2
  9
$DIMTMOVE
 70
     0
  9
$LUNITS
 70
     2
  9
$LUPREC
 70
     4
  9
$SKETCHINC
 40
1.0
  9
$FILLETRAD
 40
0.0
  9
$AUNITS
 70
     0
  9
$AUPREC
 70
     0
  9
$MENU
  1
.
  9
$ELEVATION
 40
0.0
  9
$PELEVATION
 40
0.0
  9
$THICKNESS
 40
0.0
  9
$LIMCHECK
 70
     0
  9
$CHAMFERA
 40
0.0
  9
$CHAMFERB
 40
0.0
  9
$CHAMFERC
 40
673.4006734006733
  9
$CHAMFERD
 40
0.0
  9
$SKPOLY
 70
     0
  9
$TDCREATE
 40
2454573.687594595
  9
$TDUCREATE
 40
2454573.312594594
  9
$TDUPDATE
 40
2454573.696551632
  9
$TDUUPDATE
 40
2454573.321551632
  9
$TDINDWG
 40
0.0089575926
  9
$TDUSRTIMER
 40
0.0089575926
  9
$USRTIMER
 70
     1
  9
$ANGBASE
 50
0.0
  9
$ANGDIR
 70
     0
  9
$PDMODE
 70
     0
  9
$PDSIZE
 40
0.0
  9
$PLINEWID
 40
0.0
  9
$SPLFRAME
 70
     0
  9
$SPLINETYPE
 70
     6
  9
$SPLINESEGS
 70
     8
  9
$HANDSEED
  5
941
  9
$SURFTAB1
 70
     6
  9
$SURFTAB2
 70
     6
  9
$SURFTYPE
 70
     6
  9
$SURFU
 70
     6
  9
$SURFV
 70
     6
  9
$UCSBASE
  2

  9
$UCSNAME
  2

  9
$UCSORG
 10
0.0
 20
0.0
 30
0.0
  9
$UCSXDIR
 10
1.0
 20
0.0
 30
0.0
  9
$UCSYDIR
 10
0.0
 20
1.0
 30
0.0
  9
$UCSORTHOREF
  2

  9
$UCSORTHOVIEW
 70
     0
  9
$UCSORGTOP
 10
0.0
 20
0.0
 30
0.0
  9
$UCSORGBOTTOM
 10
0.0
 20
0.0
 30
0.0
  9
$UCSORGLEFT
 10
0.0
 20
0.0
 30
0.0
  9
$UCSORGRIGHT
 10
0.0
 20
0.0
 30
0.0
  9
$UCSORGFRONT
 10
0.0
 20
0.0
 30
0.0
  9
$UCSORGBACK
 10
0.0
 20
0.0
 30
0.0
  9
$PUCSBASE
  2

  9
$PUCSNAME
  2

  9
$PUCSORG
 10
0.0
 20
0.0
 30
0.0
  9
$PUCSXDIR
 10
1.0
 20
0.0
 30
0.0
  9
$PUCSYDIR
 10
0.0
 20
1.0
 30
0.0
  9
$PUCSORTHOREF
  2

  9
$PUCSORTHOVIEW
 70
     0
  9
$PUCSORGTOP
 10
0.0
 20
0.0
 30
0.0
  9
$PUCSORGBOTTOM
 10
0.0
 20
0.0
 30
0.0
  9
$PUCSORGLEFT
 10
0.0
 20
0.0
 30
0.0
  9
$PUCSORGRIGHT
 10
0.0
 20
0.0
 30
0.0
  9
$PUCSORGFRONT
 10
0.0
 20
0.0
 30
0.0
  9
$PUCSORGBACK
 10
0.0
 20
0.0
 30
0.0
  9
$USERI1
 70
     0
  9
$USERI2
 70
     0
  9
$USERI3
 70
     0
  9
$USERI4
 70
     0
  9
$USERI5
 70
     0
  9
$USERR1
 40
0.0
  9
$USERR2
 40
0.0
  9
$USERR3
 40
0.0
  9
$USERR4
 40
0.0
  9
$USERR5
 40
0.0
  9
$WORLDVIEW
 70
     1
  9
$SHADEDGE
 70
     3
  9
$SHADEDIF
 70
    70
  9
$TILEMODE
 70
     0
  9
$MAXACTVP
 70
    16
  9
$PINSBASE
 10
0.0
 20
0.0
 30
0.0
  9
$PLIMCHECK
 70
     0
  9
$PEXTMIN
 10
20.0
 20
17.0
 30
0.0
  9
$PEXTMAX
 10
405.0
 20
281.9999999999999
 30
0.0
  9
$PLIMMIN
 10
0.1045825251767294
 20
-2.994526171469738
  9
$PLIMMAX
 10
420.0512377986142
 20
293.9314687015771
  9
$UNITMODE
 70
     0
  9
$VISRETAIN
 70
     0
  9
$PLINEGEN
 70
     0
  9
$PSLTSCALE
 70
     1
  9
$TREEDEPTH
 70
  3020
  9
$CMLSTYLE
  2
STANDARD
  9
$CMLJUST
 70
     0
  9
$CMLSCALE
 40
1.0
  9
$PROXYGRAPHICS
 70
     1
  9
$MEASUREMENT
 70
     1
  9
$CELWEIGHT
370
    -1
  9
$ENDCAPS
280
     0
  9
$JOINSTYLE
280
     0
  9
$LWDISPLAY
290
     0
  9
$INSUNITS
 70
     0
  9
$HYPERLINKBASE
  1

  9
$STYLESHEET
  1

  9
$XEDIT
290
     1
  9
$CEPSNTYPE
380
     0
  9
$PSTYLEMODE
290
     1
  9
$FINGERPRINTGUID
  2
{8ACAE060-96A8-11D3-AA4A-00A0247712C1}
  9
$VERSIONGUID
  2
{2BF2833F-0EDB-448C-8BE2-EAE7F4FDCD35}
  9
$EXTNAMES
290
     1
  9
$PSVPSCALE
 40
0.0
  9
$OLESTARTUP
290
     0
  0
ENDSEC
  0
SECTION
  2
CLASSES
  0
CLASS
  1
LWPOLYLINE
  2
AcDbPolyline
  3
AutoCAD 2000
 90
    32768
280
     0
281
     1
  0
CLASS
  1
ACDBDICTIONARYWDFLT
  2
AcDbDictionaryWithDefault
  3
AutoCAD 2000
 90
        0
280
     0
281
     0
  0
CLASS
  1
ACDBPLACEHOLDER
  2
AcDbPlaceHolder
  3
AutoCAD 2000
 90
        0
280
     0
281
     0
  0
CLASS
  1
LAYOUT
  2
AcDbLayout
  3
AutoCAD 2000
 90
        0
280
     0
281
     0
  0
CLASS
  1
PLOTSETTINGS
  2
AcDbPlotSettings
  3
AutoCAD 2000
 90
        0
280
     0
281
     0
  0
ENDSEC
  0
SECTION
  2
TABLES
  0
TABLE
  2
VPORT
  5
8
330
0
100
AcDbSymbolTable
 70
     6
  0
VPORT
  5
940
330
8
100
AcDbSymbolTableRecord
100
AcDbViewportTableRecord
  2
*Active
 70
     0
 10
0.0
 20
0.0
 11
1.0
 21
1.0
 12
343.4617521107752
 22
251.0104171147945
 13
0.0
 23
0.0
 14
168.0
 24
168.0
 15
0.0
 25
0.0
 16
0.0
 26
0.0
 36
1.0
 17
0.0
 27
0.0
 37
0.0
 40
684.8735574621285
 41
1.585234899328859
 42
50.0
 43
0.0
 44
0.0
 50
0.0
 51
0.0
 71
     0
 72
   100
 73
     1
 74
     0
 75
     0
 76
     0
 77
     0
 78
     1
281
     0
 65
     1
110
0.0
120
0.0
130
0.0
111
1.0
121
0.0
131
0.0
112
0.0
122
1.0
132
0.0
 79
     0
146
0.0
  0
ENDTAB
  0
TABLE
  2
LTYPE
  5
5
330
0
100
AcDbSymbolTable
 70
     4
  0
LTYPE
  5
14
330
5
100
AcDbSymbolTableRecord
100
AcDbLinetypeTableRecord
  2
BYBLOCK
 70
     0
  3

 72
    65
 73
     0
 40
0.0
  0
LTYPE
  5
15
330
5
100
AcDbSymbolTableRecord
100
AcDbLinetypeTableRecord
  2
BYLAYER
 70
     0
  3

 72
    65
 73
     0
 40
0.0
  0
LTYPE
  5
16
330
5
100
AcDbSymbolTableRecord
100
AcDbLinetypeTableRecord
  2
CONTINUOUS
 70
     0
  3
Solid line
 72
    65
 73
     0
 40
0.0
  0
LTYPE
  5
6E
330
5
100
AcDbSymbolTableRecord
100
AcDbLinetypeTableRecord
  2
CENTER
 70
     0
  3
____ _ ____ _ ____ _ ____ _ ____ _ ____ _ ____ 
 72
    65
 73
     4
 40
2.0
 49
1.25
 74
     0
 49
-0.25
 74
     0
 49
0.25
 74
     0
 49
-0.25
 74
     0
  0
LTYPE
  5
6F
330
5
100
AcDbSymbolTableRecord
100
AcDbLinetypeTableRecord
  2
HIDDEN
 70
     0
  3
__ __ __ __ __ __ __ __ __ __ __ __ __ __ __ __
 72
    65
 73
     2
 40
0.375
 49
0.25
 74
     0
 49
-0.125
 74
     0
  0
LTYPE
  5
243
330
5
100
AcDbSymbolTableRecord
100
AcDbLinetypeTableRecord
  2
PHANTOM
 70
     0
  3
Phantom ______  __  __  ______  __  __  ______
 72
    65
 73
     6
 40
63.5
 49
31.75
 74
     0
 49
-6.349999999999999
 74
     0
 49
6.349999999999999
 74
     0
 49
-6.349999999999999
 74
     0
 49
6.349999999999999
 74
     0
 49
-6.349999999999999
 74
     0
  0
ENDTAB
  0
TABLE
  2
LAYER
  5
2
330
0
100
AcDbSymbolTable
 70
    11
  0
LAYER
  5
F
330
2
100
AcDbSymbolTableRecord
100
AcDbLayerTableRecord
  2
0
 70
     0
 62
     7
  6
CONTINUOUS
370
    -3
390
2C1
  0
LAYER
  5
70
330
2
100
AcDbSymbolTableRecord
100
AcDbLayerTableRecord
  2
HOJO
 70
     0
 62
     4
  6
CONTINUOUS
370
    -3
390
2C1
  0
LAYER
  5
71
330
2
100
AcDbSymbolTableRecord
100
AcDbLayerTableRecord
  2
MEASURE
 70
     0
 62
     9
  6
CONTINUOUS
370
    -3
390
2C1
  0
LAYER
  5
72
330
2
100
AcDbSymbolTableRecord
100
AcDbLayerTableRecord
  2
DEFPOINTS
 70
     0
 62
     7
  6
CONTINUOUS
290
     0
370
    -3
390
2C1
  0
LAYER
  5
73
330
2
100
AcDbSymbolTableRecord
100
AcDbLayerTableRecord
  2
NEJI
 70
     0
 62
     7
  6
CONTINUOUS
370
    -3
390
2C1
  0
LAYER
  5
74
330
2
100
AcDbSymbolTableRecord
100
AcDbLayerTableRecord
  2
CENTER
 70
     0
 62
     9
  6
CENTER
370
    -3
390
2C1
  0
LAYER
  5
244
330
2
100
AcDbSymbolTableRecord
100
AcDbLayerTableRecord
  2
NOTE
 70
     0
 62
     2
  6
CONTINUOUS
370
    -3
390
2C1
  0
LAYER
  5
456
330
2
100
AcDbSymbolTableRecord
100
AcDbLayerTableRecord
  2
M_PARTS
 70
     0
 62
   161
  6
CONTINUOUS
370
    -3
390
2C1
  0
LAYER
  5
457
330
2
100
AcDbSymbolTableRecord
100
AcDbLayerTableRecord
  2
ﾘｱｹｰｽ
 70
     0
 62
    51
  6
CONTINUOUS
370
    -3
390
2C1
  0
LAYER
  5
458
330
2
100
AcDbSymbolTableRecord
100
AcDbLayerTableRecord
  2
ﾌﾛﾝﾄｹｰｽ
 70
     0
 62
   121
  6
CONTINUOUS
370
    -3
390
2C1
  0
LAYER
  5
459
330
2
100
AcDbSymbolTableRecord
100
AcDbLayerTableRecord
  2
CALｶﾊﾞｰ
 70
     0
 62
    52
  6
CONTINUOUS
370
    -3
390
2C1
  0
ENDTAB
  0
TABLE
  2
STYLE
  5
3
330
0
100
AcDbSymbolTable
 70
     6
  0
STYLE
  5
10
330
3
100
AcDbSymbolTableRecord
100
AcDbTextStyleTableRecord
  2
STANDARD
 70
     0
 40
0.0
 41
0.8
 50
0.0
 71
     0
 42
84.17508417508416
  3
TXT
  4
bigfont.shx
  0
STYLE
  5
63
330
3
100
AcDbSymbolTableRecord
100
AcDbTextStyleTableRecord
  2
AD-STANDARD
 70
     0
 40
0.0
 41
0.8
 50
0.0
 71
     0
 42
3.5
  3
C:\Program Files\AutoCAD LT\romans.shx
  4
bigfont.shx
  0
STYLE
  5
242
330
3
100
AcDbSymbolTableRecord
100
AcDbTextStyleTableRecord
  2

 70
     1
 40
0.0
 41
1.0
 50
0.0
 71
     0
 42
3.5
  3
ltypeshp.shx
  4

  0
STYLE
  5
256
330
3
100
AcDbSymbolTableRecord
100
AcDbTextStyleTableRecord
  2
BIGFONT
 70
     0
 40
3.5
 41
0.8
 50
15.0
 71
     0
 42
3.5
  3
ROMANS.SHX
  4
BIGFONT.SHX
  0
STYLE
  5
257
330
3
100
AcDbSymbolTableRecord
100
AcDbTextStyleTableRecord
  2
ROMAND
 70
     0
 40
5.0
 41
1.0
 50
0.0
 71
     0
 42
4.5
  3
romand
  4

  0
STYLE
  5
258
330
3
100
AcDbSymbolTableRecord
100
AcDbTextStyleTableRecord
  2
FORM
 70
     0
 40
3.5
 41
0.8
 50
0.0
 71
     0
 42
3.5
  3
MS PMincho.ttf
  4

1001
ACAD
1000
MS PMincho
1071
    32786
  0
ENDTAB
  0
TABLE
  2
VIEW
  5
6
330
0
100
AcDbSymbolTable
 70
     0
  0
ENDTAB
  0
TABLE
  2
UCS
  5
7
330
0
100
AcDbSymbolTable
 70
     0
  0
ENDTAB
  0
TABLE
  2
APPID
  5
9
330
0
100
AcDbSymbolTable
 70
     5
  0
APPID
  5
11
330
9
100
AcDbSymbolTableRecord
100
AcDbRegAppTableRecord
  2
ACAD
 70
     0
  0
APPID
  5
22A
330
9
100
AcDbSymbolTableRecord
100
AcDbRegAppTableRecord
  2
CONTENTTABDATA
 70
     0
  0
APPID
  5
22B
330
9
100
AcDbSymbolTableRecord
100
AcDbRegAppTableRecord
  2
CONTENTCURRENTTAB
 70
     0
  0
APPID
  5
232
330
9
100
AcDbSymbolTableRecord
100
AcDbRegAppTableRecord
  2
CONTENTBLOCKDESCRIPTION
 70
     0
  0
APPID
  5
233
330
9
100
AcDbSymbolTableRecord
100
AcDbRegAppTableRecord
  2
CONTENTBLOCKICON
 70
     0
  0
ENDTAB
  0
TABLE
  2
DIMSTYLE
  5
A
330
0
100
AcDbSymbolTable
 70
     4
100
AcDbDimStyleTable
 71
     1
340
68
  0
DIMSTYLE
105
1D
330
A
100
AcDbSymbolTableRecord
100
AcDbDimStyleTableRecord
  2
STANDARD
 70
     0
340
10
  0
DIMSTYLE
105
68
102
{ACAD_REACTORS
330
5EE
330
5EF
330
5F7
330
601
330
610
330
611
330
71F
330
726
330
727
102
}
330
A
100
AcDbSymbolTableRecord
100
AcDbDimStyleTableRecord
  2
AD-STANDARD
 70
     0
 41
2.5
 42
1.0
 44
2.0
 73
     0
 74
     0
 77
     1
 78
     8
140
3.5
141
-2.0
147
0.5
172
     1
176
     9
177
     9
178
     2
284
     8
340
63
  0
DIMSTYLE
105
823
330
A
100
AcDbSymbolTableRecord
100
AcDbDimStyleTableRecord
  2
AD-STANDARD$4
 70
     0
 41
2.5
 42
1.0
 44
2.0
 73
     0
 77
     1
 78
     8
140
3.5
141
0.0
147
0.5
176
     9
177
     9
178
     2
284
     8
340
63
  0
DIMSTYLE
105
824
330
A
100
AcDbSymbolTableRecord
100
AcDbDimStyleTableRecord
  2
AD-STANDARD$3
 70
     0
 41
2.5
 42
1.0
 44
2.0
 73
     0
 77
     1
 78
     8
140
3.5
141
0.0
147
0.5
176
     9
177
     9
178
     2
284
     8
289
     1
340
63
  0
ENDTAB
  0
TABLE
  2
BLOCK_RECORD
  5
1
330
0
100
AcDbSymbolTable
 70
    22
  0
BLOCK_RECORD
  5
1A
330
1
100
AcDbSymbolTableRecord
100
AcDbBlockTableRecord
  2
*MODEL_SPACE
340
2C4
  0
BLOCK_RECORD
  5
17
330
1
100
AcDbSymbolTableRecord
100
AcDbBlockTableRecord
  2
*PAPER_SPACE
340
2C5
  0
BLOCK_RECORD
  5
347
330
1
100
AcDbSymbolTableRecord
100
AcDbBlockTableRecord
  2
A$C05692605
340
0
102
{BLKREFS
331
38E
102
}
  0
BLOCK_RECORD
  5
3D4
330
1
100
AcDbSymbolTableRecord
100
AcDbBlockTableRecord
  2
*D1
340
0
  0
BLOCK_RECORD
  5
3E0
330
1
100
AcDbSymbolTableRecord
100
AcDbBlockTableRecord
  2
*D2
340
0
  0
BLOCK_RECORD
  5
3EC
330
1
100
AcDbSymbolTableRecord
100
AcDbBlockTableRecord
  2
*D3
340
0
  0
BLOCK_RECORD
  5
3F8
330
1
100
AcDbSymbolTableRecord
100
AcDbBlockTableRecord
  2
A$C084B3CDB
340
0
102
{BLKREFS
331
509
331
49E
331
4BE
331
625
331
645
331
690
102
}
  0
BLOCK_RECORD
  5
40E
330
1
100
AcDbSymbolTableRecord
100
AcDbBlockTableRecord
  2
*D5
340
0
  0
BLOCK_RECORD
  5
41A
330
1
100
AcDbSymbolTableRecord
100
AcDbBlockTableRecord
  2
*D6
340
0
  0
BLOCK_RECORD
  5
426
330
1
100
AcDbSymbolTableRecord
100
AcDbBlockTableRecord
  2
*D7
340
0
  0
BLOCK_RECORD
  5
432
330
1
100
AcDbSymbolTableRecord
100
AcDbBlockTableRecord
  2
*D8
340
0
  0
BLOCK_RECORD
  5
43E
330
1
100
AcDbSymbolTableRecord
100
AcDbBlockTableRecord
  2
*D9
340
0
  0
BLOCK_RECORD
  5
44A
330
1
100
AcDbSymbolTableRecord
100
AcDbBlockTableRecord
  2
*D10
340
0
  0
BLOCK_RECORD
  5
766
330
1
100
AcDbSymbolTableRecord
100
AcDbBlockTableRecord
  2
*D12
340
0
  0
BLOCK_RECORD
  5
772
330
1
100
AcDbSymbolTableRecord
100
AcDbBlockTableRecord
  2
*D13
340
0
  0
BLOCK_RECORD
  5
77E
330
1
100
AcDbSymbolTableRecord
100
AcDbBlockTableRecord
  2
*D14
340
0
  0
BLOCK_RECORD
  5
78A
330
1
100
AcDbSymbolTableRecord
100
AcDbBlockTableRecord
  2
*D15
340
0
  0
BLOCK_RECORD
  5
796
330
1
100
AcDbSymbolTableRecord
100
AcDbBlockTableRecord
  2
*D16
340
0
  0
BLOCK_RECORD
  5
7A2
330
1
100
AcDbSymbolTableRecord
100
AcDbBlockTableRecord
  2
*D17
340
0
  0
BLOCK_RECORD
  5
7AE
330
1
100
AcDbSymbolTableRecord
100
AcDbBlockTableRecord
  2
*D18
340
0
  0
BLOCK_RECORD
  5
7BA
330
1
100
AcDbSymbolTableRecord
100
AcDbBlockTableRecord
  2
*D19
340
0
  0
BLOCK_RECORD
  5
7C6
330
1
100
AcDbSymbolTableRecord
100
AcDbBlockTableRecord
  2
*D20
340
0
  0
ENDTAB
  0
ENDSEC
  0
SECTION
  2
BLOCKS
  0
BLOCK
  5
1B
330
1A
100
AcDbEntity
  8
0
100
AcDbBlockBegin
  2
*MODEL_SPACE
 70
     0
 10
0.0
 20
0.0
 30
0.0
  3
*MODEL_SPACE
  1

  0
ENDBLK
  5
1C
330
1A
100
AcDbEntity
  8
0
100
AcDbBlockEnd
  0
BLOCK
  5
18
330
17
100
AcDbEntity
 67
     1
  8
0
100
AcDbBlockBegin
  2
*PAPER_SPACE
 70
     0
 10
0.0
 20
0.0
 30
0.0
  3
*PAPER_SPACE
  1

  0
ENDBLK
  5
19
330
17
100
AcDbEntity
 67
     1
  8
0
100
AcDbBlockEnd
  0
BLOCK
  5
38C
330
347
100
AcDbEntity
  8
0
100
AcDbBlockBegin
  2
A$C05692605
 70
     2
 10
0.0
 20
0.0
 30
0.0
  3
A$C05692605
  1

  0
LWPOLYLINE
  5
348
330
347
100
AcDbEntity
  8
0
100
AcDbPolyline
 90
        4
 70
     1
 43
0.3
 10
390.0000000489031
 20
273.7887912727039
 10
5.000000048903103
 20
273.7887912727039
 10
5.000000048903103
 20
8.788791272703974
 10
390.0000000489029
 20
8.788791272703917
  0
VIEWPORT
  5
349
330
347
100
AcDbEntity
  8
DEFPOINTS
100
AcDbViewport
 10
197.500000048903
 20
141.2887912727039
 30
0.0
 40
385.0
 41
264.9999999999999
 69
     0
 12
190.8230237662355
 22
130.5307286144516
 13
0.0
 23
0.0
 14
168.0
 24
168.0
 15
0.0
 25
0.0
 16
0.0
 26
0.0
 36
1.0
 17
0.0
 27
0.0
 37
0.0
 42
50.0
 43
0.0
 44
0.0
 45
265.0000003883643
 50
0.0
 51
0.0
 72
   100
 90
    36864
  1

281
     0
 71
     1
 74
     0
110
0.0
120
0.0
130
0.0
111
1.0
121
0.0
131
0.0
112
0.0
122
1.0
132
0.0
 79
     0
146
0.0
  0
LINE
  5
34A
330
347
100
AcDbEntity
  8
0
100
AcDbLine
 10
5.000000048903103
 20
138.7887912727039
 30
0.0
 11
0.0000000489031038
 21
138.7887912727039
 31
0.0
  0
TEXT
  5
34B
330
347
100
AcDbEntity
  8
0
 62
     2
100
AcDbText
 10
322.000000048903
 20
3.588791272703975
 30
0.0
 40
3.0
  1
適用ロット
  7
FORM
100
AcDbText
  0
TEXT
  5
34C
330
347
100
AcDbEntity
  8
0
 62
     2
100
AcDbText
 10
324.800000048903
 20
32.58879127270397
 30
0.0
 40
2.5
  1
処　　 理
  7
FORM
100
AcDbText
  0
TEXT
  5
34D
330
347
100
AcDbEntity
  8
0
 62
     2
100
AcDbText
 10
320.500000048903
 20
27.98879127270398
 30
0.0
 40
2.5
  1
入　庫
  7
FORM
100
AcDbText
  0
ATTDEF
  5
34E
330
347
100
AcDbEntity
  8
0
 62
     1
100
AcDbText
 10
320.0000000489029
 20
38.53879127270392
 30
0.0
 40
3.5
  1

 41
0.7576719576719576
  7
FORM
 72
     5
 11
342.0000000489029
 21
38.53879127270392
 31
0.0
100
AcDbAttributeDefinition
  3
処理
  2
TREATMENT
 70
     0
  0
LWPOLYLINE
  5
34F
330
347
100
AcDbEntity
  8
0
100
AcDbPolyline
 90
        4
 70
     0
 43
0.3
 10
390.0000000489029
 20
8.788791272703917
 10
390.0000000489029
 20
1.788791272703917
 10
318.0000000489029
 20
1.788791272703917
 10
318.0000000489029
 20
8.788791272703917
  0
LWPOLYLINE
  5
350
330
347
100
AcDbEntity
  8
0
100
AcDbPolyline
 90
        2
 70
     0
 43
0.3
 10
262.0000000489029
 20
31.78879127270391
 10
390.0000000489029
 20
31.78879127270391
  0
LWPOLYLINE
  5
351
330
347
100
AcDbEntity
  8
0
100
AcDbPolyline
 90
        5
 70
     0
 43
0.3
 10
262.0000000489029
 20
8.788791272703917
 10
262.0000000489029
 20
4.788791272703917
 10
214.0000000489029
 20
4.788791272703917
 10
214.0000000489029
 20
44.78879127270391
 10
390.0000000489029
 20
44.78879127270391
  0
LINE
  5
352
330
347
100
AcDbEntity
  8
0
100
AcDbLine
 10
262.0000000489029
 20
26.78879127270391
 30
0.0
 11
332.0000000489029
 21
26.78879127270391
 31
0.0
  0
LINE
  5
353
330
347
100
AcDbEntity
  8
0
100
AcDbLine
 10
262.0000000489029
 20
35.78879127270392
 30
0.0
 11
344.0000000489029
 21
35.78879127270392
 31
0.0
  0
LINE
  5
354
330
347
100
AcDbEntity
  8
0
100
AcDbLine
 10
318.0000000489029
 20
8.788791272703917
 30
0.0
 11
318.0000000489029
 21
44.78879127270391
 31
0.0
  0
LINE
  5
355
330
347
100
AcDbEntity
  8
0
100
AcDbLine
 10
276.0000000489029
 20
8.788791272703917
 30
0.0
 11
276.0000000489029
 21
44.78879127270391
 31
0.0
  0
LINE
  5
356
330
347
100
AcDbEntity
  8
0
100
AcDbLine
 10
290.0000000489029
 20
8.788791272703917
 30
0.0
 11
290.0000000489029
 21
44.78879127270391
 31
0.0
  0
LWPOLYLINE
  5
357
330
347
100
AcDbEntity
  8
0
100
AcDbPolyline
 90
        2
 70
     0
 43
0.3
 10
262.0000000489029
 20
8.788791272703917
 10
262.0000000489029
 20
44.78879127270391
  0
LINE
  5
358
330
347
100
AcDbEntity
  8
0
100
AcDbLine
 10
238.5000000489029
 20
44.78879127270391
 30
0.0
 11
238.5000000489029
 21
4.788791272703917
 31
0.0
  0
LINE
  5
359
330
347
100
AcDbEntity
  8
0
100
AcDbLine
 10
230.5000000489029
 20
44.78879127270391
 30
0.0
 11
230.5000000489029
 21
4.788791272703917
 31
0.0
  0
LINE
  5
35A
330
347
100
AcDbEntity
  8
0
100
AcDbLine
 10
221.5000000489029
 20
44.78879127270391
 30
0.0
 11
221.5000000489029
 21
4.788791272703917
 31
0.0
  0
ATTDEF
  5
35B
330
347
100
AcDbEntity
  8
0
 62
     1
100
AcDbText
 10
269.0000000489031
 20
40.28879127270414
 30
0.0
 40
3.5
  1

 41
0.8
  7
FORM
 72
     4
 11
269.0000000489031
 21
40.28879127270414
 31
0.0
100
AcDbAttributeDefinition
  3
尺度
  2
SCALE
 70
     0
  0
TEXT
  5
35C
330
347
100
AcDbEntity
  8
0
 62
     2
100
AcDbText
 10
221.600000048903
 20
9.588791272703975
 30
0.0
 40
2.5
  1
 月 日
  7
FORM
100
AcDbText
  0
LINE
  5
35D
330
347
100
AcDbEntity
  8
0
100
AcDbLine
 10
214.0000000489029
 20
20.78879127270389
 30
0.0
 11
262.0000000489029
 21
20.78879127270389
 31
0.0
  0
LINE
  5
35E
330
347
100
AcDbEntity
  8
0
100
AcDbLine
 10
214.0000000489029
 20
40.78879127270392
 30
0.0
 11
262.0000000489029
 21
40.78879127270392
 31
0.0
  0
LINE
  5
35F
330
347
100
AcDbEntity
  8
0
100
AcDbLine
 10
214.0000000489029
 20
36.78879127270391
 30
0.0
 11
262.0000000489029
 21
36.78879127270391
 31
0.0
  0
LINE
  5
360
330
347
100
AcDbEntity
  8
0
100
AcDbLine
 10
214.0000000489029
 20
32.78879127270391
 30
0.0
 11
262.0000000489029
 21
32.78879127270391
 31
0.0
  0
LINE
  5
361
330
347
100
AcDbEntity
  8
0
100
AcDbLine
 10
214.0000000489029
 20
28.78879127270391
 30
0.0
 11
262.0000000489029
 21
28.78879127270391
 31
0.0
  0
LINE
  5
362
330
347
100
AcDbEntity
  8
0
100
AcDbLine
 10
214.0000000489029
 20
24.78879127270392
 30
0.0
 11
262.0000000489029
 21
24.78879127270392
 31
0.0
  0
LINE
  5
363
330
347
100
AcDbEntity
  8
0
100
AcDbLine
 10
214.0000000489029
 20
16.78879127270391
 30
0.0
 11
262.0000000489029
 21
16.78879127270391
 31
0.0
  0
LINE
  5
364
330
347
100
AcDbEntity
  8
0
100
AcDbLine
 10
214.0000000489029
 20
12.78879127270391
 30
0.0
 11
262.0000000489029
 21
12.78879127270391
 31
0.0
  0
TEXT
  5
365
330
347
100
AcDbEntity
  8
0
 62
     2
100
AcDbText
 10
214.300000048903
 20
9.588791272703975
 30
0.0
 40
2.5
  1
記号
  7
FORM
100
AcDbText
  0
TEXT
  5
366
330
347
100
AcDbEntity
  8
0
 62
     2
100
AcDbText
 10
214.300000048903
 20
5.488791272703974
 30
0.0
 40
2.5
  1
設置
  7
FORM
100
AcDbText
  0
TEXT
  5
367
330
347
100
AcDbEntity
  8
0
 62
     2
100
AcDbText
 10
243.700000048903
 20
9.588791272703975
 30
0.0
 40
2.5
  1
改　連No.
  7
FORM
100
AcDbText
  0
TEXT
  5
368
330
347
100
AcDbEntity
  8
0
 62
     2
100
AcDbText
 10
231.200000048903
 20
9.588791272703975
 30
0.0
 40
2.5
  1
担当
  7
FORM
100
AcDbText
  0
TEXT
  5
369
330
347
100
AcDbEntity
  8
0
 62
     2
100
AcDbText
 10
292.3000000489031
 20
27.98879127270398
 30
0.0
 40
2.5
  1
検　図
  7
FORM
100
AcDbText
  0
TEXT
  5
36A
330
347
100
AcDbEntity
  8
0
 62
     2
100
AcDbText
 10
267.000000048903
 20
1.588791272703975
 30
0.0
 40
5.0
  1
A&D CO.,LTD.
  7
FORM
100
AcDbText
  0
ATTDEF
  5
36B
330
347
100
AcDbEntity
  8
0
 62
     1
100
AcDbText
 10
292.0000000489029
 20
38.53879127270392
 30
0.0
 40
3.5
  1

 41
1.129189118149559
  7
FORM
 72
     5
 11
316.0000000489029
 21
38.53879127270392
 31
0.0
100
AcDbAttributeDefinition
  3
材質
  2
QUALITY
 70
     0
  0
LINE
  5
36C
330
347
100
AcDbEntity
  8
0
100
AcDbLine
 10
276.0000000489029
 20
8.788791272703917
 30
0.0
 11
276.0000000489029
 21
35.78879127270392
 31
0.0
  0
LINE
  5
36D
330
347
100
AcDbEntity
  8
0
100
AcDbLine
 10
290.0000000489029
 20
8.788791272703917
 30
0.0
 11
290.0000000489029
 21
35.78879127270392
 31
0.0
  0
LINE
  5
36E
330
347
100
AcDbEntity
  8
0
100
AcDbLine
 10
290.0000000489029
 20
8.788791272703917
 30
0.0
 11
290.0000000489029
 21
35.78879127270392
 31
0.0
  0
LINE
  5
36F
330
347
100
AcDbEntity
  8
0
100
AcDbLine
 10
290.0000000489029
 20
8.788791272703917
 30
0.0
 11
290.0000000489029
 21
35.78879127270392
 31
0.0
  0
TEXT
  5
370
330
347
100
AcDbEntity
  8
0
 62
     2
100
AcDbText
 10
278.300000048903
 20
32.58879127270397
 30
0.0
 40
2.5
  1
公　差
  7
FORM
100
AcDbText
  0
TEXT
  5
371
330
347
100
AcDbEntity
  8
0
 62
     2
100
AcDbText
 10
278.300000048903
 20
27.98879127270398
 30
0.0
 40
2.5
  1
設　計
  7
FORM
100
AcDbText
  0
ATTDEF
  5
372
330
347
100
AcDbEntity
  8
0
 62
     1
100
AcDbText
 10
280.9977654120316
 20
38.66588624477119
 30
0.0
 40
3.5
  1
%%P
 41
0.8
  7
FORM
 72
     4
 11
283.0000000489031
 21
40.28879127270414
 31
0.0
100
AcDbAttributeDefinition
  3
公差
  2
TOLERANCE
 70
     0
  0
TEXT
  5
373
330
347
100
AcDbEntity
  8
0
 62
     2
100
AcDbText
 10
264.000000048903
 20
32.58879127270397
 30
0.0
 40
2.5
  1
尺  度
  7
FORM
100
AcDbText
  0
TEXT
  5
374
330
347
100
AcDbEntity
  8
0
 62
     2
100
AcDbText
 10
264.000000048903
 20
27.98879127270398
 30
0.0
 40
2.5
  1
製　図
  7
FORM
100
AcDbText
  0
LINE
  5
375
330
347
100
AcDbEntity
  8
0
100
AcDbLine
 10
304.0000000489029
 20
8.788791272703917
 30
0.0
 11
304.0000000489029
 21
31.78879127270391
 31
0.0
  0
LINE
  5
376
330
347
100
AcDbEntity
  8
0
100
AcDbLine
 10
304.0000000489029
 20
8.788791272703917
 30
0.0
 11
304.0000000489029
 21
31.78879127270391
 31
0.0
  0
TEXT
  5
377
330
347
100
AcDbEntity
  8
0
 62
     2
100
AcDbText
 10
306.500000048903
 20
27.98879127270398
 30
0.0
 40
2.5
  1
承　認
  7
FORM
100
AcDbText
  0
TEXT
  5
378
330
347
100
AcDbEntity
  8
0
 62
     2
100
AcDbText
 10
296.8000000489031
 20
32.58879127270397
 30
0.0
 40
2.5
  1
材　　　質
  7
FORM
100
AcDbText
  0
LINE
  5
379
330
347
100
AcDbEntity
  8
0
100
AcDbLine
 10
358.0000000489029
 20
31.78879127270391
 30
0.0
 11
358.0000000489029
 21
44.78879127270391
 31
0.0
  0
LINE
  5
37A
330
347
100
AcDbEntity
  8
0
100
AcDbLine
 10
344.0000000489029
 20
19.81379127270389
 30
0.0
 11
344.0000000489029
 21
44.78879127270391
 31
0.0
  0
ATTDEF
  5
37B
330
347
100
AcDbEntity
  8
0
 62
     1
100
AcDbText
 10
340.0000000489029
 20
11.49832170035301
 30
0.0
 40
5.0
  1

 41
1.660289855072465
  7
FORM
 72
     5
 11
388.000000048903
 21
11.49832170035301
 31
0.0
100
AcDbAttributeDefinition
  3
図番
  2
DRG.NO.
 70
     0
  0
ATTDEF
  5
37C
330
347
100
AcDbEntity
  8
0
 62
     1
100
AcDbText
 10
367.0000000489035
 20
22.81379127270386
 30
0.0
 40
3.5
  1

 41
0.8
  7
FORM
 72
     4
 11
367.0000000489035
 21
22.81379127270386
 31
0.0
100
AcDbAttributeDefinition
  3
ストック　No.
  2
STOCK
 70
     0
  0
ATTDEF
  5
37D
330
347
100
AcDbEntity
  8
0
 62
     1
100
AcDbText
 10
346.0000000489029
 20
26.81379127270389
 30
0.0
 40
3.5
  1

 41
3.081779053084651
  7
FORM
 72
     5
 11
388.000000048903
 21
26.81379127270389
 31
0.0
100
AcDbAttributeDefinition
  3
名称
  2
TITLE
 70
     0
  0
ATTDEF
  5
37E
330
347
100
AcDbEntity
  8
0
 62
     1
100
AcDbText
 10
359.2654098514707
 20
39.94154447636032
 30
0.0
 40
3.0
  1

 41
1.95279495973926
  7
FORM
 72
     5
 11
388.099136547509
 21
39.94154447636032
 31
0.0
100
AcDbAttributeDefinition
  3
機種名
  2
MODEL
 70
     0
  0
LINE
  5
37F
330
347
100
AcDbEntity
  8
0
100
AcDbLine
 10
358.0000000489029
 20
38.28879127270392
 30
0.0
 11
390.0000000489029
 21
31.78879127270391
 31
0.0
  0
LINE
  5
380
330
347
100
AcDbEntity
  8
0
100
AcDbLine
 10
344.0000000489029
 20
38.28879127270392
 30
0.0
 11
390.0000000489029
 21
38.28879127270392
 31
0.0
  0
LWPOLYLINE
  5
381
330
347
100
AcDbEntity
  8
0
100
AcDbPolyline
 90
        2
 70
     0
 43
0.3
 10
332.0000000489029
 20
19.81379127270389
 10
390.0000000489029
 20
19.81379127270389
  0
LINE
  5
382
330
347
100
AcDbEntity
  8
0
100
AcDbLine
 10
332.0000000489029
 20
25.81379127270389
 30
0.0
 11
390.0000000489029
 21
25.81379127270389
 31
0.0
  0
TEXT
  5
383
330
347
100
AcDbEntity
  8
0
 62
     2
100
AcDbText
 10
332.700000048903
 20
21.38879127270397
 30
0.0
 40
2.5
  1
ｽﾄｯｸNo.
 41
0.9
  7
FORM
100
AcDbText
  0
LWPOLYLINE
  5
384
330
347
100
AcDbEntity
  8
0
100
AcDbPolyline
 90
        2
 70
     0
 43
0.3
 10
332.0000000489029
 20
8.788791272703917
 10
332.0000000489029
 20
31.78879127270391
  0
TEXT
  5
385
330
347
100
AcDbEntity
  8
0
 62
     2
100
AcDbText
 10
333.300000048903
 20
10.18879127270397
 30
0.0
 40
2.5
  1
番
  7
FORM
100
AcDbText
  0
LINE
  5
386
330
347
100
AcDbEntity
  8
0
100
AcDbLine
 10
338.0000000489029
 20
8.788791272703917
 30
0.0
 11
338.0000000489029
 21
19.81379127270389
 31
0.0
  0
LINE
  5
387
330
347
100
AcDbEntity
  8
0
100
AcDbLine
 10
344.0000000489029
 20
1.788791272703917
 30
0.0
 11
344.0000000489029
 21
8.788791272703917
 31
0.0
  0
TEXT
  5
388
330
347
100
AcDbEntity
  8
0
 62
     2
100
AcDbText
 10
333.300000048903
 20
15.38879127270397
 30
0.0
 40
2.5
  1
図
  7
FORM
100
AcDbText
  0
TEXT
  5
389
330
347
100
AcDbEntity
  8
0
 62
     2
100
AcDbText
 10
333.5000000489031
 20
27.38879127270397
 30
0.0
 40
2.5
  1
名　称
  7
FORM
100
AcDbText
  0
TEXT
  5
38A
330
347
100
AcDbEntity
  8
0
 62
     2
100
AcDbText
 10
345.800000048903
 20
33.78879127270397
 30
0.0
 40
2.5
  1
部品表
  7
FORM
100
AcDbText
  0
TEXT
  5
38B
330
347
100
AcDbEntity
  8
0
 62
     2
100
AcDbText
 10
345.800000048903
 20
40.18879127270397
 30
0.0
 40
2.5
  1
機種名
  7
FORM
100
AcDbText
  0
ENDBLK
  5
38D
330
347
100
AcDbEntity
  8
0
100
AcDbBlockEnd
  0
BLOCK
  5
3DE
330
3D4
100
AcDbEntity
  8
0
100
AcDbBlockBegin
  2
*D1
 70
     1
 10
0.0
 20
0.0
 30
0.0
  3
*D1
  1

  0
LINE
  5
3D5
330
3D4
100
AcDbEntity
  8
MEASURE
 62
     9
370
    -2
100
AcDbLine
 10
1361.6057500342
 20
456.1331600127598
 30
0.0
 11
1361.6057500342
 21
522.7906876768615
 31
0.0
  0
LINE
  5
3D6
330
3D4
100
AcDbEntity
  8
MEASURE
 62
     9
370
    -2
100
AcDbLine
 10
1493.605750034193
 20
291.5792447318461
 30
0.0
 11
1493.605750034193
 21
522.7906876768615
 31
0.0
  0
LINE
  5
3D7
330
3D4
100
AcDbEntity
  8
MEASURE
 62
     9
370
    -2
100
AcDbLine
 10
1371.6057500342
 20
520.7906876768616
 30
0.0
 11
1483.605750034193
 21
520.7906876768616
 31
0.0
  0
SOLID
  5
3D8
330
3D4
100
AcDbEntity
  8
MEASURE
 62
     9
100
AcDbTrace
 10
1371.6057500342
 20
522.4573543435282
 30
0.0
 11
1371.6057500342
 21
519.1240210101949
 31
0.0
 12
1361.6057500342
 22
520.7906876768616
 32
0.0
 13
1361.6057500342
 23
520.7906876768616
 33
0.0
  0
SOLID
  5
3D9
330
3D4
100
AcDbEntity
  8
MEASURE
 62
     9
100
AcDbTrace
 10
1483.605750034193
 20
522.4573543435282
 30
0.0
 11
1483.605750034193
 21
519.1240210101949
 31
0.0
 12
1493.605750034193
 22
520.7906876768616
 32
0.0
 13
1493.605750034193
 23
520.7906876768616
 33
0.0
  0
MTEXT
  5
3DA
330
3D4
100
AcDbEntity
  8
MEASURE
 62
     2
100
AcDbMText
 10
1427.605750034196
 20
528.2906876768615
 30
0.0
 40
14.0
 41
0.0
 71
     5
 72
     1
  1
\A1;132
  7
AD-STANDARD
 73
     1
 44
1.0
  0
POINT
  5
3DB
330
3D4
100
AcDbEntity
  8
DEFPOINTS
 62
     0
100
AcDbPoint
 10
1361.6057500342
 20
455.1331600127597
 30
0.0
  0
POINT
  5
3DC
330
3D4
100
AcDbEntity
  8
DEFPOINTS
 62
     0
100
AcDbPoint
 10
1493.605750034193
 20
290.5792447318461
 30
0.0
  0
POINT
  5
3DD
330
3D4
100
AcDbEntity
  8
DEFPOINTS
 62
     0
100
AcDbPoint
 10
1493.605750034193
 20
520.7906876768616
 30
0.0
  0
ENDBLK
  5
3DF
330
3D4
100
AcDbEntity
  8
0
100
AcDbBlockEnd
  0
BLOCK
  5
3EA
330
3E0
100
AcDbEntity
  8
0
100
AcDbBlockBegin
  2
*D2
 70
     1
 10
0.0
 20
0.0
 30
0.0
  3
*D2
  1

  0
LINE
  5
3E1
330
3E0
100
AcDbEntity
  8
MEASURE
 62
     9
370
    -2
100
AcDbLine
 10
1363.605750034193
 20
288.0792447318461
 30
0.0
 11
1363.605750034193
 21
257.2796062661212
 31
0.0
  0
LINE
  5
3E2
330
3E0
100
AcDbEntity
  8
MEASURE
 62
     9
370
    -2
100
AcDbLine
 10
1493.605750034194
 20
288.0792447318463
 30
0.0
 11
1493.605750034194
 21
257.2796062661212
 31
0.0
  0
LINE
  5
3E3
330
3E0
100
AcDbEntity
  8
MEASURE
 62
     9
370
    -2
100
AcDbLine
 10
1373.605750034193
 20
259.2796062661212
 30
0.0
 11
1483.605750034194
 21
259.2796062661212
 31
0.0
  0
SOLID
  5
3E4
330
3E0
100
AcDbEntity
  8
MEASURE
 62
     9
100
AcDbTrace
 10
1373.605750034193
 20
260.9462729327879
 30
0.0
 11
1373.605750034193
 21
257.6129395994545
 31
0.0
 12
1363.605750034193
 22
259.2796062661212
 32
0.0
 13
1363.605750034193
 23
259.2796062661212
 33
0.0
  0
SOLID
  5
3E5
330
3E0
100
AcDbEntity
  8
MEASURE
 62
     9
100
AcDbTrace
 10
1483.605750034194
 20
260.9462729327879
 30
0.0
 11
1483.605750034194
 21
257.6129395994545
 31
0.0
 12
1493.605750034194
 22
259.2796062661212
 32
0.0
 13
1493.605750034194
 23
259.2796062661212
 33
0.0
  0
MTEXT
  5
3E6
330
3E0
100
AcDbEntity
  8
MEASURE
 62
     2
100
AcDbMText
 10
1428.605750034193
 20
266.7796062661212
 30
0.0
 40
14.0
 41
0.0
 71
     5
 72
     1
  1
\A1;130
  7
AD-STANDARD
 73
     1
 44
1.0
  0
POINT
  5
3E7
330
3E0
100
AcDbEntity
  8
DEFPOINTS
 62
     0
100
AcDbPoint
 10
1363.605750034193
 20
289.0792447318461
 30
0.0
  0
POINT
  5
3E8
330
3E0
100
AcDbEntity
  8
DEFPOINTS
 62
     0
100
AcDbPoint
 10
1493.605750034194
 20
289.0792447318463
 30
0.0
  0
POINT
  5
3E9
330
3E0
100
AcDbEntity
  8
DEFPOINTS
 62
     0
100
AcDbPoint
 10
1493.605750034194
 20
259.2796062661212
 30
0.0
  0
ENDBLK
  5
3EB
330
3E0
100
AcDbEntity
  8
0
100
AcDbBlockEnd
  0
BLOCK
  5
3F6
330
3EC
100
AcDbEntity
  8
0
100
AcDbBlockBegin
  2
*D3
 70
     1
 10
0.0
 20
0.0
 30
0.0
  3
*D3
  1

  0
LINE
  5
3ED
330
3EC
100
AcDbEntity
  8
MEASURE
 62
     9
370
    -2
100
AcDbLine
 10
1361.6057500342
 20
456.1331600127598
 30
0.0
 11
1361.6057500342
 21
479.341393977905
 31
0.0
  0
LINE
  5
3EE
330
3EC
100
AcDbEntity
  8
MEASURE
 62
     9
370
    -2
100
AcDbLine
 10
1418.605750034193
 20
397.079244731846
 30
0.0
 11
1418.605750034193
 21
479.341393977905
 31
0.0
  0
LINE
  5
3EF
330
3EC
100
AcDbEntity
  8
MEASURE
 62
     9
370
    -2
100
AcDbLine
 10
1371.6057500342
 20
477.3413939779049
 30
0.0
 11
1408.605750034193
 21
477.3413939779049
 31
0.0
  0
SOLID
  5
3F0
330
3EC
100
AcDbEntity
  8
MEASURE
 62
     9
100
AcDbTrace
 10
1371.6057500342
 20
479.0080606445717
 30
0.0
 11
1371.6057500342
 21
475.6747273112383
 31
0.0
 12
1361.6057500342
 22
477.3413939779049
 32
0.0
 13
1361.6057500342
 23
477.3413939779049
 33
0.0
  0
SOLID
  5
3F1
330
3EC
100
AcDbEntity
  8
MEASURE
 62
     9
100
AcDbTrace
 10
1408.605750034193
 20
479.0080606445717
 30
0.0
 11
1408.605750034193
 21
475.6747273112383
 31
0.0
 12
1418.605750034193
 22
477.3413939779049
 32
0.0
 13
1418.605750034193
 23
477.3413939779049
 33
0.0
  0
MTEXT
  5
3F2
330
3EC
100
AcDbEntity
  8
MEASURE
 62
     2
100
AcDbMText
 10
1390.105750034197
 20
484.8413939779049
 30
0.0
 40
14.0
 41
0.0
 71
     5
 72
     1
  1
\A1;57
  7
AD-STANDARD
 73
     1
 44
1.0
  0
POINT
  5
3F3
330
3EC
100
AcDbEntity
  8
DEFPOINTS
 62
     0
100
AcDbPoint
 10
1361.6057500342
 20
455.1331600127597
 30
0.0
  0
POINT
  5
3F4
330
3EC
100
AcDbEntity
  8
DEFPOINTS
 62
     0
100
AcDbPoint
 10
1418.605750034193
 20
396.079244731846
 30
0.0
  0
POINT
  5
3F5
330
3EC
100
AcDbEntity
  8
DEFPOINTS
 62
     0
100
AcDbPoint
 10
1418.605750034193
 20
477.3413939779049
 30
0.0
  0
ENDBLK
  5
3F7
330
3EC
100
AcDbEntity
  8
0
100
AcDbBlockEnd
  0
BLOCK
  5
40C
330
3F8
100
AcDbEntity
  8
0
100
AcDbBlockBegin
  2
A$C084B3CDB
 70
     0
 10
0.0
 20
0.0
 30
0.0
  3
A$C084B3CDB
  1

  0
LINE
  5
3F9
330
3F8
100
AcDbEntity
  8
0
100
AcDbLine
 10
9.999999999999943
 20
4.823220371519937
 30
0.0
 11
0.9344387245046732
 21
5.418851605500307
 31
0.0
  0
ARC
  5
3FA
330
3F8
100
AcDbEntity
  8
0
100
AcDbCircle
 10
1.0
 20
6.416700150699142
 30
0.0
 40
1.0
100
AcDbArc
 50
179.9999999999991
 51
266.2409193970909
  0
ARC
  5
3FB
330
3F8
100
AcDbEntity
  8
0
100
AcDbCircle
 10
1.000000000000056
 20
9.907278570329495
 30
0.0
 40
1.0
100
AcDbArc
 50
90.0
 51
180.0
  0
LINE
  5
3FC
330
3F8
100
AcDbEntity
  8
0
100
AcDbLine
 10
10.0
 20
10.90727857032948
 30
0.0
 11
1.000000000000056
 21
10.90727857032949
 31
0.0
  0
LINE
  5
3FD
330
3F8
100
AcDbEntity
  8
0
100
AcDbLine
 10
0.0
 20
37.98506160512815
 30
0.0
 11
0.0
 21
1.795036729352332
 31
0.0
  0
LINE
  5
3FE
330
3F8
100
AcDbEntity
  8
0
100
AcDbLine
 10
10.0
 20
26.18723795806477
 30
0.0
 11
0.9641395788916042
 21
26.51147626524609
 31
0.0
  0
ARC
  5
3FF
330
3F8
100
AcDbEntity
  8
0
100
AcDbCircle
 10
1.0
 20
27.51083307349724
 30
0.0
 40
1.0
100
AcDbArc
 50
180.0
 51
267.9449085940861
  0
LINE
  5
400
330
3F8
100
AcDbEntity
  8
0
100
AcDbLine
 10
10.0
 20
34.41693477292165
 30
0.0
 11
0.8913669594212478
 21
33.42154547612885
 31
0.0
  0
ARC
  5
401
330
3F8
100
AcDbEntity
  8
0
100
AcDbCircle
 10
1.0
 20
32.42746355672049
 30
0.0
 40
1.0
100
AcDbArc
 50
96.23652234888862
 51
180.0
  0
LINE
  5
402
330
3F8
100
AcDbEntity
  8
0
100
AcDbLine
 10
8.900496280978927
 20
-0.0000004608576489
 30
0.0
 11
0.9004962809789844
 21
0.7999995391423483
 31
0.0
  0
LINE
  5
403
330
3F8
100
AcDbEntity
  8
0
100
AcDbLine
 10
10.0
 20
38.78506160512815
 30
0.0
 11
9.999999999999943
 21
0.9950367293523356
 31
0.0
  0
ARC
  5
404
330
3F8
100
AcDbEntity
  8
0
100
AcDbCircle
 10
8.999999999999943
 20
0.9950367293523356
 30
0.0
 40
1.0
100
AcDbArc
 50
264.2894068624993
 51
0.0
  0
LINE
  5
405
330
3F8
100
AcDbEntity
  8
0
100
AcDbLine
 10
8.900496280978984
 20
39.78009879533814
 30
0.0
 11
0.9004962809789844
 21
38.98009879533814
 31
0.0
  0
ARC
  5
406
330
3F8
100
AcDbEntity
  8
0
100
AcDbCircle
 10
9.0
 20
38.78506160512815
 30
0.0
 40
1.0
100
AcDbArc
 50
0.0
 51
95.7105931375006
  0
ARC
  5
407
330
3F8
100
AcDbEntity
  8
0
100
AcDbCircle
 10
1.0
 20
1.795036729352332
 30
0.0
 40
1.0
100
AcDbArc
 50
180.0
 51
264.2894068624993
  0
ARC
  5
408
330
3F8
100
AcDbEntity
  8
0
100
AcDbCircle
 10
1.0
 20
37.98506160512815
 30
0.0
 40
1.0
100
AcDbArc
 50
95.7105931375006
 51
180.0
  0
LINE
  5
409
330
3F8
100
AcDbEntity
  8
0
100
AcDbLine
 10
10.0
 20
6.890049167240263
 30
0.0
 11
16.0
 21
6.890049167240249
 31
0.0
  0
LINE
  5
40A
330
3F8
100
AcDbEntity
  8
0
100
AcDbLine
 10
9.999999999999943
 20
32.89004916724024
 30
0.0
 11
15.99999999999994
 21
32.89004916724024
 31
0.0
  0
LINE
  5
40B
330
3F8
100
AcDbEntity
  8
0
100
AcDbLine
 10
15.99999999999994
 20
32.89004916724024
 30
0.0
 11
16.0
 21
6.890049167240249
 31
0.0
  0
ENDBLK
  5
40D
330
3F8
100
AcDbEntity
  8
0
100
AcDbBlockEnd
  0
BLOCK
  5
418
330
40E
100
AcDbEntity
  8
0
100
AcDbBlockBegin
  2
*D5
 70
     1
 10
0.0
 20
0.0
 30
0.0
  3
*D5
  1

  0
LINE
  5
40F
330
40E
100
AcDbEntity
  8
MEASURE
 62
     9
370
    -2
100
AcDbLine
 10
1000.839996300673
 20
415.1742571697345
 30
0.0
 11
1000.839996300673
 21
507.1687330832182
 31
0.0
  0
LINE
  5
410
330
40E
100
AcDbEntity
  8
MEASURE
 62
     9
370
    -2
100
AcDbLine
 10
1237.839996300671
 20
415.1742571697334
 30
0.0
 11
1237.839996300671
 21
507.1687330832182
 31
0.0
  0
LINE
  5
411
330
40E
100
AcDbEntity
  8
MEASURE
 62
     9
370
    -2
100
AcDbLine
 10
1010.839996300673
 20
505.1687330832183
 30
0.0
 11
1227.839996300671
 21
505.1687330832183
 31
0.0
  0
SOLID
  5
412
330
40E
100
AcDbEntity
  8
MEASURE
 62
     9
100
AcDbTrace
 10
1010.839996300673
 20
506.8353997498849
 30
0.0
 11
1010.839996300673
 21
503.5020664165515
 31
0.0
 12
1000.839996300673
 22
505.1687330832183
 32
0.0
 13
1000.839996300673
 23
505.1687330832183
 33
0.0
  0
SOLID
  5
413
330
40E
100
AcDbEntity
  8
MEASURE
 62
     9
100
AcDbTrace
 10
1227.839996300671
 20
506.8353997498849
 30
0.0
 11
1227.839996300671
 21
503.5020664165515
 31
0.0
 12
1237.839996300671
 22
505.1687330832183
 32
0.0
 13
1237.839996300671
 23
505.1687330832183
 33
0.0
  0
MTEXT
  5
414
330
40E
100
AcDbEntity
  8
MEASURE
 62
     2
100
AcDbMText
 10
1119.339996300672
 20
512.6687330832182
 30
0.0
 40
14.0
 41
0.0
 71
     5
 72
     1
  1
\A1;238
  7
AD-STANDARD
 73
     1
 44
1.0
  0
POINT
  5
415
330
40E
100
AcDbEntity
  8
DEFPOINTS
 62
     0
100
AcDbPoint
 10
1000.839996300673
 20
414.1742571697346
 30
0.0
  0
POINT
  5
416
330
40E
100
AcDbEntity
  8
DEFPOINTS
 62
     0
100
AcDbPoint
 10
1237.839996300671
 20
414.1742571697334
 30
0.0
  0
POINT
  5
417
330
40E
100
AcDbEntity
  8
DEFPOINTS
 62
     0
100
AcDbPoint
 10
1237.839996300671
 20
505.1687330832183
 30
0.0
  0
ENDBLK
  5
419
330
40E
100
AcDbEntity
  8
0
100
AcDbBlockEnd
  0
BLOCK
  5
424
330
41A
100
AcDbEntity
  8
0
100
AcDbBlockBegin
  2
*D6
 70
     1
 10
0.0
 20
0.0
 30
0.0
  3
*D6
  1

  0
LINE
  5
41B
330
41A
100
AcDbEntity
  8
MEASURE
 62
     9
370
    -2
100
AcDbLine
 10
1023.339996300672
 20
454.0792447318487
 30
0.0
 11
1023.339996300672
 21
481.643479507406
 31
0.0
  0
LINE
  5
41C
330
41A
100
AcDbEntity
  8
MEASURE
 62
     9
370
    -2
100
AcDbLine
 10
1215.339996300672
 20
454.0792447318482
 30
0.0
 11
1215.339996300672
 21
481.643479507406
 31
0.0
  0
LINE
  5
41D
330
41A
100
AcDbEntity
  8
MEASURE
 62
     9
370
    -2
100
AcDbLine
 10
1033.339996300672
 20
479.643479507406
 30
0.0
 11
1205.339996300672
 21
479.643479507406
 31
0.0
  0
SOLID
  5
41E
330
41A
100
AcDbEntity
  8
MEASURE
 62
     9
100
AcDbTrace
 10
1033.339996300672
 20
481.3101461740727
 30
0.0
 11
1033.339996300672
 21
477.9768128407393
 31
0.0
 12
1023.339996300672
 22
479.643479507406
 32
0.0
 13
1023.339996300672
 23
479.643479507406
 33
0.0
  0
SOLID
  5
41F
330
41A
100
AcDbEntity
  8
MEASURE
 62
     9
100
AcDbTrace
 10
1205.339996300672
 20
481.3101461740727
 30
0.0
 11
1205.339996300672
 21
477.9768128407393
 31
0.0
 12
1215.339996300672
 22
479.643479507406
 32
0.0
 13
1215.339996300672
 23
479.643479507406
 33
0.0
  0
MTEXT
  5
420
330
41A
100
AcDbEntity
  8
MEASURE
 62
     2
100
AcDbMText
 10
1119.339996300672
 20
487.143479507406
 30
0.0
 40
14.0
 41
0.0
 71
     5
 72
     1
  1
\A1;192
  7
AD-STANDARD
 73
     1
 44
1.0
  0
POINT
  5
421
330
41A
100
AcDbEntity
  8
DEFPOINTS
 62
     0
100
AcDbPoint
 10
1023.339996300672
 20
453.0792447318487
 30
0.0
  0
POINT
  5
422
330
41A
100
AcDbEntity
  8
DEFPOINTS
 62
     0
100
AcDbPoint
 10
1215.339996300672
 20
453.0792447318482
 30
0.0
  0
POINT
  5
423
330
41A
100
AcDbEntity
  8
DEFPOINTS
 62
     0
100
AcDbPoint
 10
1215.339996300672
 20
479.643479507406
 30
0.0
  0
ENDBLK
  5
425
330
41A
100
AcDbEntity
  8
0
100
AcDbBlockEnd
  0
BLOCK
  5
430
330
426
100
AcDbEntity
  8
0
100
AcDbBlockBegin
  2
*D7
 70
     1
 10
0.0
 20
0.0
 30
0.0
  3
*D7
  1

  0
LINE
  5
427
330
426
100
AcDbEntity
  8
MEASURE
 62
     9
370
    -2
100
AcDbLine
 10
1210.339996300673
 20
288.0792447318461
 30
0.0
 11
1282.292254889239
 21
288.0792447318461
 31
0.0
  0
LINE
  5
428
330
426
100
AcDbEntity
  8
MEASURE
 62
     9
370
    -2
100
AcDbLine
 10
1210.339996300674
 20
458.0792447318482
 30
0.0
 11
1282.292254889239
 21
458.0792447318482
 31
0.0
  0
LINE
  5
429
330
426
100
AcDbEntity
  8
MEASURE
 62
     9
370
    -2
100
AcDbLine
 10
1280.292254889239
 20
298.0792447318461
 30
0.0
 11
1280.292254889239
 21
448.0792447318482
 31
0.0
  0
SOLID
  5
42A
330
426
100
AcDbEntity
  8
MEASURE
 62
     9
100
AcDbTrace
 10
1278.625588222572
 20
298.0792447318461
 30
0.0
 11
1281.958921555906
 21
298.0792447318461
 31
0.0
 12
1280.292254889239
 22
288.0792447318461
 32
0.0
 13
1280.292254889239
 23
288.0792447318461
 33
0.0
  0
SOLID
  5
42B
330
426
100
AcDbEntity
  8
MEASURE
 62
     9
100
AcDbTrace
 10
1278.625588222572
 20
448.0792447318482
 30
0.0
 11
1281.958921555906
 21
448.0792447318482
 31
0.0
 12
1280.292254889239
 22
458.0792447318482
 32
0.0
 13
1280.292254889239
 23
458.0792447318482
 33
0.0
  0
MTEXT
  5
42C
330
426
100
AcDbEntity
  8
MEASURE
 62
     2
100
AcDbMText
 10
1272.792254889239
 20
373.0792447318473
 30
0.0
 40
14.0
 41
0.0
 71
     5
 72
     1
  1
\A1;170
  7
AD-STANDARD
 11
0.0000000000000001
 21
1.0
 31
0.0
 73
     1
 44
1.0
  0
POINT
  5
42D
330
426
100
AcDbEntity
  8
DEFPOINTS
 62
     0
100
AcDbPoint
 10
1209.339996300673
 20
288.0792447318461
 30
0.0
  0
POINT
  5
42E
330
426
100
AcDbEntity
  8
DEFPOINTS
 62
     0
100
AcDbPoint
 10
1209.339996300673
 20
458.0792447318482
 30
0.0
  0
POINT
  5
42F
330
426
100
AcDbEntity
  8
DEFPOINTS
 62
     0
100
AcDbPoint
 10
1280.292254889239
 20
458.0792447318482
 30
0.0
  0
ENDBLK
  5
431
330
426
100
AcDbEntity
  8
0
100
AcDbBlockEnd
  0
BLOCK
  5
43C
330
432
100
AcDbEntity
  8
0
100
AcDbBlockBegin
  2
*D8
 70
     1
 10
0.0
 20
0.0
 30
0.0
  3
*D8
  1

  0
LINE
  5
433
330
432
100
AcDbEntity
  8
MEASURE
 62
     9
370
    -2
100
AcDbLine
 10
1210.339996300673
 20
288.0792447318461
 30
0.0
 11
1261.656453300987
 21
288.0792447318461
 31
0.0
  0
LINE
  5
434
330
432
100
AcDbEntity
  8
MEASURE
 62
     9
370
    -2
100
AcDbLine
 10
1238.839996300671
 20
396.0792447318455
 30
0.0
 11
1261.656453300987
 21
396.0792447318455
 31
0.0
  0
LINE
  5
435
330
432
100
AcDbEntity
  8
MEASURE
 62
     9
370
    -2
100
AcDbLine
 10
1259.656453300986
 20
298.0792447318461
 30
0.0
 11
1259.656453300986
 21
386.0792447318455
 31
0.0
  0
SOLID
  5
436
330
432
100
AcDbEntity
  8
MEASURE
 62
     9
100
AcDbTrace
 10
1257.98978663432
 20
298.0792447318461
 30
0.0
 11
1261.323119967653
 21
298.0792447318461
 31
0.0
 12
1259.656453300986
 22
288.0792447318461
 32
0.0
 13
1259.656453300986
 23
288.0792447318461
 33
0.0
  0
SOLID
  5
437
330
432
100
AcDbEntity
  8
MEASURE
 62
     9
100
AcDbTrace
 10
1257.98978663432
 20
386.0792447318455
 30
0.0
 11
1261.323119967653
 21
386.0792447318455
 31
0.0
 12
1259.656453300986
 22
396.0792447318455
 32
0.0
 13
1259.656453300986
 23
396.0792447318455
 33
0.0
  0
MTEXT
  5
438
330
432
100
AcDbEntity
  8
MEASURE
 62
     2
100
AcDbMText
 10
1252.156453300987
 20
342.079244731846
 30
0.0
 40
14.0
 41
0.0
 71
     5
 72
     1
  1
\A1;108
  7
AD-STANDARD
 11
0.0000000000000001
 21
1.0
 31
0.0
 73
     1
 44
1.0
  0
POINT
  5
439
330
432
100
AcDbEntity
  8
DEFPOINTS
 62
     0
100
AcDbPoint
 10
1209.339996300673
 20
288.0792447318461
 30
0.0
  0
POINT
  5
43A
330
432
100
AcDbEntity
  8
DEFPOINTS
 62
     0
100
AcDbPoint
 10
1237.839996300671
 20
396.0792447318455
 30
0.0
  0
POINT
  5
43B
330
432
100
AcDbEntity
  8
DEFPOINTS
 62
     0
100
AcDbPoint
 10
1259.656453300986
 20
396.0792447318455
 30
0.0
  0
ENDBLK
  5
43D
330
432
100
AcDbEntity
  8
0
100
AcDbBlockEnd
  0
BLOCK
  5
448
330
43E
100
AcDbEntity
  8
0
100
AcDbBlockBegin
  2
*D9
 70
     1
 10
0.0
 20
0.0
 30
0.0
  3
*D9
  1

  0
LINE
  5
43F
330
43E
100
AcDbEntity
  8
MEASURE
 62
     9
370
    -2
100
AcDbLine
 10
1361.6057500342
 20
456.1331600127598
 30
0.0
 11
1361.6057500342
 21
501.2262424511249
 31
0.0
  0
LINE
  5
440
330
43E
100
AcDbEntity
  8
MEASURE
 62
     9
370
    -2
100
AcDbLine
 10
1461.605750034199
 20
409.009429789524
 30
0.0
 11
1461.605750034199
 21
501.2262424511249
 31
0.0
  0
LINE
  5
441
330
43E
100
AcDbEntity
  8
MEASURE
 62
     9
370
    -2
100
AcDbLine
 10
1371.6057500342
 20
499.226242451125
 30
0.0
 11
1451.605750034199
 21
499.226242451125
 31
0.0
  0
SOLID
  5
442
330
43E
100
AcDbEntity
  8
MEASURE
 62
     9
100
AcDbTrace
 10
1371.6057500342
 20
500.8929091177916
 30
0.0
 11
1371.6057500342
 21
497.5595757844583
 31
0.0
 12
1361.6057500342
 22
499.226242451125
 32
0.0
 13
1361.6057500342
 23
499.226242451125
 33
0.0
  0
SOLID
  5
443
330
43E
100
AcDbEntity
  8
MEASURE
 62
     9
100
AcDbTrace
 10
1451.605750034199
 20
500.8929091177916
 30
0.0
 11
1451.605750034199
 21
497.5595757844583
 31
0.0
 12
1461.605750034199
 22
499.226242451125
 32
0.0
 13
1461.605750034199
 23
499.226242451125
 33
0.0
  0
MTEXT
  5
444
330
43E
100
AcDbEntity
  8
MEASURE
 62
     2
100
AcDbMText
 10
1411.6057500342
 20
506.726242451125
 30
0.0
 40
14.0
 41
0.0
 71
     5
 72
     1
  1
\A1;100
  7
AD-STANDARD
 73
     1
 44
1.0
  0
POINT
  5
445
330
43E
100
AcDbEntity
  8
DEFPOINTS
 62
     0
100
AcDbPoint
 10
1361.6057500342
 20
455.1331600127598
 30
0.0
  0
POINT
  5
446
330
43E
100
AcDbEntity
  8
DEFPOINTS
 62
     0
100
AcDbPoint
 10
1461.605750034199
 20
408.009429789524
 30
0.0
  0
POINT
  5
447
330
43E
100
AcDbEntity
  8
DEFPOINTS
 62
     0
100
AcDbPoint
 10
1461.605750034199
 20
499.226242451125
 30
0.0
  0
ENDBLK
  5
449
330
43E
100
AcDbEntity
  8
0
100
AcDbBlockEnd
  0
BLOCK
  5
454
330
44A
100
AcDbEntity
  8
0
100
AcDbBlockBegin
  2
*D10
 70
     1
 10
0.0
 20
0.0
 30
0.0
  3
*D10
  1

  0
LINE
  5
44B
330
44A
100
AcDbEntity
  8
MEASURE
 62
     9
370
    -2
100
AcDbLine
 10
1380.605750034199
 20
458.0792447318505
 30
0.0
 11
1333.53878705788
 21
458.0792447318505
 31
0.0
  0
LINE
  5
44C
330
44A
100
AcDbEntity
  8
MEASURE
 62
     9
370
    -2
100
AcDbLine
 10
1380.6057500342
 20
362.0792447318505
 30
0.0
 11
1333.53878705788
 21
362.0792447318505
 31
0.0
  0
LINE
  5
44D
330
44A
100
AcDbEntity
  8
MEASURE
 62
     9
370
    -2
100
AcDbLine
 10
1335.53878705788
 20
448.0792447318505
 30
0.0
 11
1335.53878705788
 21
372.0792447318505
 31
0.0
  0
SOLID
  5
44E
330
44A
100
AcDbEntity
  8
MEASURE
 62
     9
100
AcDbTrace
 10
1333.872120391214
 20
448.0792447318505
 30
0.0
 11
1337.205453724547
 21
448.0792447318505
 31
0.0
 12
1335.53878705788
 22
458.0792447318505
 32
0.0
 13
1335.53878705788
 23
458.0792447318505
 33
0.0
  0
SOLID
  5
44F
330
44A
100
AcDbEntity
  8
MEASURE
 62
     9
100
AcDbTrace
 10
1333.872120391214
 20
372.0792447318505
 30
0.0
 11
1337.205453724547
 21
372.0792447318505
 31
0.0
 12
1335.53878705788
 22
362.0792447318505
 32
0.0
 13
1335.53878705788
 23
362.0792447318505
 33
0.0
  0
MTEXT
  5
450
330
44A
100
AcDbEntity
  8
MEASURE
 62
     2
100
AcDbMText
 10
1328.03878705788
 20
410.0792447318507
 30
0.0
 40
14.0
 41
0.0
 71
     5
 72
     1
  1
\A1;96
  7
AD-STANDARD
 11
0.0000000000000001
 21
1.0
 31
0.0
 73
     1
 44
1.0
  0
POINT
  5
451
330
44A
100
AcDbEntity
  8
DEFPOINTS
 62
     0
100
AcDbPoint
 10
1381.605750034199
 20
458.0792447318505
 30
0.0
  0
POINT
  5
452
330
44A
100
AcDbEntity
  8
DEFPOINTS
 62
     0
100
AcDbPoint
 10
1381.6057500342
 20
362.0792447318505
 30
0.0
  0
POINT
  5
453
330
44A
100
AcDbEntity
  8
DEFPOINTS
 62
     0
100
AcDbPoint
 10
1335.53878705788
 20
362.0792447318505
 30
0.0
  0
ENDBLK
  5
455
330
44A
100
AcDbEntity
  8
0
100
AcDbBlockEnd
  0
BLOCK
  5
770
330
766
100
AcDbEntity
  8
0
100
AcDbBlockBegin
  2
*D12
 70
     1
 10
0.0
 20
0.0
 30
0.0
  3
*D12
  1

  0
LINE
  5
913
330
766
100
AcDbEntity
  8
MEASURE
 62
     9
370
    -2
100
AcDbLine
 10
298.0121854576784
 20
103.3656941314637
 30
0.0
 11
348.8286424579918
 21
103.3656941314637
 31
0.0
  0
LINE
  5
914
330
766
100
AcDbEntity
  8
MEASURE
 62
     9
370
    -2
100
AcDbLine
 10
326.5121854576764
 20
211.365694131463
 30
0.0
 11
348.8286424579919
 21
211.365694131463
 31
0.0
  0
LINE
  5
915
330
766
100
AcDbEntity
  8
MEASURE
 62
     9
370
    -2
100
AcDbLine
 10
347.8286424579918
 20
108.3656941314637
 30
0.0
 11
347.8286424579919
 21
206.3656941314631
 31
0.0
  0
SOLID
  5
916
330
766
100
AcDbEntity
  8
MEASURE
 62
     9
100
AcDbTrace
 10
346.9953091246585
 20
108.3656941314637
 30
0.0
 11
348.6619757913251
 21
108.3656941314637
 31
0.0
 12
347.8286424579918
 22
103.3656941314637
 32
0.0
 13
347.8286424579918
 23
103.3656941314637
 33
0.0
  0
SOLID
  5
917
330
766
100
AcDbEntity
  8
MEASURE
 62
     9
100
AcDbTrace
 10
346.9953091246586
 20
206.3656941314631
 30
0.0
 11
348.6619757913252
 21
206.3656941314631
 31
0.0
 12
347.8286424579919
 22
211.365694131463
 32
0.0
 13
347.8286424579919
 23
211.365694131463
 33
0.0
  0
MTEXT
  5
918
330
766
100
AcDbEntity
  8
MEASURE
 62
     2
100
AcDbMText
 10
344.0786424579918
 20
157.3656941314634
 30
0.0
 40
7.0
 41
0.0
 71
     5
 72
     1
  1
\A1;108
  7
AD-STANDARD
 11
0.0000000000000001
 21
1.0
 31
0.0
 73
     1
 44
1.0
  0
POINT
  5
919
330
766
100
AcDbEntity
  8
DEFPOINTS
 62
     0
100
AcDbPoint
 10
297.5121854576784
 20
103.3656941314637
 30
0.0
  0
POINT
  5
91A
330
766
100
AcDbEntity
  8
DEFPOINTS
 62
     0
100
AcDbPoint
 10
326.0121854576764
 20
211.365694131463
 30
0.0
  0
POINT
  5
91B
330
766
100
AcDbEntity
  8
DEFPOINTS
 62
     0
100
AcDbPoint
 10
347.8286424579919
 20
211.365694131463
 30
0.0
  0
ENDBLK
  5
771
330
766
100
AcDbEntity
  8
0
100
AcDbBlockEnd
  0
BLOCK
  5
77C
330
772
100
AcDbEntity
  8
0
100
AcDbBlockBegin
  2
*D13
 70
     1
 10
0.0
 20
0.0
 30
0.0
  3
*D13
  1

  0
LINE
  5
91C
330
772
100
AcDbEntity
  8
MEASURE
 62
     9
370
    -2
100
AcDbLine
 10
298.0121854576784
 20
103.3656941314637
 30
0.0
 11
369.4644440462443
 21
103.3656941314637
 31
0.0
  0
LINE
  5
91D
330
772
100
AcDbEntity
  8
MEASURE
 62
     9
370
    -2
100
AcDbLine
 10
298.0121854576789
 20
273.3656941314658
 30
0.0
 11
369.4644440462443
 21
273.3656941314658
 31
0.0
  0
LINE
  5
91E
330
772
100
AcDbEntity
  8
MEASURE
 62
     9
370
    -2
100
AcDbLine
 10
368.4644440462442
 20
108.3656941314637
 30
0.0
 11
368.4644440462443
 21
268.3656941314658
 31
0.0
  0
SOLID
  5
91F
330
772
100
AcDbEntity
  8
MEASURE
 62
     9
100
AcDbTrace
 10
367.6311107129109
 20
108.3656941314637
 30
0.0
 11
369.2977773795776
 21
108.3656941314637
 31
0.0
 12
368.4644440462442
 22
103.3656941314637
 32
0.0
 13
368.4644440462442
 23
103.3656941314637
 33
0.0
  0
SOLID
  5
920
330
772
100
AcDbEntity
  8
MEASURE
 62
     9
100
AcDbTrace
 10
367.631110712911
 20
268.3656941314658
 30
0.0
 11
369.2977773795776
 21
268.3656941314658
 31
0.0
 12
368.4644440462443
 22
273.3656941314658
 32
0.0
 13
368.4644440462443
 23
273.3656941314658
 33
0.0
  0
MTEXT
  5
921
330
772
100
AcDbEntity
  8
MEASURE
 62
     2
100
AcDbMText
 10
364.7144440462442
 20
188.3656941314647
 30
0.0
 40
7.0
 41
0.0
 71
     5
 72
     1
  1
\A1;170
  7
AD-STANDARD
 11
0.0000000000000001
 21
1.0
 31
0.0
 73
     1
 44
1.0
  0
POINT
  5
922
330
772
100
AcDbEntity
  8
DEFPOINTS
 62
     0
100
AcDbPoint
 10
297.5121854576784
 20
103.3656941314637
 30
0.0
  0
POINT
  5
923
330
772
100
AcDbEntity
  8
DEFPOINTS
 62
     0
100
AcDbPoint
 10
297.5121854576789
 20
273.3656941314658
 30
0.0
  0
POINT
  5
924
330
772
100
AcDbEntity
  8
DEFPOINTS
 62
     0
100
AcDbPoint
 10
368.4644440462443
 20
273.3656941314658
 30
0.0
  0
ENDBLK
  5
77D
330
772
100
AcDbEntity
  8
0
100
AcDbBlockEnd
  0
BLOCK
  5
788
330
77E
100
AcDbEntity
  8
0
100
AcDbBlockBegin
  2
*D14
 70
     1
 10
0.0
 20
0.0
 30
0.0
  3
*D14
  1

  0
LINE
  5
8F8
330
77E
100
AcDbEntity
  8
MEASURE
 62
     9
370
    -2
100
AcDbLine
 10
449.7779391912056
 20
270.9196094123774
 30
0.0
 11
449.7779391912056
 21
337.0771370764791
 31
0.0
  0
LINE
  5
8F9
330
77E
100
AcDbEntity
  8
MEASURE
 62
     9
370
    -2
100
AcDbLine
 10
581.7779391911981
 20
106.3656941314637
 30
0.0
 11
581.7779391911981
 21
337.0771370764791
 31
0.0
  0
LINE
  5
8FA
330
77E
100
AcDbEntity
  8
MEASURE
 62
     9
370
    -2
100
AcDbLine
 10
454.7779391912056
 20
336.0771370764791
 30
0.0
 11
576.7779391911981
 21
336.0771370764791
 31
0.0
  0
SOLID
  5
8FB
330
77E
100
AcDbEntity
  8
MEASURE
 62
     9
100
AcDbTrace
 10
454.7779391912056
 20
336.9104704098124
 30
0.0
 11
454.7779391912056
 21
335.2438037431458
 31
0.0
 12
449.7779391912056
 22
336.0771370764791
 32
0.0
 13
449.7779391912056
 23
336.0771370764791
 33
0.0
  0
SOLID
  5
8FC
330
77E
100
AcDbEntity
  8
MEASURE
 62
     9
100
AcDbTrace
 10
576.7779391911981
 20
336.9104704098124
 30
0.0
 11
576.7779391911981
 21
335.2438037431458
 31
0.0
 12
581.7779391911981
 22
336.0771370764791
 32
0.0
 13
581.7779391911981
 23
336.0771370764791
 33
0.0
  0
MTEXT
  5
8FD
330
77E
100
AcDbEntity
  8
MEASURE
 62
     2
100
AcDbMText
 10
515.7779391912018
 20
339.8271370764792
 30
0.0
 40
7.0
 41
0.0
 71
     5
 72
     1
  1
\A1;132
  7
AD-STANDARD
 73
     1
 44
1.0
  0
POINT
  5
8FE
330
77E
100
AcDbEntity
  8
DEFPOINTS
 62
     0
100
AcDbPoint
 10
449.7779391912056
 20
270.4196094123773
 30
0.0
  0
POINT
  5
8FF
330
77E
100
AcDbEntity
  8
DEFPOINTS
 62
     0
100
AcDbPoint
 10
581.7779391911981
 20
105.8656941314637
 30
0.0
  0
POINT
  5
900
330
77E
100
AcDbEntity
  8
DEFPOINTS
 62
     0
100
AcDbPoint
 10
581.7779391911981
 20
336.0771370764791
 30
0.0
  0
ENDBLK
  5
789
330
77E
100
AcDbEntity
  8
0
100
AcDbBlockEnd
  0
BLOCK
  5
794
330
78A
100
AcDbEntity
  8
0
100
AcDbBlockBegin
  2
*D15
 70
     1
 10
0.0
 20
0.0
 30
0.0
  3
*D15
  1

  0
LINE
  5
90A
330
78A
100
AcDbEntity
  8
MEASURE
 62
     9
370
    -2
100
AcDbLine
 10
451.7779391911981
 20
103.8656941314637
 30
0.0
 11
451.7779391911981
 21
73.56605566573882
 31
0.0
  0
LINE
  5
90B
330
78A
100
AcDbEntity
  8
MEASURE
 62
     9
370
    -2
100
AcDbLine
 10
581.7779391911995
 20
103.8656941314639
 30
0.0
 11
581.7779391911995
 21
73.56605566573882
 31
0.0
  0
LINE
  5
90C
330
78A
100
AcDbEntity
  8
MEASURE
 62
     9
370
    -2
100
AcDbLine
 10
456.7779391911981
 20
74.56605566573881
 30
0.0
 11
576.7779391911995
 21
74.56605566573881
 31
0.0
  0
SOLID
  5
90D
330
78A
100
AcDbEntity
  8
MEASURE
 62
     9
100
AcDbTrace
 10
456.7779391911981
 20
75.39938899907214
 30
0.0
 11
456.7779391911981
 21
73.73272233240548
 31
0.0
 12
451.7779391911981
 22
74.56605566573881
 32
0.0
 13
451.7779391911981
 23
74.56605566573881
 33
0.0
  0
SOLID
  5
90E
330
78A
100
AcDbEntity
  8
MEASURE
 62
     9
100
AcDbTrace
 10
576.7779391911995
 20
75.39938899907214
 30
0.0
 11
576.7779391911995
 21
73.73272233240548
 31
0.0
 12
581.7779391911995
 22
74.56605566573881
 32
0.0
 13
581.7779391911995
 23
74.56605566573881
 33
0.0
  0
MTEXT
  5
90F
330
78A
100
AcDbEntity
  8
MEASURE
 62
     2
100
AcDbMText
 10
516.7779391911988
 20
78.31605566573881
 30
0.0
 40
7.0
 41
0.0
 71
     5
 72
     1
  1
\A1;130
  7
AD-STANDARD
 73
     1
 44
1.0
  0
POINT
  5
910
330
78A
100
AcDbEntity
  8
DEFPOINTS
 62
     0
100
AcDbPoint
 10
451.7779391911981
 20
104.3656941314637
 30
0.0
  0
POINT
  5
911
330
78A
100
AcDbEntity
  8
DEFPOINTS
 62
     0
100
AcDbPoint
 10
581.7779391911995
 20
104.3656941314639
 30
0.0
  0
POINT
  5
912
330
78A
100
AcDbEntity
  8
DEFPOINTS
 62
     0
100
AcDbPoint
 10
581.7779391911995
 20
74.56605566573881
 30
0.0
  0
ENDBLK
  5
795
330
78A
100
AcDbEntity
  8
0
100
AcDbBlockEnd
  0
BLOCK
  5
7A0
330
796
100
AcDbEntity
  8
0
100
AcDbBlockBegin
  2
*D16
 70
     1
 10
0.0
 20
0.0
 30
0.0
  3
*D16
  1

  0
LINE
  5
92E
330
796
100
AcDbEntity
  8
MEASURE
 62
     9
370
    -2
100
AcDbLine
 10
111.5121854576777
 20
268.8656941314663
 30
0.0
 11
111.5121854576777
 21
295.9299289070236
 31
0.0
  0
LINE
  5
92F
330
796
100
AcDbEntity
  8
MEASURE
 62
     9
370
    -2
100
AcDbLine
 10
303.5121854576777
 20
268.8656941314658
 30
0.0
 11
303.5121854576777
 21
295.9299289070236
 31
0.0
  0
LINE
  5
930
330
796
100
AcDbEntity
  8
MEASURE
 62
     9
370
    -2
100
AcDbLine
 10
116.5121854576777
 20
294.9299289070236
 30
0.0
 11
298.5121854576778
 21
294.9299289070236
 31
0.0
  0
SOLID
  5
931
330
796
100
AcDbEntity
  8
MEASURE
 62
     9
100
AcDbTrace
 10
116.5121854576777
 20
295.7632622403569
 30
0.0
 11
116.5121854576777
 21
294.0965955736903
 31
0.0
 12
111.5121854576777
 22
294.9299289070236
 32
0.0
 13
111.5121854576777
 23
294.9299289070236
 33
0.0
  0
SOLID
  5
932
330
796
100
AcDbEntity
  8
MEASURE
 62
     9
100
AcDbTrace
 10
298.5121854576778
 20
295.7632622403569
 30
0.0
 11
298.5121854576778
 21
294.0965955736903
 31
0.0
 12
303.5121854576777
 22
294.9299289070236
 32
0.0
 13
303.5121854576777
 23
294.9299289070236
 33
0.0
  0
MTEXT
  5
933
330
796
100
AcDbEntity
  8
MEASURE
 62
     2
100
AcDbMText
 10
207.5121854576778
 20
298.6799289070236
 30
0.0
 40
7.0
 41
0.0
 71
     5
 72
     1
  1
\A1;192
  7
AD-STANDARD
 73
     1
 44
1.0
  0
POINT
  5
934
330
796
100
AcDbEntity
  8
DEFPOINTS
 62
     0
100
AcDbPoint
 10
111.5121854576777
 20
268.3656941314663
 30
0.0
  0
POINT
  5
935
330
796
100
AcDbEntity
  8
DEFPOINTS
 62
     0
100
AcDbPoint
 10
303.5121854576777
 20
268.3656941314658
 30
0.0
  0
POINT
  5
936
330
796
100
AcDbEntity
  8
DEFPOINTS
 62
     0
100
AcDbPoint
 10
303.5121854576777
 20
294.9299289070236
 30
0.0
  0
ENDBLK
  5
7A1
330
796
100
AcDbEntity
  8
0
100
AcDbBlockEnd
  0
BLOCK
  5
7AC
330
7A2
100
AcDbEntity
  8
0
100
AcDbBlockBegin
  2
*D17
 70
     1
 10
0.0
 20
0.0
 30
0.0
  3
*D17
  1

  0
LINE
  5
925
330
7A2
100
AcDbEntity
  8
MEASURE
 62
     9
370
    -2
100
AcDbLine
 10
89.0121854576787
 20
229.9607065693521
 30
0.0
 11
89.0121854576787
 21
321.4551824828358
 31
0.0
  0
LINE
  5
926
330
7A2
100
AcDbEntity
  8
MEASURE
 62
     9
370
    -2
100
AcDbLine
 10
326.0121854576764
 20
229.960706569351
 30
0.0
 11
326.0121854576764
 21
321.4551824828358
 31
0.0
  0
LINE
  5
927
330
7A2
100
AcDbEntity
  8
MEASURE
 62
     9
370
    -2
100
AcDbLine
 10
94.0121854576787
 20
320.4551824828358
 30
0.0
 11
321.0121854576764
 21
320.4551824828358
 31
0.0
  0
SOLID
  5
928
330
7A2
100
AcDbEntity
  8
MEASURE
 62
     9
100
AcDbTrace
 10
94.0121854576787
 20
321.2885158161692
 30
0.0
 11
94.0121854576787
 21
319.6218491495025
 31
0.0
 12
89.0121854576787
 22
320.4551824828358
 32
0.0
 13
89.0121854576787
 23
320.4551824828358
 33
0.0
  0
SOLID
  5
929
330
7A2
100
AcDbEntity
  8
MEASURE
 62
     9
100
AcDbTrace
 10
321.0121854576764
 20
321.2885158161692
 30
0.0
 11
321.0121854576764
 21
319.6218491495025
 31
0.0
 12
326.0121854576764
 22
320.4551824828358
 32
0.0
 13
326.0121854576764
 23
320.4551824828358
 33
0.0
  0
MTEXT
  5
92A
330
7A2
100
AcDbEntity
  8
MEASURE
 62
     2
100
AcDbMText
 10
207.5121854576775
 20
324.2051824828358
 30
0.0
 40
7.0
 41
0.0
 71
     5
 72
     1
  1
\A1;238
  7
AD-STANDARD
 73
     1
 44
1.0
  0
POINT
  5
92B
330
7A2
100
AcDbEntity
  8
DEFPOINTS
 62
     0
100
AcDbPoint
 10
89.0121854576787
 20
229.4607065693521
 30
0.0
  0
POINT
  5
92C
330
7A2
100
AcDbEntity
  8
DEFPOINTS
 62
     0
100
AcDbPoint
 10
326.0121854576764
 20
229.460706569351
 30
0.0
  0
POINT
  5
92D
330
7A2
100
AcDbEntity
  8
DEFPOINTS
 62
     0
100
AcDbPoint
 10
326.0121854576764
 20
320.4551824828358
 30
0.0
  0
ENDBLK
  5
7AD
330
7A2
100
AcDbEntity
  8
0
100
AcDbBlockEnd
  0
BLOCK
  5
7B8
330
7AE
100
AcDbEntity
  8
0
100
AcDbBlockBegin
  2
*D18
 70
     1
 10
0.0
 20
0.0
 30
0.0
  3
*D18
  1

  0
LINE
  5
8EF
330
7AE
100
AcDbEntity
  8
MEASURE
 62
     9
370
    -2
100
AcDbLine
 10
449.7779391912058
 20
270.9196094123774
 30
0.0
 11
449.7779391912058
 21
315.5126918507426
 31
0.0
  0
LINE
  5
8F0
330
7AE
100
AcDbEntity
  8
MEASURE
 62
     9
370
    -2
100
AcDbLine
 10
549.7779391912047
 20
223.7958791891416
 30
0.0
 11
549.7779391912047
 21
315.5126918507426
 31
0.0
  0
LINE
  5
8F1
330
7AE
100
AcDbEntity
  8
MEASURE
 62
     9
370
    -2
100
AcDbLine
 10
454.7779391912058
 20
314.5126918507425
 30
0.0
 11
544.7779391912047
 21
314.5126918507425
 31
0.0
  0
SOLID
  5
8F2
330
7AE
100
AcDbEntity
  8
MEASURE
 62
     9
100
AcDbTrace
 10
454.7779391912058
 20
315.3460251840759
 30
0.0
 11
454.7779391912058
 21
313.6793585174093
 31
0.0
 12
449.7779391912058
 22
314.5126918507425
 32
0.0
 13
449.7779391912058
 23
314.5126918507425
 33
0.0
  0
SOLID
  5
8F3
330
7AE
100
AcDbEntity
  8
MEASURE
 62
     9
100
AcDbTrace
 10
544.7779391912047
 20
315.3460251840759
 30
0.0
 11
544.7779391912047
 21
313.6793585174093
 31
0.0
 12
549.7779391912047
 22
314.5126918507425
 32
0.0
 13
549.7779391912047
 23
314.5126918507425
 33
0.0
  0
MTEXT
  5
8F4
330
7AE
100
AcDbEntity
  8
MEASURE
 62
     2
100
AcDbMText
 10
499.7779391912053
 20
318.2626918507426
 30
0.0
 40
7.0
 41
0.0
 71
     5
 72
     1
  1
\A1;100
  7
AD-STANDARD
 73
     1
 44
1.0
  0
POINT
  5
8F5
330
7AE
100
AcDbEntity
  8
DEFPOINTS
 62
     0
100
AcDbPoint
 10
449.7779391912058
 20
270.4196094123774
 30
0.0
  0
POINT
  5
8F6
330
7AE
100
AcDbEntity
  8
DEFPOINTS
 62
     0
100
AcDbPoint
 10
549.7779391912047
 20
223.2958791891416
 30
0.0
  0
POINT
  5
8F7
330
7AE
100
AcDbEntity
  8
DEFPOINTS
 62
     0
100
AcDbPoint
 10
549.7779391912047
 20
314.5126918507425
 30
0.0
  0
ENDBLK
  5
7B9
330
7AE
100
AcDbEntity
  8
0
100
AcDbBlockEnd
  0
BLOCK
  5
7C4
330
7BA
100
AcDbEntity
  8
0
100
AcDbBlockBegin
  2
*D19
 70
     1
 10
0.0
 20
0.0
 30
0.0
  3
*D19
  1

  0
LINE
  5
901
330
7BA
100
AcDbEntity
  8
MEASURE
 62
     9
370
    -2
100
AcDbLine
 10
449.7779391912056
 20
270.9196094123774
 30
0.0
 11
449.7779391912056
 21
293.6278433775226
 31
0.0
  0
LINE
  5
902
330
7BA
100
AcDbEntity
  8
MEASURE
 62
     9
370
    -2
100
AcDbLine
 10
506.7779391911986
 20
211.8656941314636
 30
0.0
 11
506.7779391911986
 21
293.6278433775226
 31
0.0
  0
LINE
  5
903
330
7BA
100
AcDbEntity
  8
MEASURE
 62
     9
370
    -2
100
AcDbLine
 10
454.7779391912056
 20
292.6278433775225
 30
0.0
 11
501.7779391911985
 21
292.6278433775225
 31
0.0
  0
SOLID
  5
904
330
7BA
100
AcDbEntity
  8
MEASURE
 62
     9
100
AcDbTrace
 10
454.7779391912056
 20
293.4611767108559
 30
0.0
 11
454.7779391912056
 21
291.7945100441892
 31
0.0
 12
449.7779391912056
 22
292.6278433775225
 32
0.0
 13
449.7779391912056
 23
292.6278433775225
 33
0.0
  0
SOLID
  5
905
330
7BA
100
AcDbEntity
  8
MEASURE
 62
     9
100
AcDbTrace
 10
501.7779391911985
 20
293.4611767108559
 30
0.0
 11
501.7779391911985
 21
291.7945100441892
 31
0.0
 12
506.7779391911986
 22
292.6278433775225
 32
0.0
 13
506.7779391911986
 23
292.6278433775225
 33
0.0
  0
MTEXT
  5
906
330
7BA
100
AcDbEntity
  8
MEASURE
 62
     2
100
AcDbMText
 10
478.2779391912021
 20
296.3778433775225
 30
0.0
 40
7.0
 41
0.0
 71
     5
 72
     1
  1
\A1;57
  7
AD-STANDARD
 73
     1
 44
1.0
  0
POINT
  5
907
330
7BA
100
AcDbEntity
  8
DEFPOINTS
 62
     0
100
AcDbPoint
 10
449.7779391912056
 20
270.4196094123773
 30
0.0
  0
POINT
  5
908
330
7BA
100
AcDbEntity
  8
DEFPOINTS
 62
     0
100
AcDbPoint
 10
506.7779391911986
 20
211.3656941314636
 30
0.0
  0
POINT
  5
909
330
7BA
100
AcDbEntity
  8
DEFPOINTS
 62
     0
100
AcDbPoint
 10
506.7779391911986
 20
292.6278433775225
 30
0.0
  0
ENDBLK
  5
7C5
330
7BA
100
AcDbEntity
  8
0
100
AcDbBlockEnd
  0
BLOCK
  5
7D0
330
7C6
100
AcDbEntity
  8
0
100
AcDbBlockBegin
  2
*D20
 70
     1
 10
0.0
 20
0.0
 30
0.0
  3
*D20
  1

  0
LINE
  5
937
330
7C6
100
AcDbEntity
  8
MEASURE
 62
     9
370
    -2
100
AcDbLine
 10
469.2779391912047
 20
273.3656941314681
 30
0.0
 11
422.7109762148857
 21
273.3656941314681
 31
0.0
  0
LINE
  5
938
330
7C6
100
AcDbEntity
  8
MEASURE
 62
     9
370
    -2
100
AcDbLine
 10
469.2779391912049
 20
177.3656941314681
 30
0.0
 11
422.7109762148857
 21
177.3656941314681
 31
0.0
  0
LINE
  5
939
330
7C6
100
AcDbEntity
  8
MEASURE
 62
     9
370
    -2
100
AcDbLine
 10
423.7109762148857
 20
268.3656941314681
 30
0.0
 11
423.7109762148857
 21
182.3656941314681
 31
0.0
  0
SOLID
  5
93A
330
7C6
100
AcDbEntity
  8
MEASURE
 62
     9
100
AcDbTrace
 10
422.8776428815524
 20
268.3656941314681
 30
0.0
 11
424.544309548219
 21
268.3656941314681
 31
0.0
 12
423.7109762148857
 22
273.3656941314681
 32
0.0
 13
423.7109762148857
 23
273.3656941314681
 33
0.0
  0
SOLID
  5
93B
330
7C6
100
AcDbEntity
  8
MEASURE
 62
     9
100
AcDbTrace
 10
422.8776428815524
 20
182.3656941314681
 30
0.0
 11
424.544309548219
 21
182.3656941314681
 31
0.0
 12
423.7109762148857
 22
177.3656941314681
 32
0.0
 13
423.7109762148857
 23
177.3656941314681
 33
0.0
  0
MTEXT
  5
93C
330
7C6
100
AcDbEntity
  8
MEASURE
 62
     2
100
AcDbMText
 10
419.9609762148856
 20
225.3656941314682
 30
0.0
 40
7.0
 41
0.0
 71
     5
 72
     1
  1
\A1;96
  7
AD-STANDARD
 11
0.0000000000000001
 21
1.0
 31
0.0
 73
     1
 44
1.0
  0
POINT
  5
93D
330
7C6
100
AcDbEntity
  8
DEFPOINTS
 62
     0
100
AcDbPoint
 10
469.7779391912047
 20
273.3656941314681
 30
0.0
  0
POINT
  5
93E
330
7C6
100
AcDbEntity
  8
DEFPOINTS
 62
     0
100
AcDbPoint
 10
469.7779391912049
 20
177.3656941314681
 30
0.0
  0
POINT
  5
93F
330
7C6
100
AcDbEntity
  8
DEFPOINTS
 62
     0
100
AcDbPoint
 10
423.7109762148857
 20
177.3656941314681
 30
0.0
  0
ENDBLK
  5
7D1
330
7C6
100
AcDbEntity
  8
0
100
AcDbBlockEnd
  0
ENDSEC
  0
SECTION
  2
ENTITIES
  0
MTEXT
  5
3AD
330
1A
100
AcDbEntity
  8
0
100
AcDbMText
 10
115.2929324332508
 20
130.8759996587505
 30
0.0
 40
3.5
 41
45.7425
 71
     1
 72
     5
  1

  7
AD-STANDARD
 73
     1
 44
1.0
  0
ELLIPSE
  5
5E2
330
1A
100
AcDbEntity
  8
0
100
AcDbEllipse
 10
268.5121854576777
 20
247.1156941314662
 30
0.0
 11
-6.278517870878915
 21
-1.682323793166379
 31
0.0
210
0.0
220
0.0
230
1.0
 40
0.7692307692307727
 41
5.321145525283557
 42
10.39169040986398
  0
SPLINE
  5
5E3
330
1A
100
AcDbEntity
  8
0
100
AcDbSpline
210
0.0
220
0.0
230
1.0
 70
     8
 71
     3
 72
    37
 73
    33
 74
     0
 42
0.0000000001
 43
0.0000000001
 40
5.489452131031505
 40
5.489452131031505
 40
5.489452131031505
 40
5.489452131031505
 40
5.805103602905014
 40
5.805103602905014
 40
6.129029746525835
 40
6.129029746525835
 40
6.283185307179586
 40
6.283185307179586
 40
6.283185307179586
 40
6.506133634218008
 40
6.506133634218008
 40
6.857829322465099
 40
6.857829322465099
 40
7.209525010712191
 40
7.209525010712191
 40
7.561220698959282
 40
7.561220698959282
 40
8.062235416905151
 40
8.062235416905151
 40
8.563250134851019
 40
8.563250134851019
 40
8.953475499579157
 40
8.953475499579157
 40
9.279892253425494
 40
9.279892253425494
 40
9.606309007271832
 40
9.606309007271832
 40
9.93272576111817
 40
9.93272576111817
 40
10.2591425149645
 40
10.2591425149645
 40
10.43022393893263
 40
10.43022393893263
 40
10.43022393893263
 40
10.43022393893263
 10
262.2402499940922
 20
250.1156941314382
 30
0.0
 10
261.7901771101135
 20
249.5368577268392
 30
0.0
 10
261.4369605575902
 20
248.9020574547928
 30
0.0
 10
260.9717782676475
 20
247.5484069278489
 30
0.0
 10
260.8674301813093
 20
246.8285761971195
 30
0.0
 10
260.9328558078418
 20
245.782739860766
 30
0.0
 10
260.9873121048396
 20
245.4483883550762
 30
0.0
 10
261.074556595252
 20
245.1227874841769
 30
0.0
 10
261.200734419122
 20
244.6518854347055
 30
0.0
 10
261.3957463085928
 20
244.1996403271653
 30
0.0
 10
262.0541025163684
 20
243.1220084222434
 30
0.0
 10
262.6067527376453
 20
242.5494156734366
 30
0.0
 10
263.9107268126458
 20
241.6394375931345
 30
0.0
 10
264.6614736223684
 20
241.3005337534207
 30
0.0
 10
266.2657274367479
 20
240.8697442102037
 30
0.0
 10
267.119538515823
 20
240.7775063989697
 30
0.0
 10
269.2057978463089
 20
240.848387606274
 30
0.0
 10
270.4446716955467
 20
241.1379342023879
 30
0.0
 10
272.6932244625432
 20
242.1500209229038
 30
0.0
 10
273.7024451589113
 20
242.8722495324857
 30
0.0
 10
275.0875231974239
 20
244.4340958943029
 30
0.0
 10
275.5543424153331
 20
245.2129594418049
 30
0.0
 10
276.0635467308113
 20
246.7326981793736
 30
0.0
 10
276.1615727062996
 20
247.4589448180969
 30
0.0
 10
276.0553180416313
 20
248.885505944859
 30
0.0
 10
275.8501082898642
 20
249.5836216256225
 30
0.0
 10
275.1684480223102
 20
250.8432328573547
 30
0.0
 10
274.6940393128545
 20
251.4036697053704
 30
0.0
 10
273.5569955866596
 20
252.3279821725984
 30
0.0
 10
272.895106837831
 20
252.6929491704129
 30
0.0
 10
271.8031450991525
 20
253.0880261126163
 30
0.0
 10
271.4125857983933
 20
253.1949550900362
 30
0.0
 10
271.0121854576777
 20
253.272888382183
 30
0.0
  0
ELLIPSE
  5
5E4
330
1A
100
AcDbEntity
  8
0
100
AcDbEllipse
 10
268.5121854576777
 20
232.1156941314662
 30
0.0
 11
-6.278517870878915
 21
-1.682323793166379
 31
0.0
210
0.0
220
0.0
230
1.0
 40
0.7692307692307727
 41
5.321145525283557
 42
10.39169040986398
  0
SPLINE
  5
5E5
330
1A
100
AcDbEntity
  8
0
100
AcDbSpline
210
0.0
220
0.0
230
1.0
 70
     8
 71
     3
 72
    37
 73
    33
 74
     0
 42
0.0000000001
 43
0.0000000001
 40
5.489452131031505
 40
5.489452131031505
 40
5.489452131031505
 40
5.489452131031505
 40
5.805103602905014
 40
5.805103602905014
 40
6.129029746525835
 40
6.129029746525835
 40
6.283185307179586
 40
6.283185307179586
 40
6.283185307179586
 40
6.506133634218008
 40
6.506133634218008
 40
6.857829322465099
 40
6.857829322465099
 40
7.209525010712191
 40
7.209525010712191
 40
7.561220698959282
 40
7.561220698959282
 40
8.062235416905151
 40
8.062235416905151
 40
8.563250134851019
 40
8.563250134851019
 40
8.953475499579157
 40
8.953475499579157
 40
9.279892253425494
 40
9.279892253425494
 40
9.606309007271832
 40
9.606309007271832
 40
9.93272576111817
 40
9.93272576111817
 40
10.2591425149645
 40
10.2591425149645
 40
10.43022393893263
 40
10.43022393893263
 40
10.43022393893263
 40
10.43022393893263
 10
262.2402499940919
 20
235.1156941314382
 30
0.0
 10
261.7901771101135
 20
234.5368577268392
 30
0.0
 10
261.4369605575902
 20
233.9020574547928
 30
0.0
 10
260.9717782676475
 20
232.5484069278489
 30
0.0
 10
260.8674301813093
 20
231.8285761971195
 30
0.0
 10
260.9328558078418
 20
230.782739860766
 30
0.0
 10
260.9873121048396
 20
230.4483883550762
 30
0.0
 10
261.074556595252
 20
230.1227874841769
 30
0.0
 10
261.200734419122
 20
229.6518854347055
 30
0.0
 10
261.3957463085928
 20
229.1996403271653
 30
0.0
 10
262.0541025163684
 20
228.1220084222434
 30
0.0
 10
262.6067527376453
 20
227.5494156734366
 30
0.0
 10
263.9107268126458
 20
226.6394375931345
 30
0.0
 10
264.6614736223684
 20
226.3005337534207
 30
0.0
 10
266.2657274367477
 20
225.8697442102037
 30
0.0
 10
267.119538515823
 20
225.7775063989697
 30
0.0
 10
269.2057978463089
 20
225.848387606274
 30
0.0
 10
270.4446716955467
 20
226.1379342023878
 30
0.0
 10
272.6932244625432
 20
227.1500209229038
 30
0.0
 10
273.7024451589113
 20
227.8722495324857
 30
0.0
 10
275.0875231974237
 20
229.4340958943029
 30
0.0
 10
275.5543424153331
 20
230.2129594418049
 30
0.0
 10
276.0635467308113
 20
231.7326981793736
 30
0.0
 10
276.1615727062996
 20
232.4589448180969
 30
0.0
 10
276.0553180416313
 20
233.885505944859
 30
0.0
 10
275.8501082898642
 20
234.5836216256225
 30
0.0
 10
275.1684480223102
 20
235.8432328573548
 30
0.0
 10
274.6940393128545
 20
236.4036697053703
 30
0.0
 10
273.5569955866596
 20
237.3279821725983
 30
0.0
 10
272.895106837831
 20
237.6929491704129
 30
0.0
 10
271.8031450991523
 20
238.0880261126162
 30
0.0
 10
271.4125857983931
 20
238.1949550900361
 30
0.0
 10
271.0121854576777
 20
238.2728883821829
 30
0.0
  0
SPLINE
  5
5E6
330
1A
100
AcDbEntity
  8
0
100
AcDbSpline
210
0.0
220
0.0
230
1.0
 70
    11
 71
     3
 72
    40
 73
    36
 74
     0
 42
0.0000000001
 43
0.0000000001
 40
4.712388980384689
 40
4.712388980384689
 40
4.712388980384689
 40
4.712388980384689
 40
4.955622031096155
 40
4.955622031096155
 40
5.422133232976122
 40
5.422133232976122
 40
5.813649040214396
 40
5.813649040214396
 40
6.205164847452671
 40
6.205164847452671
 40
6.524265327972035
 40
6.524265327972035
 40
6.8433658084914
 40
6.8433658084914
 40
7.162466289010764
 40
7.162466289010764
 40
7.481566769530129
 40
7.481566769530129
 40
7.960346725673794
 40
7.960346725673794
 40
8.439126681817459
 40
8.439126681817459
 40
8.917906637961124
 40
8.917906637961124
 40
9.248395741431378
 40
9.248395741431378
 40
9.578884844901633
 40
9.578884844901633
 40
9.909373948371888
 40
9.909373948371888
 40
10.23986305184214
 40
10.23986305184214
 40
10.57035215531239
 40
10.57035215531239
 40
10.99557428756427
 40
10.99557428756427
 40
10.99557428756427
 40
10.99557428756427
 10
266.778097855491
 20
223.587397167603
 30
0.0
 10
266.156052772005
 20
223.4207206898272
 30
0.0
 10
265.5499953240789
 20
223.1944361909787
 30
0.0
 10
263.8735692806665
 20
222.3756053340961
 30
0.0
 10
262.8885565463158
 20
221.6360171216089
 30
0.0
 10
261.4758264718045
 20
220.009760278483
 30
0.0
 10
260.9839499803654
 20
219.165346278091
 30
0.0
 10
260.4083099774952
 20
217.3780921243675
 30
0.0
 10
260.3275729753977
 20
216.4348417433834
 30
0.0
 10
260.5972583612281
 20
214.7911608049818
 30
0.0
 10
260.8698764214782
 20
214.0806525002647
 30
0.0
 10
261.6754029392609
 20
212.8101540770314
 30
0.0
 10
262.2066861228745
 20
212.2505906481162
 30
0.0
 10
263.4500657117084
 20
211.3338526774558
 30
0.0
 10
264.1616984709469
 20
210.9758736724671
 30
0.0
 10
265.6886406953069
 20
210.4784640068332
 30
0.0
 10
266.5040761131383
 20
210.3387421176897
 30
0.0
 10
268.5808220486737
 20
210.2639321048742
 30
0.0
 10
269.8608024396658
 20
210.4676785878026
 30
0.0
 10
272.2429331894254
 20
211.3250761883886
 30
0.0
 10
273.3443932502461
 20
211.9784573108625
 30
0.0
 10
275.1437662865878
 20
213.6272933256483
 30
0.0
 10
275.841576080882
 20
214.6242072107252
 30
0.0
 10
276.5156997384979
 20
216.4516410349576
 30
0.0
 10
276.6477191412104
 20
217.2374212709681
 30
0.0
 10
276.5875660959554
 20
218.78975452456
 30
0.0
 10
276.3943599610799
 20
219.5544306871977
 30
0.0
 10
275.7094305844268
 20
220.9474118539899
 30
0.0
 10
275.2194619603979
 20
221.574407826946
 30
0.0
 10
274.024696723638
 20
222.6194621465757
 30
0.0
 10
273.3208486336366
 20
223.0384201979228
 30
0.0
 10
271.7858785255277
 20
223.6435586670455
 30
0.0
 10
270.9546353053172
 20
223.8302234962243
 30
0.0
 10
269.0019072440554
 20
223.9868607079825
 30
0.0
 10
267.86556247423
 20
223.8787824339915
 30
0.0
 10
266.778097855491
 20
223.587397167603
 30
0.0
  0
ELLIPSE
  5
5E7
330
1A
100
AcDbEntity
  8
0
100
AcDbEllipse
 10
268.5121854576777
 20
217.1156941314662
 30
0.0
 11
-6.76148078402348
 21
-1.811733315717634
 31
0.0
210
0.0
220
0.0
230
1.0
 40
0.7857142857142857
 41
4.712388980384689
 42
10.99557428756427
  0
ELLIPSE
  5
5E8
330
1A
100
AcDbEntity
  8
0
100
AcDbEllipse
 10
286.5121854576777
 20
232.1156941314662
 30
0.0
 11
-6.278517870878915
 21
-1.682323793166379
 31
0.0
210
0.0
220
0.0
230
1.0
 40
0.7692307692307727
 41
5.321145525283557
 42
10.39169040986398
  0
ELLIPSE
  5
5E9
330
1A
100
AcDbEntity
  8
0
100
AcDbEllipse
 10
286.5121854576777
 20
247.1156941314662
 30
0.0
 11
-6.278517870878915
 21
-1.682323793166379
 31
0.0
210
0.0
220
0.0
230
1.0
 40
0.7692307692307727
 41
5.321145525283557
 42
10.39169040986398
  0
ELLIPSE
  5
5EA
330
1A
100
AcDbEntity
  8
0
100
AcDbEllipse
 10
286.5121854576777
 20
217.1156941314662
 30
0.0
 11
-6.76148078402348
 21
-1.811733315717634
 31
0.0
210
0.0
220
0.0
230
1.0
 40
0.7857142857142857
 41
4.712388980384689
 42
10.99557428756427
  0
SPLINE
  5
5EB
330
1A
100
AcDbEntity
  8
0
100
AcDbSpline
210
0.0
220
0.0
230
1.0
 70
    11
 71
     3
 72
    40
 73
    36
 74
     0
 42
0.0000000001
 43
0.0000000001
 40
4.712388980384689
 40
4.712388980384689
 40
4.712388980384689
 40
4.712388980384689
 40
4.955622031096155
 40
4.955622031096155
 40
5.422133232976122
 40
5.422133232976122
 40
5.813649040214396
 40
5.813649040214396
 40
6.205164847452671
 40
6.205164847452671
 40
6.524265327972035
 40
6.524265327972035
 40
6.8433658084914
 40
6.8433658084914
 40
7.162466289010764
 40
7.162466289010764
 40
7.481566769530129
 40
7.481566769530129
 40
7.960346725673794
 40
7.960346725673794
 40
8.439126681817459
 40
8.439126681817459
 40
8.917906637961124
 40
8.917906637961124
 40
9.248395741431378
 40
9.248395741431378
 40
9.578884844901633
 40
9.578884844901633
 40
9.909373948371888
 40
9.909373948371888
 40
10.23986305184214
 40
10.23986305184214
 40
10.57035215531239
 40
10.57035215531239
 40
10.99557428756427
 40
10.99557428756427
 40
10.99557428756427
 40
10.99557428756427
 10
284.778097855491
 20
223.587397167603
 30
0.0
 10
284.156052772005
 20
223.4207206898272
 30
0.0
 10
283.5499953240789
 20
223.1944361909787
 30
0.0
 10
281.8735692806665
 20
222.3756053340961
 30
0.0
 10
280.8885565463158
 20
221.6360171216089
 30
0.0
 10
279.4758264718045
 20
220.009760278483
 30
0.0
 10
278.9839499803654
 20
219.165346278091
 30
0.0
 10
278.4083099774952
 20
217.3780921243675
 30
0.0
 10
278.3275729753977
 20
216.4348417433834
 30
0.0
 10
278.5972583612281
 20
214.7911608049818
 30
0.0
 10
278.8698764214782
 20
214.0806525002647
 30
0.0
 10
279.6754029392609
 20
212.8101540770314
 30
0.0
 10
280.2066861228745
 20
212.2505906481162
 30
0.0
 10
281.4500657117084
 20
211.3338526774558
 30
0.0
 10
282.1616984709469
 20
210.9758736724671
 30
0.0
 10
283.6886406953069
 20
210.4784640068332
 30
0.0
 10
284.5040761131383
 20
210.3387421176897
 30
0.0
 10
286.5808220486737
 20
210.2639321048742
 30
0.0
 10
287.8608024396658
 20
210.4676785878026
 30
0.0
 10
290.2429331894254
 20
211.3250761883886
 30
0.0
 10
291.3443932502461
 20
211.9784573108625
 30
0.0
 10
293.1437662865878
 20
213.6272933256483
 30
0.0
 10
293.841576080882
 20
214.6242072107252
 30
0.0
 10
294.5156997384979
 20
216.4516410349576
 30
0.0
 10
294.6477191412104
 20
217.2374212709681
 30
0.0
 10
294.5875660959554
 20
218.78975452456
 30
0.0
 10
294.39435996108
 20
219.5544306871977
 30
0.0
 10
293.7094305844268
 20
220.9474118539899
 30
0.0
 10
293.2194619603979
 20
221.574407826946
 30
0.0
 10
292.024696723638
 20
222.6194621465757
 30
0.0
 10
291.3208486336366
 20
223.0384201979228
 30
0.0
 10
289.7858785255277
 20
223.6435586670455
 30
0.0
 10
288.9546353053172
 20
223.8302234962243
 30
0.0
 10
287.0019072440554
 20
223.9868607079825
 30
0.0
 10
285.86556247423
 20
223.8787824339915
 30
0.0
 10
284.778097855491
 20
223.587397167603
 30
0.0
  0
SPLINE
  5
5EC
330
1A
100
AcDbEntity
  8
0
100
AcDbSpline
210
0.0
220
0.0
230
1.0
 70
     8
 71
     3
 72
    37
 73
    33
 74
     0
 42
0.0000000001
 43
0.0000000001
 40
5.489452131031505
 40
5.489452131031505
 40
5.489452131031505
 40
5.489452131031505
 40
5.805103602905014
 40
5.805103602905014
 40
6.129029746525835
 40
6.129029746525835
 40
6.283185307179586
 40
6.283185307179586
 40
6.283185307179586
 40
6.506133634218008
 40
6.506133634218008
 40
6.857829322465099
 40
6.857829322465099
 40
7.209525010712191
 40
7.209525010712191
 40
7.561220698959282
 40
7.561220698959282
 40
8.062235416905151
 40
8.062235416905151
 40
8.563250134851019
 40
8.563250134851019
 40
8.953475499579157
 40
8.953475499579157
 40
9.279892253425494
 40
9.279892253425494
 40
9.606309007271832
 40
9.606309007271832
 40
9.93272576111817
 40
9.93272576111817
 40
10.2591425149645
 40
10.2591425149645
 40
10.43022393893263
 40
10.43022393893263
 40
10.43022393893263
 40
10.43022393893263
 10
280.2402499940919
 20
235.1156941314382
 30
0.0
 10
279.7901771101135
 20
234.5368577268392
 30
0.0
 10
279.4369605575902
 20
233.9020574547928
 30
0.0
 10
278.9717782676475
 20
232.5484069278489
 30
0.0
 10
278.8674301813093
 20
231.8285761971195
 30
0.0
 10
278.9328558078418
 20
230.782739860766
 30
0.0
 10
278.9873121048397
 20
230.4483883550762
 30
0.0
 10
279.074556595252
 20
230.1227874841769
 30
0.0
 10
279.2007344191219
 20
229.6518854347055
 30
0.0
 10
279.3957463085928
 20
229.1996403271653
 30
0.0
 10
280.0541025163683
 20
228.1220084222434
 30
0.0
 10
280.6067527376453
 20
227.5494156734366
 30
0.0
 10
281.9107268126458
 20
226.6394375931345
 30
0.0
 10
282.6614736223684
 20
226.3005337534207
 30
0.0
 10
284.2657274367477
 20
225.8697442102037
 30
0.0
 10
285.119538515823
 20
225.7775063989697
 30
0.0
 10
287.2057978463089
 20
225.848387606274
 30
0.0
 10
288.4446716955467
 20
226.1379342023878
 30
0.0
 10
290.6932244625431
 20
227.1500209229038
 30
0.0
 10
291.7024451589113
 20
227.8722495324857
 30
0.0
 10
293.0875231974237
 20
229.4340958943029
 30
0.0
 10
293.5543424153331
 20
230.2129594418049
 30
0.0
 10
294.0635467308113
 20
231.7326981793736
 30
0.0
 10
294.1615727062997
 20
232.4589448180969
 30
0.0
 10
294.0553180416313
 20
233.885505944859
 30
0.0
 10
293.8501082898642
 20
234.5836216256225
 30
0.0
 10
293.1684480223102
 20
235.8432328573548
 30
0.0
 10
292.6940393128545
 20
236.4036697053703
 30
0.0
 10
291.5569955866597
 20
237.3279821725983
 30
0.0
 10
290.895106837831
 20
237.6929491704129
 30
0.0
 10
289.8031450991522
 20
238.0880261126162
 30
0.0
 10
289.4125857983931
 20
238.1949550900361
 30
0.0
 10
289.0121854576777
 20
238.2728883821829
 30
0.0
  0
SPLINE
  5
5ED
330
1A
100
AcDbEntity
  8
0
100
AcDbSpline
210
0.0
220
0.0
230
1.0
 70
     8
 71
     3
 72
    37
 73
    33
 74
     0
 42
0.0000000001
 43
0.0000000001
 40
5.489452131031505
 40
5.489452131031505
 40
5.489452131031505
 40
5.489452131031505
 40
5.805103602905014
 40
5.805103602905014
 40
6.129029746525835
 40
6.129029746525835
 40
6.283185307179586
 40
6.283185307179586
 40
6.283185307179586
 40
6.506133634218008
 40
6.506133634218008
 40
6.857829322465099
 40
6.857829322465099
 40
7.209525010712191
 40
7.209525010712191
 40
7.561220698959282
 40
7.561220698959282
 40
8.062235416905151
 40
8.062235416905151
 40
8.563250134851019
 40
8.563250134851019
 40
8.953475499579157
 40
8.953475499579157
 40
9.279892253425494
 40
9.279892253425494
 40
9.606309007271832
 40
9.606309007271832
 40
9.93272576111817
 40
9.93272576111817
 40
10.2591425149645
 40
10.2591425149645
 40
10.43022393893263
 40
10.43022393893263
 40
10.43022393893263
 40
10.43022393893263
 10
280.2402499940919
 20
250.1156941314382
 30
0.0
 10
279.7901771101135
 20
249.5368577268392
 30
0.0
 10
279.4369605575902
 20
248.9020574547928
 30
0.0
 10
278.9717782676475
 20
247.5484069278489
 30
0.0
 10
278.8674301813093
 20
246.8285761971195
 30
0.0
 10
278.9328558078418
 20
245.782739860766
 30
0.0
 10
278.9873121048397
 20
245.4483883550762
 30
0.0
 10
279.074556595252
 20
245.1227874841769
 30
0.0
 10
279.2007344191219
 20
244.6518854347055
 30
0.0
 10
279.3957463085928
 20
244.1996403271653
 30
0.0
 10
280.0541025163683
 20
243.1220084222434
 30
0.0
 10
280.6067527376453
 20
242.5494156734366
 30
0.0
 10
281.9107268126458
 20
241.6394375931345
 30
0.0
 10
282.6614736223684
 20
241.3005337534207
 30
0.0
 10
284.2657274367477
 20
240.8697442102037
 30
0.0
 10
285.119538515823
 20
240.7775063989697
 30
0.0
 10
287.2057978463089
 20
240.848387606274
 30
0.0
 10
288.4446716955467
 20
241.1379342023879
 30
0.0
 10
290.6932244625431
 20
242.1500209229038
 30
0.0
 10
291.7024451589113
 20
242.8722495324857
 30
0.0
 10
293.0875231974237
 20
244.4340958943029
 30
0.0
 10
293.5543424153331
 20
245.2129594418049
 30
0.0
 10
294.0635467308113
 20
246.7326981793736
 30
0.0
 10
294.1615727062997
 20
247.4589448180969
 30
0.0
 10
294.0553180416313
 20
248.885505944859
 30
0.0
 10
293.8501082898642
 20
249.5836216256225
 30
0.0
 10
293.1684480223102
 20
250.8432328573547
 30
0.0
 10
292.6940393128545
 20
251.4036697053704
 30
0.0
 10
291.5569955866597
 20
252.3279821725984
 30
0.0
 10
290.895106837831
 20
252.6929491704129
 30
0.0
 10
289.8031450991522
 20
253.0880261126163
 30
0.0
 10
289.4125857983931
 20
253.1949550900362
 30
0.0
 10
289.0121854576777
 20
253.272888382183
 30
0.0
  0
DIMENSION
  5
5EE
330
1A
100
AcDbEntity
  8
MEASURE
100
AcDbDimension
  2
*D12
 10
347.8286424579919
 20
211.365694131463
 30
0.0
 11
344.0786424579918
 21
157.3656941314634
 31
0.0
 70
    32
 71
     5
 42
107.9999999999993
  3
AD-STANDARD
100
AcDbAlignedDimension
 13
297.5121854576784
 23
103.3656941314637
 33
0.0
 14
326.0121854576764
 24
211.365694131463
 34
0.0
 50
90.0
100
AcDbRotatedDimension
1001
ACAD
1000
DSTYLE
1002
{
1070
    40
1040
0.5
1070
    41
1040
10.0
1070
   140
1040
14.0
1002
}
  0
DIMENSION
  5
5EF
330
1A
100
AcDbEntity
  8
MEASURE
100
AcDbDimension
  2
*D13
 10
368.4644440462443
 20
273.3656941314658
 30
0.0
 11
364.7144440462442
 21
188.3656941314647
 31
0.0
 70
    32
 71
     5
 42
170.0000000000021
  3
AD-STANDARD
100
AcDbAlignedDimension
 13
297.5121854576784
 23
103.3656941314637
 33
0.0
 14
297.5121854576789
 24
273.3656941314658
 34
0.0
 50
90.0
100
AcDbRotatedDimension
1001
ACAD
1000
DSTYLE
1002
{
1070
    40
1040
0.5
1070
    41
1040
10.0
1070
   140
1040
14.0
1002
}
  0
LINE
  5
5F0
330
1A
100
AcDbEntity
  8
M_PARTS
100
AcDbLine
 10
107.9121854576766
 20
224.3656331770338
 30
0.0
 11
107.9121854576764
 21
105.9656941314636
 31
0.0
  0
LINE
  5
5F1
330
1A
100
AcDbEntity
  8
M_PARTS
100
AcDbLine
 10
109.5121854576758
 20
224.3656331770338
 30
0.0
 11
109.5121854576763
 21
105.8656941314637
 31
0.0
  0
LINE
  5
5F2
330
1A
100
AcDbEntity
  8
M_PARTS
100
AcDbLine
 10
307.1121854576765
 20
224.3656331770338
 30
0.0
 11
307.1121854576765
 21
105.9656941314636
 31
0.0
  0
LINE
  5
5F3
330
1A
100
AcDbEntity
  8
M_PARTS
100
AcDbLine
 10
305.5121854576766
 20
224.365633177034
 30
0.0
 11
305.5121854576766
 21
105.8656941314637
 31
0.0
  0
LINE
  5
5F4
330
1A
100
AcDbEntity
  8
M_PARTS
100
AcDbLine
 10
531.7779391911986
 20
180.4067599344965
 30
0.0
 11
531.7779391911999
 21
113.7946263196006
 31
0.0
  0
LINE
  5
5F5
330
1A
100
AcDbEntity
  8
M_PARTS
100
AcDbLine
 10
452.1502044101707
 20
115.2756757778405
 30
0.0
 11
490.4382588723506
 21
208.8686977965007
 31
0.0
  0
LINE
  5
5F6
330
1A
100
AcDbEntity
  8
M_PARTS
100
AcDbLine
 10
530.3134730971323
 20
117.3301602255331
 30
0.0
 11
508.2424052852675
 21
139.4012280373984
 31
0.0
  0
DIMENSION
  5
5F7
330
1A
100
AcDbEntity
  8
MEASURE
100
AcDbDimension
  2
*D14
 10
581.7779391911981
 20
336.0771370764791
 30
0.0
 11
515.7779391912018
 21
339.8271370764792
 31
0.0
 70
    32
 71
     5
 42
131.9999999999925
  3
AD-STANDARD
100
AcDbAlignedDimension
 13
449.7779391912056
 23
270.4196094123773
 33
0.0
 14
581.7779391911981
 24
105.8656941314637
 34
0.0
100
AcDbRotatedDimension
1001
ACAD
1000
DSTYLE
1002
{
1070
    40
1040
0.5
1070
    41
1040
10.0
1070
   140
1040
14.0
1002
}
  0
LINE
  5
5F8
330
1A
100
AcDbEntity
  8
M_PARTS
100
AcDbLine
 10
109.5121854576764
 20
104.3656941314637
 30
0.0
 11
305.5121854576766
 21
104.3656941314637
 31
0.0
  0
LINE
  5
5F9
330
1A
100
AcDbEntity
  8
M_PARTS
100
AcDbLine
 10
109.5121854576763
 20
105.8656941314637
 30
0.0
 11
305.5121854576766
 21
105.8656941314637
 31
0.0
  0
LINE
  5
5FA
330
1A
100
AcDbEntity
  8
0
100
AcDbLine
 10
147.5121854576777
 20
104.3656941314637
 30
0.0
 11
147.5121854576777
 21
103.3656941314637
 31
0.0
  0
LINE
  5
5FB
330
1A
100
AcDbEntity
  8
0
100
AcDbLine
 10
117.5121854576782
 20
104.3656941314637
 30
0.0
 11
117.512185457678
 21
103.3656941314637
 31
0.0
  0
LINE
  5
5FC
330
1A
100
AcDbEntity
  8
0
100
AcDbLine
 10
117.512185457678
 20
103.3656941314637
 30
0.0
 11
147.5121854576777
 21
103.3656941314637
 31
0.0
  0
ARC
  5
5FD
330
1A
100
AcDbEntity
  8
M_PARTS
100
AcDbCircle
 10
109.5121854576764
 20
105.9656941314636
 30
0.0
 40
1.6
100
AcDbArc
 50
180.0
 51
270.0
  0
LINE
  5
5FE
330
1A
100
AcDbEntity
  8
0
100
AcDbLine
 10
580.777939191199
 20
103.3656941314646
 30
0.0
 11
550.777939191199
 21
103.3656941314646
 31
0.0
  0
LINE
  5
5FF
330
1A
100
AcDbEntity
  8
M_PARTS
100
AcDbLine
 10
581.777939191199
 20
104.3656941314646
 30
0.0
 11
451.777939191199
 21
104.3656941314646
 31
0.0
  0
LINE
  5
600
330
1A
100
AcDbEntity
  8
M_PARTS
100
AcDbLine
 10
581.777939191199
 20
105.9656941314645
 30
0.0
 11
531.777939191199
 21
105.9656941314645
 31
0.0
  0
DIMENSION
  5
601
330
1A
100
AcDbEntity
  8
MEASURE
100
AcDbDimension
  2
*D15
 10
581.7779391911995
 20
74.56605566573881
 30
0.0
 11
516.7779391911988
 21
78.31605566573881
 31
0.0
 70
    32
 71
     5
 42
130.0000000000013
  3
AD-STANDARD
100
AcDbAlignedDimension
 13
451.7779391911981
 23
104.3656941314637
 33
0.0
 14
581.7779391911995
 24
104.3656941314639
 34
0.0
100
AcDbRotatedDimension
1001
ACAD
1000
DSTYLE
1002
{
1070
    40
1040
0.5
1070
    41
1040
10.0
1070
   140
1040
14.0
1002
}
  0
LINE
  5
602
330
1A
100
AcDbEntity
  8
0
100
AcDbLine
 10
267.5121854576784
 20
103.3656941314637
 30
0.0
 11
297.5121854576784
 21
103.3656941314637
 31
0.0
  0
LINE
  5
603
330
1A
100
AcDbEntity
  8
0
100
AcDbLine
 10
267.5121854576784
 20
104.3656941314637
 30
0.0
 11
267.5121854576784
 21
103.3656941314637
 31
0.0
  0
LINE
  5
604
330
1A
100
AcDbEntity
  8
0
100
AcDbLine
 10
297.5121854576784
 20
104.3656941314637
 30
0.0
 11
297.5121854576784
 21
103.3656941314637
 31
0.0
  0
ARC
  5
605
330
1A
100
AcDbEntity
  8
M_PARTS
100
AcDbCircle
 10
305.5121854576766
 20
105.9656941314636
 30
0.0
 40
1.6
100
AcDbArc
 50
270.0
 51
0.0
  0
LINE
  5
606
330
1A
100
AcDbEntity
  8
0
100
AcDbLine
 10
482.777939191199
 20
103.3656941314646
 30
0.0
 11
452.777939191199
 21
103.3656941314646
 31
0.0
  0
LINE
  5
607
330
1A
100
AcDbEntity
  8
0
100
AcDbLine
 10
452.7779391911992
 20
104.3656941314646
 30
0.0
 11
452.777939191199
 21
103.3656941314646
 31
0.0
  0
LINE
  5
608
330
1A
100
AcDbEntity
  8
M_PARTS
100
AcDbLine
 10
451.777939191199
 20
104.3656941314646
 30
0.0
 11
451.777939191199
 21
113.382511549238
 31
0.0
  0
ARC
  5
609
330
1A
100
AcDbEntity
  8
M_PARTS
100
AcDbCircle
 10
456.7779391911988
 20
113.3825115492376
 30
0.0
 40
5.0
100
AcDbArc
 50
157.750976342791
 51
180.0
  0
LINE
  5
60A
330
1A
100
AcDbEntity
  8
0
100
AcDbLine
 10
550.777939191199
 20
104.3656941314646
 30
0.0
 11
550.777939191199
 21
103.3656941314646
 31
0.0
  0
LINE
  5
60B
330
1A
100
AcDbEntity
  8
0
100
AcDbLine
 10
482.777939191199
 20
104.3656941314646
 30
0.0
 11
482.777939191199
 21
103.3656941314646
 31
0.0
  0
LINE
  5
60C
330
1A
100
AcDbEntity
  8
M_PARTS
100
AcDbLine
 10
531.777939191199
 20
104.265694131466
 30
0.0
 11
531.7779391911995
 21
113.7946263196004
 31
0.0
  0
ARC
  5
60D
330
1A
100
AcDbEntity
  8
M_PARTS
100
AcDbCircle
 10
526.7779391911992
 20
113.7946263196003
 30
0.0
 40
5.0
100
AcDbArc
 50
0.0
 51
44.99999999999078
  0
LINE
  5
60E
330
1A
100
AcDbEntity
  8
0
100
AcDbLine
 10
580.777939191199
 20
104.3656941314646
 30
0.0
 11
580.777939191199
 21
103.3656941314646
 31
0.0
  0
LINE
  5
60F
330
1A
100
AcDbEntity
  8
M_PARTS
100
AcDbLine
 10
581.777939191199
 20
105.9656941314645
 30
0.0
 11
581.777939191199
 21
104.3656941314646
 31
0.0
  0
DIMENSION
  5
610
330
1A
100
AcDbEntity
  8
MEASURE
100
AcDbDimension
  2
*D16
 10
303.5121854576777
 20
294.9299289070236
 30
0.0
 11
207.5121854576778
 21
298.6799289070236
 31
0.0
 70
    32
 71
     5
 42
192.0
  3
AD-STANDARD
100
AcDbAlignedDimension
 13
111.5121854576777
 23
268.3656941314663
 33
0.0
 14
303.5121854576777
 24
268.3656941314658
 34
0.0
100
AcDbRotatedDimension
1001
ACAD
1000
DSTYLE
1002
{
1070
    40
1040
0.5
1070
    41
1040
10.0
1070
   140
1040
14.0
1002
}
  0
DIMENSION
  5
611
330
1A
100
AcDbEntity
  8
MEASURE
100
AcDbDimension
  2
*D17
 10
326.0121854576764
 20
320.4551824828358
 30
0.0
 11
207.5121854576775
 21
324.2051824828358
 31
0.0
 70
    32
  1
238
 71
     5
 42
236.9999999999977
  3
AD-STANDARD
100
AcDbAlignedDimension
 13
89.0121854576787
 23
229.4607065693521
 33
0.0
 14
326.0121854576764
 24
229.460706569351
 34
0.0
100
AcDbRotatedDimension
1001
ACAD
1000
DSTYLE
1002
{
1070
    40
1040
0.5
1070
    41
1040
10.0
1070
   140
1040
14.0
1002
}
  0
LINE
  5
612
330
1A
100
AcDbEntity
  8
0
100
AcDbLine
 10
147.512185457677
 20
505.4678404265164
 30
0.0
 11
267.5121854576766
 21
505.4678404265164
 31
0.0
  0
LINE
  5
613
330
1A
100
AcDbEntity
  8
ﾌﾛﾝﾄｹｰｽ
100
AcDbLine
 10
117.0121854576777
 20
180.8656941314653
 30
0.0
 11
245.0121854576778
 21
180.8656941314676
 31
0.0
  0
LINE
  5
614
330
1A
100
AcDbEntity
  8
ﾌﾛﾝﾄｹｰｽ
100
AcDbLine
 10
117.0121854576777
 20
195.8656941314653
 30
0.0
 11
245.0121854576778
 21
195.8656941314662
 31
0.0
  0
LINE
  5
615
330
1A
100
AcDbEntity
  8
ﾌﾛﾝﾄｹｰｽ
100
AcDbLine
 10
116.5121854576777
 20
177.3656941314662
 30
0.0
 11
297.7978187073672
 21
177.3656941314653
 31
0.0
  0
LINE
  5
616
330
1A
100
AcDbEntity
  8
ﾌﾛﾝﾄｹｰｽ
100
AcDbLine
 10
117.0121854576777
 20
197.8656941314653
 30
0.0
 11
298.0121854576777
 21
197.8656941314662
 31
0.0
  0
LINE
  5
617
330
1A
100
AcDbEntity
  8
ﾌﾛﾝﾄｹｰｽ
100
AcDbLine
 10
116.5121854576777
 20
273.3656941314663
 30
0.0
 11
298.5121854576778
 21
273.3656941314658
 31
0.0
  0
LINE
  5
618
330
1A
100
AcDbEntity
  8
ﾌﾛﾝﾄｹｰｽ
100
AcDbLine
 10
117.0121854576777
 20
269.8656941314663
 30
0.0
 11
298.0121854576777
 21
269.8656941314662
 31
0.0
  0
LINE
  5
61D
330
1A
100
AcDbEntity
  8
M_PARTS
100
AcDbLine
 10
114.5121854576773
 20
510.4678404265164
 30
0.0
 11
300.5121854576762
 21
510.4678404265164
 31
0.0
  0
LINE
  5
61E
330
1A
100
AcDbEntity
  8
ﾘｱｹｰｽ
100
AcDbLine
 10
117.6231423598012
 20
470.4678404265164
 30
0.0
 11
297.4012285555504
 21
470.4678404265169
 31
0.0
  0
LINE
  5
61F
330
1A
100
AcDbEntity
  8
ﾌﾛﾝﾄｹｰｽ
100
AcDbLine
 10
114.4582701767669
 20
378.4678404265164
 30
0.0
 11
300.5661007385865
 21
378.4678404265173
 31
0.0
  0
LINE
  5
620
330
1A
100
AcDbEntity
  8
ﾌﾛﾝﾄｹｰｽ
100
AcDbLine
 10
303.5121854576759
 20
398.4678404265164
 30
0.0
 11
111.5121854576762
 21
398.4678404265164
 31
0.0
  0
LINE
  5
621
330
1A
100
AcDbEntity
  8
MEASURE
100
AcDbLine
 10
108.0121854576784
 20
217.3656941314641
 30
0.0
 11
108.0121854576783
 21
205.3656941314641
 31
0.0
  0
LINE
  5
622
330
1A
100
AcDbEntity
  8
M_PARTS
100
AcDbLine
 10
109.5121854576758
 20
224.3656331770338
 30
0.0
 11
107.9121854576766
 21
224.3656331770338
 31
0.0
  0
LINE
  5
623
330
1A
100
AcDbEntity
  8
0
 48
0.5
100
AcDbLine
 10
105.0121854576786
 20
217.3656941314642
 30
0.0
 11
108.0121854576784
 21
217.3656941314641
 31
0.0
  0
LINE
  5
624
330
1A
100
AcDbEntity
  8
0
 48
0.5
100
AcDbLine
 10
105.0121854576785
 20
205.3656941314641
 30
0.0
 11
108.0121854576783
 21
205.3656941314641
 31
0.0
  0
INSERT
  5
625
330
1A
100
AcDbEntity
  8
0
100
AcDbBlockReference
  2
A$C084B3CDB
 10
89.01218545767836
 20
191.475644964224
 30
0.0
  0
LINE
  5
626
330
1A
100
AcDbEntity
  8
0
 62
     0
100
AcDbLine
 10
111.5121854576777
 20
218.7942655600355
 30
0.0
 11
109.5121854576784
 21
215.3656941314644
 31
0.0
  0
LINE
  5
627
330
1A
100
AcDbEntity
  8
0
 62
     0
100
AcDbLine
 10
111.5121854576777
 20
203.9371227028929
 30
0.0
 11
109.5121854576783
 21
207.3656941314644
 31
0.0
  0
ARC
  5
628
330
1A
100
AcDbEntity
  8
ﾌﾛﾝﾄｹｰｽ
100
AcDbCircle
 10
116.5121854576777
 20
268.3656941314663
 30
0.0
 40
5.0
100
AcDbArc
 50
90.0
 51
180.0
  0
ARC
  5
629
330
1A
100
AcDbEntity
  8
ﾌﾛﾝﾄｹｰｽ
100
AcDbCircle
 10
117.0121854576777
 20
267.8656941314663
 30
0.0
 40
2.0
100
AcDbArc
 50
90.0
 51
180.0
  0
LINE
  5
62A
330
1A
100
AcDbEntity
  8
ﾌﾛﾝﾄｹｰｽ
100
AcDbLine
 10
115.0121854576777
 20
193.8656941314653
 30
0.0
 11
115.0121854576777
 21
182.8656941314653
 31
0.0
  0
ARC
  5
62B
330
1A
100
AcDbEntity
  8
ﾌﾛﾝﾄｹｰｽ
100
AcDbCircle
 10
116.5121854576777
 20
182.3656941314662
 30
0.0
 40
5.0
100
AcDbArc
 50
180.0
 51
270.0
  0
ARC
  5
62C
330
1A
100
AcDbEntity
  8
ﾌﾛﾝﾄｹｰｽ
100
AcDbCircle
 10
117.0121854576777
 20
182.8656941314653
 30
0.0
 40
2.0
100
AcDbArc
 50
180.0
 51
270.0
  0
ARC
  5
62D
330
1A
100
AcDbEntity
  8
ﾌﾛﾝﾄｹｰｽ
100
AcDbCircle
 10
117.0121854576777
 20
199.8656941314653
 30
0.0
 40
2.0
100
AcDbArc
 50
180.0
 51
270.0
  0
ARC
  5
62E
330
1A
100
AcDbEntity
  8
ﾌﾛﾝﾄｹｰｽ
100
AcDbCircle
 10
117.0121854576777
 20
193.8656941314653
 30
0.0
 40
2.0
100
AcDbArc
 50
90.0
 51
180.0
  0
LINE
  5
62F
330
1A
100
AcDbEntity
  8
ﾌﾛﾝﾄｹｰｽ
100
AcDbLine
 10
111.5121854576777
 20
268.3656941314663
 30
0.0
 11
111.5121854576777
 21
182.3656941314662
 31
0.0
  0
LINE
  5
630
330
1A
100
AcDbEntity
  8
ﾌﾛﾝﾄｹｰｽ
100
AcDbLine
 10
115.0121854576777
 20
267.8656941314663
 30
0.0
 11
115.0121854576777
 21
199.8656941314653
 31
0.0
  0
ARC
  5
633
330
1A
100
AcDbEntity
  8
0
100
AcDbCircle
 10
177.7621854576777
 20
192.1156941314658
 30
0.0
 40
1.5
100
AcDbArc
 50
0.0
 51
90.0
  0
ARC
  5
634
330
1A
100
AcDbEntity
  8
0
100
AcDbCircle
 10
177.7621854576777
 20
185.1156941314658
 30
0.0
 40
1.5
100
AcDbArc
 50
270.0
 51
0.0
  0
LINE
  5
635
330
1A
100
AcDbEntity
  8
0
100
AcDbLine
 10
179.2621854576777
 20
192.1156941314658
 30
0.0
 11
179.2621854576777
 21
185.1156941314658
 31
0.0
  0
ARC
  5
637
330
1A
100
AcDbEntity
  8
0
100
AcDbCircle
 10
140.7621854576777
 20
192.1156941314658
 30
0.0
 40
1.5
100
AcDbArc
 50
90.0
 51
180.0
  0
ARC
  5
638
330
1A
100
AcDbEntity
  8
0
100
AcDbCircle
 10
140.7621854576777
 20
185.1156941314658
 30
0.0
 40
1.5
100
AcDbArc
 50
180.0
 51
270.0
  0
LINE
  5
639
330
1A
100
AcDbEntity
  8
0
100
AcDbLine
 10
139.2621854576777
 20
192.1156941314658
 30
0.0
 11
139.2621854576777
 21
185.1156941314658
 31
0.0
  0
LINE
  5
63A
330
1A
100
AcDbEntity
  8
0
100
AcDbLine
 10
140.7621854576777
 20
183.6156941314658
 30
0.0
 11
177.7621854576777
 21
183.6156941314658
 31
0.0
  0
LINE
  5
63B
330
1A
100
AcDbEntity
  8
0
100
AcDbLine
 10
140.7621854576777
 20
193.6156941314658
 30
0.0
 11
177.7621854576777
 21
193.6156941314658
 31
0.0
  0
ARC
  5
63F
330
1A
100
AcDbEntity
  8
0
100
AcDbCircle
 10
147.512185457677
 20
500.4678404265164
 30
0.0
 40
5.0
100
AcDbArc
 50
90.0
 51
180.0
  0
LINE
  5
640
330
1A
100
AcDbEntity
  8
0
100
AcDbLine
 10
142.512185457677
 20
500.4678404265164
 30
0.0
 11
142.512185457677
 21
470.4678404265165
 31
0.0
  0
LINE
  5
641
330
1A
100
AcDbEntity
  8
0
 62
     0
100
AcDbLine
 10
113.4121854576767
 20
424.7821261408042
 30
0.0
 11
109.512185457679
 21
431.4678404265166
 31
0.0
  0
LINE
  5
642
330
1A
100
AcDbEntity
  8
0
 62
     0
100
AcDbLine
 10
113.4121854576767
 20
446.1535547122287
 30
0.0
 11
109.5121854576791
 21
439.4678404265166
 31
0.0
  0
LINE
  5
643
330
1A
100
AcDbEntity
  8
0
 48
0.5
100
AcDbLine
 10
105.0121854576792
 20
429.4678404265164
 30
0.0
 11
108.012185457679
 21
429.4678404265162
 31
0.0
  0
LINE
  5
644
330
1A
100
AcDbEntity
  8
0
 48
0.5
100
AcDbLine
 10
105.0121854576793
 20
441.4678404265164
 30
0.0
 11
108.0121854576791
 21
441.4678404265163
 31
0.0
  0
INSERT
  5
645
330
1A
100
AcDbEntity
  8
0
100
AcDbBlockReference
  2
A$C084B3CDB
 10
89.01218545767903
 20
415.5777912592761
 30
0.0
  0
ARC
  5
646
330
1A
100
AcDbEntity
  8
0
100
AcDbCircle
 10
114.4121854576771
 20
471.0678404265163
 30
0.0
 40
1.0
100
AcDbArc
 50
90.0
 51
180.0
  0
LINE
  5
647
330
1A
100
AcDbEntity
  8
0
100
AcDbLine
 10
117.980820589252
 20
472.0678404265164
 30
0.0
 11
114.4121854576771
 21
472.0678404265163
 31
0.0
  0
LINE
  5
648
330
1A
100
AcDbEntity
  8
0
100
AcDbLine
 10
117.980820589252
 20
470.4678404265164
 30
0.0
 11
115.0121854576766
 21
470.4678404265164
 31
0.0
  0
LINE
  5
649
330
1A
100
AcDbEntity
  8
0
100
AcDbLine
 10
113.4121854576767
 20
398.4678404265164
 30
0.0
 11
113.4121854576771
 21
471.0678404265163
 31
0.0
  0
LINE
  5
64A
330
1A
100
AcDbEntity
  8
0
100
AcDbLine
 10
115.0121854576766
 20
398.4678404265164
 30
0.0
 11
115.0121854576766
 21
470.4678404265164
 31
0.0
  0
ARC
  5
64B
330
1A
100
AcDbEntity
  8
M_PARTS
100
AcDbCircle
 10
132.512185457678
 20
492.4678404265168
 30
0.0
 40
3.0
100
AcDbArc
 50
180.0
 51
0.0
  0
ARC
  5
64C
330
1A
100
AcDbEntity
  8
M_PARTS
100
AcDbCircle
 10
132.512185457678
 20
496.4678404265168
 30
0.0
 40
3.0
100
AcDbArc
 50
0.0
 51
180.0
  0
LINE
  5
64D
330
1A
100
AcDbEntity
  8
M_PARTS
100
AcDbLine
 10
129.512185457678
 20
496.4678404265168
 30
0.0
 11
129.512185457678
 21
492.4678404265168
 31
0.0
  0
LINE
  5
64E
330
1A
100
AcDbEntity
  8
M_PARTS
100
AcDbLine
 10
135.512185457678
 20
496.4678404265168
 30
0.0
 11
135.512185457678
 21
492.4678404265168
 31
0.0
  0
ARC
  5
64F
330
1A
100
AcDbEntity
  8
M_PARTS
100
AcDbCircle
 10
114.5121854576773
 20
505.4678404265164
 30
0.0
 40
5.0
100
AcDbArc
 50
90.0
 51
180.0
  0
ARC
  5
650
330
1A
100
AcDbEntity
  8
ﾘｱｹｰｽ
100
AcDbCircle
 10
120.0332579527678
 20
476.4678404265175
 30
0.0
 40
2.0
100
AcDbArc
 50
90.0
 51
179.5000000000084
  0
LINE
  5
651
330
1A
100
AcDbEntity
  8
ﾘｱｹｰｽ
100
AcDbLine
 10
128.4808205892513
 20
470.4678404265173
 30
0.0
 11
128.4110056469253
 21
478.4678404265163
 31
0.0
  0
LINE
  5
652
330
1A
100
AcDbEntity
  8
ﾌﾛﾝﾄｹｰｽ
100
AcDbLine
 10
112.4610111072579
 20
380.3631685140306
 30
0.0
 11
111.5121854576762
 21
398.4678404265164
 31
0.0
  0
ARC
  5
653
330
1A
100
AcDbEntity
  8
ﾌﾛﾝﾄｹｰｽ
100
AcDbCircle
 10
114.4582701767669
 20
380.4678404265166
 30
0.0
 40
2.0
100
AcDbArc
 50
183.0000000000056
 51
270.0
  0
LINE
  5
654
330
1A
100
AcDbEntity
  8
ﾘｱｹｰｽ
100
AcDbLine
 10
123.623218513673
 20
468.4852934975133
 30
0.0
 11
123.0121854576766
 21
398.4678404265164
 31
0.0
  0
LINE
  5
655
330
1A
100
AcDbEntity
  8
ﾘｱｹｰｽ
100
AcDbLine
 10
115.623218513673
 20
468.4852934975128
 30
0.0
 11
115.0121854576766
 21
398.4678404265164
 31
0.0
  0
LINE
  5
656
330
1A
100
AcDbEntity
  8
ﾘｱｹｰｽ
100
AcDbLine
 10
113.0121854576761
 20
398.4678404265164
 30
0.0
 11
123.0121854576762
 21
398.4678404265164
 31
0.0
  0
ARC
  5
657
330
1A
100
AcDbEntity
  8
ﾘｱｹｰｽ
100
AcDbCircle
 10
117.6231423598012
 20
468.4678404265167
 30
0.0
 40
2.0
100
AcDbArc
 50
90.0
 51
179.5000000000084
  0
ARC
  5
658
330
1A
100
AcDbEntity
  8
ﾘｱｹｰｽ
100
AcDbCircle
 10
125.6231423598012
 20
468.4678404265167
 30
0.0
 40
2.0
100
AcDbArc
 50
90.0
 51
179.5000000000084
  0
LINE
  5
659
330
1A
100
AcDbEntity
  8
ﾘｱｹｰｽ
100
AcDbLine
 10
117.980820589252
 20
470.4678404265169
 30
0.0
 11
118.0333341066395
 21
476.4852934975137
 31
0.0
  0
LINE
  5
65A
330
1A
100
AcDbEntity
  8
ﾘｱｹｰｽ
100
AcDbLine
 10
128.4110056469253
 20
478.4678404265163
 30
0.0
 11
120.0332579527678
 21
478.4678404265173
 31
0.0
  0
LINE
  5
65B
330
1A
100
AcDbEntity
  8
M_PARTS
100
AcDbLine
 10
108.0121854576771
 20
380.4678404265164
 30
0.0
 11
108.0121854576771
 21
460.4678404265164
 31
0.0
  0
LINE
  5
65C
330
1A
100
AcDbEntity
  8
M_PARTS
100
AcDbLine
 10
108.0121854576771
 20
425.4678404265137
 30
0.0
 11
109.5121854576773
 21
425.4678404265137
 31
0.0
  0
LINE
  5
65D
330
1A
100
AcDbEntity
  8
M_PARTS
100
AcDbLine
 10
108.0121854576771
 20
460.4678404265164
 30
0.0
 11
109.5121854576773
 21
460.4678404265164
 31
0.0
  0
LINE
  5
65E
330
1A
100
AcDbEntity
  8
M_PARTS
100
AcDbLine
 10
109.5121854576774
 20
380.4678404265164
 30
0.0
 11
109.5121854576773
 21
505.4678404265164
 31
0.0
  0
LINE
  5
65F
330
1A
100
AcDbEntity
  8
M_PARTS
100
AcDbLine
 10
108.0121854576771
 20
380.4678404265164
 30
0.0
 11
112.4555254847712
 21
380.4678404265164
 31
0.0
  0
LINE
  5
660
330
1A
100
AcDbEntity
  8
CALｶﾊﾞｰ
100
AcDbLine
 10
278.0121854576773
 20
185.3656941314662
 30
0.0
 11
283.7272714420014
 21
187.0826076970778
 31
0.0
  0
LINE
  5
661
330
1A
100
AcDbEntity
  8
CALｶﾊﾞｰ
100
AcDbLine
 10
272.4121854576774
 20
187.8656941314658
 30
0.0
 11
283.6121854576777
 21
187.8656941314667
 31
0.0
  0
LINE
  5
662
330
1A
100
AcDbEntity
  8
CALｶﾊﾞｰ
100
AcDbLine
 10
272.4121854576774
 20
189.0656941314658
 30
0.0
 11
283.6121854576777
 21
189.065694131467
 31
0.0
  0
LINE
  5
663
330
1A
100
AcDbEntity
  8
CALｶﾊﾞｰ
100
AcDbLine
 10
272.4121854576774
 20
189.8656941314658
 30
0.0
 11
283.6121854576777
 21
189.8656941314667
 31
0.0
  0
LINE
  5
664
330
1A
100
AcDbEntity
  8
CALｶﾊﾞｰ
100
AcDbLine
 10
272.4121854576774
 20
191.0656941314658
 30
0.0
 11
283.6121854576777
 21
191.065694131467
 31
0.0
  0
LINE
  5
665
330
1A
100
AcDbEntity
  8
CALｶﾊﾞｰ
100
AcDbLine
 10
272.4121854576774
 20
191.8656941314658
 30
0.0
 11
283.6121854576777
 21
191.8656941314667
 31
0.0
  0
LINE
  5
666
330
1A
100
AcDbEntity
  8
CALｶﾊﾞｰ
100
AcDbLine
 10
272.4121854576774
 20
193.0656941314658
 30
0.0
 11
283.6121854576777
 21
193.065694131467
 31
0.0
  0
LINE
  5
667
330
1A
100
AcDbEntity
  8
CALｶﾊﾞｰ
100
AcDbLine
 10
272.4121854576774
 20
193.8656941314658
 30
0.0
 11
283.6121854576777
 21
193.8656941314667
 31
0.0
  0
LINE
  5
668
330
1A
100
AcDbEntity
  8
CALｶﾊﾞｰ
100
AcDbLine
 10
256.0121854576777
 20
195.3656941314658
 30
0.0
 11
302.7933340584559
 21
195.3656941314667
 31
0.0
  0
LINE
  5
669
330
1A
100
AcDbEntity
  8
CALｶﾊﾞｰ
100
AcDbLine
 10
297.1776210764928
 20
178.0478457008704
 30
0.0
 11
254.5121854576773
 21
178.0478457008704
 31
0.0
  0
LINE
  5
66A
330
1A
100
AcDbEntity
  8
CALｶﾊﾞｰ
100
AcDbLine
 10
256.0121854576777
 20
195.8656941314658
 30
0.0
 11
302.3300338882745
 21
195.8656941314667
 31
0.0
  0
LINE
  5
66B
330
1A
100
AcDbEntity
  8
ﾌﾛﾝﾄｹｰｽ
100
AcDbLine
 10
255.8121854576779
 20
196.0656941314662
 30
0.0
 11
303.5121854576777
 21
196.0656941314662
 31
0.0
  0
LINE
  5
66C
330
1A
100
AcDbEntity
  8
CALｶﾊﾞｰ
100
AcDbLine
 10
255.8121854576774
 20
184.0656941314656
 30
0.0
 11
255.8121854576774
 21
181.0656941314656
 31
0.0
  0
LINE
  5
66D
330
1A
100
AcDbEntity
  8
CALｶﾊﾞｰ
100
AcDbLine
 10
260.8121854576775
 20
184.0656941314656
 30
0.0
 11
260.8121854576775
 21
181.0656941314656
 31
0.0
  0
LINE
  5
66E
330
1A
100
AcDbEntity
  8
CALｶﾊﾞｰ
 48
0.5
100
AcDbLine
 10
260.8121854576775
 20
181.0656941314656
 30
0.0
 11
255.8121854576774
 21
181.0656941314656
 31
0.0
  0
LINE
  5
66F
330
1A
100
AcDbEntity
  8
CALｶﾊﾞｰ
 48
0.5
100
AcDbLine
 10
260.8121854576775
 20
184.0656941314656
 30
0.0
 11
255.8121854576774
 21
184.0656941314656
 31
0.0
  0
LINE
  5
670
330
1A
100
AcDbEntity
  8
CALｶﾊﾞｰ
100
AcDbLine
 10
278.0121854576773
 20
185.3656941314662
 30
0.0
 11
272.2970994733532
 21
187.0826076970778
 31
0.0
  0
ARC
  5
671
330
1A
100
AcDbEntity
  8
CALｶﾊﾞｰ
100
AcDbCircle
 10
272.4121854576774
 20
187.4656941314657
 30
0.0
 40
0.4
100
AcDbArc
 50
90.0
 51
253.278796594248
  0
ARC
  5
672
330
1A
100
AcDbEntity
  8
CALｶﾊﾞｰ
100
AcDbCircle
 10
272.4121854576774
 20
189.4656941314657
 30
0.0
 40
0.4
100
AcDbArc
 50
90.0
 51
270.0
  0
ARC
  5
673
330
1A
100
AcDbEntity
  8
CALｶﾊﾞｰ
100
AcDbCircle
 10
272.4121854576774
 20
191.4656941314657
 30
0.0
 40
0.4
100
AcDbArc
 50
90.0
 51
270.0
  0
ARC
  5
674
330
1A
100
AcDbEntity
  8
CALｶﾊﾞｰ
100
AcDbCircle
 10
272.4121854576774
 20
193.4656941314657
 30
0.0
 40
0.4
100
AcDbArc
 50
90.0
 51
270.0
  0
LINE
  5
675
330
1A
100
AcDbEntity
  8
CALｶﾊﾞｰ
100
AcDbLine
 10
254.5121854576773
 20
178.5478457008704
 30
0.0
 11
254.0121854576773
 21
178.5478457008704
 31
0.0
  0
LINE
  5
676
330
1A
100
AcDbEntity
  8
CALｶﾊﾞｰ
100
AcDbLine
 10
254.5121854576777
 20
193.8656941314658
 30
0.0
 11
254.5121854576773
 21
178.0478457008704
 31
0.0
  0
ARC
  5
677
330
1A
100
AcDbEntity
  8
CALｶﾊﾞｰ
100
AcDbCircle
 10
256.0121854576777
 20
193.8656941314658
 30
0.0
 40
1.5
100
AcDbArc
 50
90.0
 51
180.0
  0
ARC
  5
678
330
1A
100
AcDbEntity
  8
CALｶﾊﾞｰ
100
AcDbCircle
 10
256.0121854576777
 20
193.8656941314658
 30
0.0
 40
2.0
100
AcDbArc
 50
90.0
 51
180.0
  0
LINE
  5
679
330
1A
100
AcDbEntity
  8
CALｶﾊﾞｰ
100
AcDbLine
 10
254.0121854576777
 20
193.8656941314658
 30
0.0
 11
254.0121854576773
 21
178.5478457008704
 31
0.0
  0
LINE
  5
67A
330
1A
100
AcDbEntity
  8
ﾌﾛﾝﾄｹｰｽ
100
AcDbLine
 10
247.0121854576778
 20
193.8656941314662
 30
0.0
 11
247.0121854576778
 21
182.8656941314681
 31
0.0
  0
LINE
  5
67B
330
1A
100
AcDbEntity
  8
ﾌﾛﾝﾄｹｰｽ
100
AcDbLine
 10
253.8121854576779
 20
194.0656941314662
 30
0.0
 11
253.8121854576779
 21
177.8373641450131
 31
0.0
  0
ARC
  5
67C
330
1A
100
AcDbEntity
  8
ﾌﾛﾝﾄｹｰｽ
100
AcDbCircle
 10
245.0121854576778
 20
182.8656941314681
 30
0.0
 40
2.0
100
AcDbArc
 50
270.0
 51
0.0
  0
ARC
  5
67D
330
1A
100
AcDbEntity
  8
ﾌﾛﾝﾄｹｰｽ
100
AcDbCircle
 10
245.0121854576778
 20
193.8656941314662
 30
0.0
 40
2.0
100
AcDbArc
 50
0.0
 51
90.0
  0
ARC
  5
67E
330
1A
100
AcDbEntity
  8
ﾌﾛﾝﾄｹｰｽ
100
AcDbCircle
 10
255.8121854576779
 20
194.0656941314662
 30
0.0
 40
2.0
100
AcDbArc
 50
90.0
 51
180.0
  0
LINE
  5
67F
330
1A
100
AcDbEntity
  8
0
100
AcDbLine
 10
271.0121854576777
 20
252.0464346182415
 30
0.0
 11
271.0121854576777
 21
253.272888382183
 31
0.0
  0
LINE
  5
680
330
1A
100
AcDbEntity
  8
0
100
AcDbLine
 10
271.0121854576777
 20
237.0464346182416
 30
0.0
 11
271.0121854576777
 21
238.2728883821829
 31
0.0
  0
LINE
  5
681
330
1A
100
AcDbEntity
  8
0
100
AcDbLine
 10
263.8602050924621
 20
250.1156941314663
 30
0.0
 11
262.2402499941137
 21
250.1156941314663
 31
0.0
  0
CIRCLE
  5
682
330
1A
100
AcDbEntity
  8
0
 62
     8
100
AcDbCircle
 10
268.5121854576777
 20
247.1156941314662
 30
0.0
 40
5.0
  0
LINE
  5
683
330
1A
100
AcDbEntity
  8
0
100
AcDbLine
 10
263.8602050924621
 20
235.1156941314662
 30
0.0
 11
262.2402499941137
 21
235.1156941314662
 31
0.0
  0
CIRCLE
  5
684
330
1A
100
AcDbEntity
  8
0
 62
     8
100
AcDbCircle
 10
268.5121854576777
 20
232.1156941314662
 30
0.0
 40
5.0
  0
CIRCLE
  5
688
330
1A
100
AcDbEntity
  8
0
 62
     8
100
AcDbCircle
 10
268.5121854576777
 20
217.1156941314662
 30
0.0
 40
5.0
  0
LINE
  5
689
330
1A
100
AcDbEntity
  8
M_PARTS
100
AcDbLine
 10
307.1121854576765
 20
224.3656331770338
 30
0.0
 11
305.5121854576771
 21
224.365633177034
 31
0.0
  0
LINE
  5
68A
330
1A
100
AcDbEntity
  8
M_PARTS
100
AcDbLine
 10
307.1121854576765
 20
198.0390353370841
 30
0.0
 11
310.6439758291121
 21
193.5054015663912
 31
0.0
  0
LINE
  5
68B
330
1A
100
AcDbEntity
  8
M_PARTS
100
AcDbLine
 10
307.1121854576767
 20
167.1810337583808
 30
0.0
 11
310.6439758291124
 21
167.5551267859115
 31
0.0
  0
LINE
  5
68C
330
1A
100
AcDbEntity
  8
M_PARTS
100
AcDbLine
 10
307.1121854576765
 20
166.3478083332694
 30
0.0
 11
310.6439758291126
 21
166.7973712820264
 31
0.0
  0
LINE
  5
68D
330
1A
100
AcDbEntity
  8
M_PARTS
100
AcDbLine
 10
310.6439758291121
 20
193.5054015663912
 30
0.0
 11
310.6439758291126
 21
166.7973712820264
 31
0.0
  0
LINE
  5
68E
330
1A
100
AcDbEntity
  8
0
 48
0.5
100
AcDbLine
 10
310.0121854576761
 20
217.3656941314632
 30
0.0
 11
307.0121854576764
 21
217.3656941314632
 31
0.0
  0
LINE
  5
68F
330
1A
100
AcDbEntity
  8
0
 48
0.5
100
AcDbLine
 10
310.0121854576761
 20
205.3656941314632
 30
0.0
 11
307.0121854576764
 21
205.3656941314632
 31
0.0
  0
INSERT
  5
690
330
1A
100
AcDbEntity
  8
0
100
AcDbBlockReference
  2
A$C084B3CDB
 10
326.0121854576764
 20
191.4756449642229
 30
0.0
 41
-1.0
  0
LINE
  5
691
330
1A
100
AcDbEntity
  8
0
 62
     0
100
AcDbLine
 10
303.5121854576777
 20
218.7942655600335
 30
0.0
 11
305.5121854576764
 21
215.3656941314634
 31
0.0
  0
LINE
  5
692
330
1A
100
AcDbEntity
  8
0
 62
     0
100
AcDbLine
 10
303.5121854576777
 20
203.9371227028939
 30
0.0
 11
305.5121854576764
 21
207.3656941314634
 31
0.0
  0
LINE
  5
693
330
1A
100
AcDbEntity
  8
CALｶﾊﾞｰ
100
AcDbLine
 10
302.1340689204464
 20
182.7861659196556
 30
0.0
 11
302.7933340584559
 21
195.3656941314667
 31
0.0
  0
ARC
  5
694
330
1A
100
AcDbEntity
  8
CALｶﾊﾞｰ
100
AcDbCircle
 10
297.1409212466735
 20
183.0478457008704
 30
0.0
 40
5.0
100
AcDbArc
 50
270.0
 51
356.9999999999943
  0
ARC
  5
695
330
1A
100
AcDbEntity
  8
CALｶﾊﾞｰ
100
AcDbCircle
 10
283.6121854576777
 20
187.4656941314657
 30
0.0
 40
0.4
100
AcDbArc
 50
286.7212034057655
 51
90.0
  0
ARC
  5
696
330
1A
100
AcDbEntity
  8
CALｶﾊﾞｰ
100
AcDbCircle
 10
283.6121854576777
 20
189.4656941314657
 30
0.0
 40
0.4
100
AcDbArc
 50
270.0
 51
90.0
  0
ARC
  5
697
330
1A
100
AcDbEntity
  8
CALｶﾊﾞｰ
100
AcDbCircle
 10
283.6121854576777
 20
191.4656941314657
 30
0.0
 40
0.4
100
AcDbArc
 50
270.0
 51
90.0
  0
ARC
  5
698
330
1A
100
AcDbEntity
  8
CALｶﾊﾞｰ
100
AcDbCircle
 10
283.6121854576777
 20
193.4656941314657
 30
0.0
 40
0.4
100
AcDbArc
 50
270.0
 51
90.0
  0
LINE
  5
699
330
1A
100
AcDbEntity
  8
CALｶﾊﾞｰ
100
AcDbLine
 10
302.330033888275
 20
195.3656941314667
 30
0.0
 11
302.3300338882745
 21
195.8656941314667
 31
0.0
  0
ARC
  5
69A
330
1A
100
AcDbEntity
  8
ﾌﾛﾝﾄｹｰｽ
100
AcDbCircle
 10
298.5121854576778
 20
268.3656941314658
 30
0.0
 40
5.0
100
AcDbArc
 50
0.0
 51
90.0
  0
ARC
  5
69B
330
1A
100
AcDbEntity
  8
ﾌﾛﾝﾄｹｰｽ
100
AcDbCircle
 10
298.0121854576777
 20
267.8656941314662
 30
0.0
 40
2.0
100
AcDbArc
 50
0.0
 51
90.0
  0
LINE
  5
69C
330
1A
100
AcDbEntity
  8
ﾌﾛﾝﾄｹｰｽ
100
AcDbLine
 10
303.5121854576777
 20
195.8656941314658
 30
0.0
 11
302.7909663811401
 21
182.1040143502506
 31
0.0
  0
ARC
  5
69D
330
1A
100
AcDbEntity
  8
ﾌﾛﾝﾄｹｰｽ
100
AcDbCircle
 10
297.7978187073672
 20
182.3656941314653
 30
0.0
 40
5.0
100
AcDbArc
 50
270.0
 51
357.0000000000009
  0
ARC
  5
69E
330
1A
100
AcDbEntity
  8
ﾌﾛﾝﾄｹｰｽ
100
AcDbCircle
 10
298.0121854576777
 20
199.8656941314662
 30
0.0
 40
2.0
100
AcDbArc
 50
270.0
 51
0.0
  0
LINE
  5
69F
330
1A
100
AcDbEntity
  8
ﾌﾛﾝﾄｹｰｽ
100
AcDbLine
 10
303.5121854576777
 20
268.3656941314658
 30
0.0
 11
303.5121854576777
 21
195.8656941314658
 31
0.0
  0
LINE
  5
6A0
330
1A
100
AcDbEntity
  8
ﾌﾛﾝﾄｹｰｽ
100
AcDbLine
 10
300.0121854576777
 20
267.8656941314662
 30
0.0
 11
300.0121854576777
 21
199.8656941314662
 31
0.0
  0
LINE
  5
6A1
330
1A
100
AcDbEntity
  8
0
100
AcDbLine
 10
289.0121854576777
 20
252.0464346182415
 30
0.0
 11
289.0121854576777
 21
253.272888382183
 31
0.0
  0
LINE
  5
6A2
330
1A
100
AcDbEntity
  8
0
100
AcDbLine
 10
289.0121854576777
 20
237.0464346182416
 30
0.0
 11
289.0121854576777
 21
238.2728883821829
 31
0.0
  0
LINE
  5
6A6
330
1A
100
AcDbEntity
  8
0
100
AcDbLine
 10
281.8602050924621
 20
250.1156941314663
 30
0.0
 11
280.2402499941138
 21
250.1156941314663
 31
0.0
  0
LINE
  5
6A7
330
1A
100
AcDbEntity
  8
0
100
AcDbLine
 10
281.8602050924621
 20
235.1156941314662
 30
0.0
 11
280.2402499941138
 21
235.1156941314662
 31
0.0
  0
CIRCLE
  5
6A8
330
1A
100
AcDbEntity
  8
0
 62
     8
100
AcDbCircle
 10
286.5121854576777
 20
217.1156941314662
 30
0.0
 40
5.0
  0
CIRCLE
  5
6A9
330
1A
100
AcDbEntity
  8
0
 62
     8
100
AcDbCircle
 10
286.5121854576777
 20
232.1156941314662
 30
0.0
 40
5.0
  0
CIRCLE
  5
6AA
330
1A
100
AcDbEntity
  8
0
 62
     8
100
AcDbCircle
 10
286.5121854576777
 20
247.1156941314662
 30
0.0
 40
5.0
  0
CIRCLE
  5
6AB
330
1A
100
AcDbEntity
  8
M_PARTS
  6
ByBlock
100
AcDbCircle
 10
282.5121854576784
 20
494.4678404265163
 30
0.0
 40
3.0
  0
ARC
  5
6AC
330
1A
100
AcDbEntity
  8
ﾘｱｹｰｽ
100
AcDbCircle
 10
279.2621854576755
 20
403.4678404265166
 30
0.0
 40
1.000000000000056
100
AcDbArc
 50
180.0
 51
0.0
  0
ARC
  5
6AD
330
1A
100
AcDbEntity
  8
ﾘｱｹｰｽ
100
AcDbCircle
 10
279.2621854576755
 20
428.9678404265166
 30
0.0
 40
1.000000000000056
100
AcDbArc
 50
0.0
 51
180.0
  0
ARC
  5
6AE
330
1A
100
AcDbEntity
  8
ﾘｱｹｰｽ
100
AcDbCircle
 10
279.2621854576755
 20
414.4678404265166
 30
0.0
 40
1.000000000000056
100
AcDbArc
 50
0.0
 51
180.0
  0
ARC
  5
6AF
330
1A
100
AcDbEntity
  8
ﾘｱｹｰｽ
100
AcDbCircle
 10
279.2621854576755
 20
417.9678404265166
 30
0.0
 40
1.000000000000056
100
AcDbArc
 50
180.0
 51
0.0
  0
ARC
  5
6B0
330
1A
100
AcDbEntity
  8
0
100
AcDbCircle
 10
267.5121854576766
 20
500.4678404265164
 30
0.0
 40
5.0
100
AcDbArc
 50
0.0
 51
90.0
  0
LINE
  5
6B1
330
1A
100
AcDbEntity
  8
0
100
AcDbLine
 10
272.5121854576766
 20
500.4678404265164
 30
0.0
 11
272.5121854576766
 21
470.4678404265169
 31
0.0
  0
LINE
  5
6B2
330
1A
100
AcDbEntity
  8
ﾘｱｹｰｽ
100
AcDbLine
 10
262.7621854576755
 20
403.4678404265163
 30
0.0
 11
262.7621854576759
 21
414.4678404265164
 31
0.0
  0
LINE
  5
6B3
330
1A
100
AcDbEntity
  8
ﾘｱｹｰｽ
100
AcDbLine
 10
269.7621854576755
 20
403.4678404265163
 30
0.0
 11
269.7621854576759
 21
414.4678404265164
 31
0.0
  0
LINE
  5
6B4
330
1A
100
AcDbEntity
  8
ﾘｱｹｰｽ
100
AcDbLine
 10
271.2621854576755
 20
403.4678404265163
 30
0.0
 11
271.2621854576755
 21
414.4678404265164
 31
0.0
  0
LINE
  5
6B5
330
1A
100
AcDbEntity
  8
ﾘｱｹｰｽ
100
AcDbLine
 10
273.2621854576755
 20
403.4678404265163
 30
0.0
 11
273.2621854576759
 21
414.4678404265164
 31
0.0
  0
LINE
  5
6B6
330
1A
100
AcDbEntity
  8
ﾘｱｹｰｽ
100
AcDbLine
 10
264.2621854576755
 20
403.4678404265163
 30
0.0
 11
264.2621854576755
 21
414.4678404265164
 31
0.0
  0
LINE
  5
6B7
330
1A
100
AcDbEntity
  8
ﾘｱｹｰｽ
100
AcDbLine
 10
266.2621854576755
 20
403.4678404265163
 30
0.0
 11
266.2621854576759
 21
414.4678404265164
 31
0.0
  0
LINE
  5
6B8
330
1A
100
AcDbEntity
  8
ﾘｱｹｰｽ
100
AcDbLine
 10
267.7621854576755
 20
403.4678404265163
 30
0.0
 11
267.7621854576755
 21
414.4678404265164
 31
0.0
  0
ARC
  5
6B9
330
1A
100
AcDbEntity
  8
ﾘｱｹｰｽ
100
AcDbCircle
 10
268.7621854576755
 20
403.4678404265166
 30
0.0
 40
1.000000000000056
100
AcDbArc
 50
180.0
 51
0.0
  0
ARC
  5
6BA
330
1A
100
AcDbEntity
  8
ﾘｱｹｰｽ
100
AcDbCircle
 10
272.2621854576755
 20
403.4678404265166
 30
0.0
 40
1.000000000000056
100
AcDbArc
 50
180.0
 51
0.0
  0
ARC
  5
6BB
330
1A
100
AcDbEntity
  8
ﾘｱｹｰｽ
100
AcDbCircle
 10
265.2621854576755
 20
403.4678404265166
 30
0.0
 40
1.000000000000056
100
AcDbArc
 50
180.0
 51
0.0
  0
ARC
  5
6BC
330
1A
100
AcDbEntity
  8
ﾘｱｹｰｽ
100
AcDbCircle
 10
268.7621854576755
 20
428.9678404265166
 30
0.0
 40
1.000000000000056
100
AcDbArc
 50
0.0
 51
180.0
  0
ARC
  5
6BD
330
1A
100
AcDbEntity
  8
ﾘｱｹｰｽ
100
AcDbCircle
 10
272.2621854576755
 20
428.9678404265166
 30
0.0
 40
1.000000000000056
100
AcDbArc
 50
0.0
 51
180.0
  0
ARC
  5
6BE
330
1A
100
AcDbEntity
  8
ﾘｱｹｰｽ
100
AcDbCircle
 10
265.2621854576755
 20
428.9678404265166
 30
0.0
 40
1.000000000000056
100
AcDbArc
 50
0.0
 51
180.0
  0
ARC
  5
6BF
330
1A
100
AcDbEntity
  8
ﾘｱｹｰｽ
100
AcDbCircle
 10
268.7621854576755
 20
414.4678404265166
 30
0.0
 40
1.000000000000056
100
AcDbArc
 50
0.0
 51
180.0
  0
ARC
  5
6C0
330
1A
100
AcDbEntity
  8
ﾘｱｹｰｽ
100
AcDbCircle
 10
268.7621854576755
 20
417.9678404265166
 30
0.0
 40
1.000000000000056
100
AcDbArc
 50
180.0
 51
0.0
  0
ARC
  5
6C1
330
1A
100
AcDbEntity
  8
ﾘｱｹｰｽ
100
AcDbCircle
 10
272.2621854576755
 20
414.4678404265166
 30
0.0
 40
1.000000000000056
100
AcDbArc
 50
0.0
 51
180.0
  0
ARC
  5
6C2
330
1A
100
AcDbEntity
  8
ﾘｱｹｰｽ
100
AcDbCircle
 10
272.2621854576755
 20
417.9678404265166
 30
0.0
 40
1.000000000000056
100
AcDbArc
 50
180.0
 51
0.0
  0
ARC
  5
6C3
330
1A
100
AcDbEntity
  8
ﾘｱｹｰｽ
100
AcDbCircle
 10
265.2621854576755
 20
414.4678404265166
 30
0.0
 40
1.000000000000056
100
AcDbArc
 50
0.0
 51
180.0
  0
ARC
  5
6C4
330
1A
100
AcDbEntity
  8
ﾘｱｹｰｽ
100
AcDbCircle
 10
265.2621854576755
 20
417.9678404265166
 30
0.0
 40
1.000000000000056
100
AcDbArc
 50
180.0
 51
0.0
  0
LINE
  5
6C5
330
1A
100
AcDbEntity
  8
ﾘｱｹｰｽ
100
AcDbLine
 10
262.7621854576755
 20
417.9678404265164
 30
0.0
 11
262.7621854576759
 21
428.9678404265164
 31
0.0
  0
LINE
  5
6C6
330
1A
100
AcDbEntity
  8
ﾘｱｹｰｽ
100
AcDbLine
 10
264.2621854576755
 20
417.9678404265164
 30
0.0
 11
264.2621854576755
 21
428.9678404265164
 31
0.0
  0
LINE
  5
6C7
330
1A
100
AcDbEntity
  8
ﾘｱｹｰｽ
100
AcDbLine
 10
266.2621854576755
 20
417.9678404265164
 30
0.0
 11
266.2621854576759
 21
428.9678404265164
 31
0.0
  0
LINE
  5
6C8
330
1A
100
AcDbEntity
  8
ﾘｱｹｰｽ
100
AcDbLine
 10
267.7621854576755
 20
417.9678404265164
 30
0.0
 11
267.7621854576755
 21
428.9678404265164
 31
0.0
  0
LINE
  5
6C9
330
1A
100
AcDbEntity
  8
ﾘｱｹｰｽ
100
AcDbLine
 10
269.7621854576755
 20
417.9678404265164
 30
0.0
 11
269.7621854576759
 21
428.9678404265164
 31
0.0
  0
LINE
  5
6CA
330
1A
100
AcDbEntity
  8
ﾘｱｹｰｽ
100
AcDbLine
 10
271.2621854576755
 20
417.9678404265164
 30
0.0
 11
271.2621854576755
 21
428.9678404265164
 31
0.0
  0
LINE
  5
6CB
330
1A
100
AcDbEntity
  8
ﾘｱｹｰｽ
100
AcDbLine
 10
273.2621854576755
 20
417.9678404265164
 30
0.0
 11
273.2621854576759
 21
428.9678404265164
 31
0.0
  0
LINE
  5
6CC
330
1A
100
AcDbEntity
  8
ﾘｱｹｰｽ
100
AcDbLine
 10
274.7621854576755
 20
403.4678404265163
 30
0.0
 11
274.7621854576755
 21
414.4678404265164
 31
0.0
  0
LINE
  5
6CD
330
1A
100
AcDbEntity
  8
ﾘｱｹｰｽ
100
AcDbLine
 10
276.7621854576755
 20
403.4678404265163
 30
0.0
 11
276.7621854576759
 21
414.4678404265164
 31
0.0
  0
LINE
  5
6CE
330
1A
100
AcDbEntity
  8
ﾘｱｹｰｽ
100
AcDbLine
 10
278.2621854576755
 20
403.4678404265163
 30
0.0
 11
278.2621854576755
 21
414.4678404265164
 31
0.0
  0
ARC
  5
6CF
330
1A
100
AcDbEntity
  8
ﾘｱｹｰｽ
100
AcDbCircle
 10
275.7621854576755
 20
403.4678404265166
 30
0.0
 40
1.000000000000056
100
AcDbArc
 50
180.0
 51
0.0
  0
ARC
  5
6D0
330
1A
100
AcDbEntity
  8
ﾘｱｹｰｽ
100
AcDbCircle
 10
275.7621854576755
 20
428.9678404265166
 30
0.0
 40
1.000000000000056
100
AcDbArc
 50
0.0
 51
180.0
  0
ARC
  5
6D1
330
1A
100
AcDbEntity
  8
ﾘｱｹｰｽ
100
AcDbCircle
 10
275.7621854576755
 20
414.4678404265166
 30
0.0
 40
1.000000000000056
100
AcDbArc
 50
0.0
 51
180.0
  0
ARC
  5
6D2
330
1A
100
AcDbEntity
  8
ﾘｱｹｰｽ
100
AcDbCircle
 10
275.7621854576755
 20
417.9678404265166
 30
0.0
 40
1.000000000000056
100
AcDbArc
 50
180.0
 51
0.0
  0
LINE
  5
6D3
330
1A
100
AcDbEntity
  8
ﾘｱｹｰｽ
100
AcDbLine
 10
274.7621854576755
 20
417.9678404265164
 30
0.0
 11
274.7621854576755
 21
428.9678404265164
 31
0.0
  0
LINE
  5
6D4
330
1A
100
AcDbEntity
  8
ﾘｱｹｰｽ
100
AcDbLine
 10
276.7621854576755
 20
417.9678404265164
 30
0.0
 11
276.7621854576759
 21
428.9678404265164
 31
0.0
  0
LINE
  5
6D5
330
1A
100
AcDbEntity
  8
ﾘｱｹｰｽ
100
AcDbLine
 10
278.2621854576755
 20
417.9678404265164
 30
0.0
 11
278.2621854576755
 21
428.9678404265164
 31
0.0
  0
LINE
  5
6D6
330
1A
100
AcDbEntity
  8
ﾘｱｹｰｽ
100
AcDbLine
 10
260.7621854576755
 20
403.4678404265163
 30
0.0
 11
260.7621854576755
 21
414.4678404265164
 31
0.0
  0
LINE
  5
6D7
330
1A
100
AcDbEntity
  8
ﾘｱｹｰｽ
100
AcDbLine
 10
260.7621854576755
 20
417.9678404265164
 30
0.0
 11
260.7621854576755
 21
428.9678404265164
 31
0.0
  0
ARC
  5
6D8
330
1A
100
AcDbEntity
  8
ﾘｱｹｰｽ
100
AcDbCircle
 10
261.7621854576755
 20
403.4678404265166
 30
0.0
 40
1.000000000000056
100
AcDbArc
 50
180.0
 51
0.0
  0
ARC
  5
6D9
330
1A
100
AcDbEntity
  8
ﾘｱｹｰｽ
100
AcDbCircle
 10
261.7621854576755
 20
428.9678404265166
 30
0.0
 40
1.000000000000056
100
AcDbArc
 50
0.0
 51
180.0
  0
ARC
  5
6DA
330
1A
100
AcDbEntity
  8
ﾘｱｹｰｽ
100
AcDbCircle
 10
261.7621854576755
 20
414.4678404265166
 30
0.0
 40
1.000000000000056
100
AcDbArc
 50
0.0
 51
180.0
  0
ARC
  5
6DB
330
1A
100
AcDbEntity
  8
ﾘｱｹｰｽ
100
AcDbCircle
 10
261.7621854576755
 20
417.9678404265166
 30
0.0
 40
1.000000000000056
100
AcDbArc
 50
180.0
 51
0.0
  0
LINE
  5
6DC
330
1A
100
AcDbEntity
  8
0
100
AcDbLine
 10
310.012185457675
 20
448.4678404265171
 30
0.0
 11
310.0121854576753
 21
422.4678404265171
 31
0.0
  0
LINE
  5
6DD
330
1A
100
AcDbEntity
  8
0
100
AcDbLine
 10
316.012185457675
 20
448.4678404265173
 30
0.0
 11
310.012185457675
 21
448.4678404265171
 31
0.0
  0
LINE
  5
6DE
330
1A
100
AcDbEntity
  8
0
100
AcDbLine
 10
316.0121854576753
 20
422.4678404265173
 30
0.0
 11
310.0121854576753
 21
422.4678404265171
 31
0.0
  0
ARC
  5
6DF
330
1A
100
AcDbEntity
  8
0
100
AcDbCircle
 10
325.0121854576748
 20
453.5628528644053
 30
0.0
 40
1.0
100
AcDbArc
 50
0.0
 51
84.28940686250269
  0
ARC
  5
6E0
330
1A
100
AcDbEntity
  8
0
100
AcDbCircle
 10
325.0121854576755
 20
417.3728279886295
 30
0.0
 40
1.0
100
AcDbArc
 50
275.7105931374973
 51
0.0
  0
ARC
  5
6E1
330
1A
100
AcDbEntity
  8
0
100
AcDbCircle
 10
317.0121854576748
 20
454.3628528644051
 30
0.0
 40
1.0
100
AcDbArc
 50
84.28940686250269
 51
180.0
  0
LINE
  5
6E2
330
1A
100
AcDbEntity
  8
0
100
AcDbLine
 10
317.1116891766958
 20
455.3578900546151
 30
0.0
 11
325.1116891766958
 21
454.5578900546153
 31
0.0
  0
ARC
  5
6E3
330
1A
100
AcDbEntity
  8
0
100
AcDbCircle
 10
317.0121854576755
 20
416.5728279886293
 30
0.0
 40
1.0
100
AcDbArc
 50
180.0
 51
275.7105931374973
  0
LINE
  5
6E4
330
1A
100
AcDbEntity
  8
0
100
AcDbLine
 10
316.0121854576748
 20
454.3628528644051
 30
0.0
 11
316.0121854576755
 21
416.5728279886293
 31
0.0
  0
LINE
  5
6E5
330
1A
100
AcDbEntity
  8
0
100
AcDbLine
 10
317.1116891766964
 20
415.5777907984194
 30
0.0
 11
325.1116891766964
 21
416.3777907984195
 31
0.0
  0
ARC
  5
6E6
330
1A
100
AcDbEntity
  8
0
100
AcDbCircle
 10
325.0121854576748
 20
448.0052548159976
 30
0.0
 40
1.0
100
AcDbArc
 50
0.0
 51
83.76347765111139
  0
LINE
  5
6E7
330
1A
100
AcDbEntity
  8
0
100
AcDbLine
 10
316.0121854576748
 20
449.9947260321987
 30
0.0
 11
325.1208184982536
 21
448.999336735406
 31
0.0
  0
ARC
  5
6E8
330
1A
100
AcDbEntity
  8
0
100
AcDbCircle
 10
325.012185457675
 20
443.0886243327744
 30
0.0
 40
1.0
100
AcDbArc
 50
272.0550914059204
 51
0.0
  0
LINE
  5
6E9
330
1A
100
AcDbEntity
  8
0
100
AcDbLine
 10
316.012185457675
 20
441.7650292173418
 30
0.0
 11
325.0480458787833
 21
442.0892675245233
 31
0.0
  0
LINE
  5
6EA
330
1A
100
AcDbEntity
  8
0
100
AcDbLine
 10
326.0121854576748
 20
453.5628528644053
 30
0.0
 11
326.0121854576755
 21
417.3728279886295
 31
0.0
  0
LINE
  5
6EB
330
1A
100
AcDbEntity
  8
0
100
AcDbLine
 10
316.0121854576753
 20
426.4850698296065
 30
0.0
 11
325.0121854576752
 21
426.4850698296067
 31
0.0
  0
ARC
  5
6EC
330
1A
100
AcDbEntity
  8
0
100
AcDbCircle
 10
325.0121854576752
 20
425.4850698296066
 30
0.0
 40
1.0
100
AcDbArc
 50
0.0
 51
90.0
  0
ARC
  5
6ED
330
1A
100
AcDbEntity
  8
0
100
AcDbCircle
 10
325.0121854576752
 20
421.9944914099762
 30
0.0
 40
1.0
100
AcDbArc
 50
273.7590806029123
 51
0.0000000000032569
  0
LINE
  5
6EE
330
1A
100
AcDbEntity
  8
0
100
AcDbLine
 10
316.0121854576755
 20
420.401011630797
 30
0.0
 11
325.0777467331706
 21
420.9966428647773
 31
0.0
  0
LINE
  5
6EF
330
1A
100
AcDbEntity
  8
0
100
AcDbLine
 10
297.0435503261019
 20
470.4678404265171
 30
0.0
 11
300.0121854576773
 21
470.4678404265171
 31
0.0
  0
LINE
  5
6F0
330
1A
100
AcDbEntity
  8
0
100
AcDbLine
 10
300.0121854576777
 20
398.4678404265171
 30
0.0
 11
300.0121854576773
 21
470.4678404265171
 31
0.0
  0
LINE
  5
6F1
330
1A
100
AcDbEntity
  8
0
100
AcDbLine
 10
297.0435503261019
 20
472.0678404265172
 30
0.0
 11
300.6121854576767
 21
472.0678404265171
 31
0.0
  0
ARC
  5
6F2
330
1A
100
AcDbEntity
  8
0
100
AcDbCircle
 10
300.6121854576767
 20
471.0678404265171
 30
0.0
 40
1.0
100
AcDbArc
 50
0.0
 51
90.0
  0
LINE
  5
6F3
330
1A
100
AcDbEntity
  8
0
100
AcDbLine
 10
301.6121854576776
 20
398.4678404265172
 30
0.0
 11
301.6121854576768
 21
471.0678404265173
 31
0.0
  0
LINE
  5
6F4
330
1A
100
AcDbEntity
  8
0
 62
     0
100
AcDbLine
 10
301.6121854576774
 20
446.1535547122293
 30
0.0
 11
305.512185457675
 21
439.4678404265173
 31
0.0
  0
LINE
  5
6F5
330
1A
100
AcDbEntity
  8
0
 62
     0
100
AcDbLine
 10
301.6121854576774
 20
424.782126140805
 30
0.0
 11
305.512185457675
 21
431.4678404265173
 31
0.0
  0
LINE
  5
6F6
330
1A
100
AcDbEntity
  8
0
 48
0.5
100
AcDbLine
 10
310.012185457675
 20
429.4678404265172
 30
0.0
 11
307.0121854576752
 21
429.467840426517
 31
0.0
  0
LINE
  5
6F7
330
1A
100
AcDbEntity
  8
0
 48
0.5
100
AcDbLine
 10
310.0121854576748
 20
441.4678404265172
 30
0.0
 11
307.012185457675
 21
441.467840426517
 31
0.0
  0
LINE
  5
6F8
330
1A
100
AcDbEntity
  8
M_PARTS
100
AcDbLine
 10
302.5688454305825
 20
380.4678404265164
 30
0.0
 11
307.0121854576771
 21
380.4678404265164
 31
0.0
  0
ARC
  5
6F9
330
1A
100
AcDbEntity
  8
M_PARTS
100
AcDbCircle
 10
300.5121854576762
 20
505.4678404265164
 30
0.0
 40
5.0
100
AcDbArc
 50
0.0
 51
90.0
  0
ARC
  5
6FA
330
1A
100
AcDbEntity
  8
ﾘｱｹｰｽ
100
AcDbCircle
 10
294.9911129625856
 20
476.4678404265175
 30
0.0
 40
2.0
100
AcDbArc
 50
0.4999999999915467
 51
90.0
  0
LINE
  5
6FB
330
1A
100
AcDbEntity
  8
ﾘｱｹｰｽ
100
AcDbLine
 10
286.5435503261019
 20
470.4678404265173
 30
0.0
 11
286.6133652684279
 21
478.4678404265163
 31
0.0
  0
LINE
  5
6FC
330
1A
100
AcDbEntity
  8
ﾌﾛﾝﾄｹｰｽ
100
AcDbLine
 10
302.5633598080958
 20
380.3631685140314
 30
0.0
 11
303.5121854576759
 21
398.4678404265164
 31
0.0
  0
ARC
  5
6FD
330
1A
100
AcDbEntity
  8
ﾌﾛﾝﾄｹｰｽ
100
AcDbCircle
 10
300.5661007385865
 20
380.4678404265175
 30
0.0
 40
2.0
100
AcDbArc
 50
270.0
 51
356.9999999999943
  0
LINE
  5
6FE
330
1A
100
AcDbEntity
  8
ﾘｱｹｰｽ
100
AcDbLine
 10
299.4011524016787
 20
468.4852934975138
 30
0.0
 11
300.0121854576755
 21
398.4678404265164
 31
0.0
  0
LINE
  5
6FF
330
1A
100
AcDbEntity
  8
ﾘｱｹｰｽ
100
AcDbLine
 10
291.4011524016787
 20
468.4852934975138
 30
0.0
 11
292.0121854576755
 21
398.4678404265164
 31
0.0
  0
LINE
  5
700
330
1A
100
AcDbEntity
  8
ﾘｱｹｰｽ
100
AcDbLine
 10
281.7621854576755
 20
403.4678404265163
 30
0.0
 11
281.7621854576755
 21
414.4678404265164
 31
0.0
  0
LINE
  5
701
330
1A
100
AcDbEntity
  8
ﾘｱｹｰｽ
100
AcDbLine
 10
283.7621854576754
 20
403.4678404265163
 30
0.0
 11
283.7621854576759
 21
414.4678404265164
 31
0.0
  0
LINE
  5
702
330
1A
100
AcDbEntity
  8
ﾘｱｹｰｽ
100
AcDbLine
 10
285.2621854576755
 20
403.4678404265163
 30
0.0
 11
285.2621854576755
 21
414.4678404265164
 31
0.0
  0
LINE
  5
703
330
1A
100
AcDbEntity
  8
ﾘｱｹｰｽ
100
AcDbLine
 10
287.2621854576755
 20
403.4678404265163
 30
0.0
 11
287.2621854576759
 21
414.4678404265164
 31
0.0
  0
LINE
  5
704
330
1A
100
AcDbEntity
  8
ﾘｱｹｰｽ
100
AcDbLine
 10
280.2621854576755
 20
403.4678404265163
 30
0.0
 11
280.2621854576759
 21
414.4678404265164
 31
0.0
  0
ARC
  5
705
330
1A
100
AcDbEntity
  8
ﾘｱｹｰｽ
100
AcDbCircle
 10
282.7621854576755
 20
403.4678404265166
 30
0.0
 40
1.000000000000056
100
AcDbArc
 50
180.0
 51
0.0
  0
ARC
  5
706
330
1A
100
AcDbEntity
  8
ﾘｱｹｰｽ
100
AcDbCircle
 10
286.2621854576754
 20
403.4678404265166
 30
0.0
 40
1.000000000000056
100
AcDbArc
 50
180.0
 51
0.0
  0
ARC
  5
707
330
1A
100
AcDbEntity
  8
ﾘｱｹｰｽ
100
AcDbCircle
 10
282.7621854576755
 20
428.9678404265166
 30
0.0
 40
1.000000000000056
100
AcDbArc
 50
0.0
 51
180.0
  0
ARC
  5
708
330
1A
100
AcDbEntity
  8
ﾘｱｹｰｽ
100
AcDbCircle
 10
286.2621854576754
 20
428.9678404265166
 30
0.0
 40
1.000000000000056
100
AcDbArc
 50
0.0
 51
180.0
  0
ARC
  5
709
330
1A
100
AcDbEntity
  8
ﾘｱｹｰｽ
100
AcDbCircle
 10
282.7621854576755
 20
414.4678404265166
 30
0.0
 40
1.000000000000056
100
AcDbArc
 50
0.0
 51
180.0
  0
ARC
  5
70A
330
1A
100
AcDbEntity
  8
ﾘｱｹｰｽ
100
AcDbCircle
 10
282.7621854576755
 20
417.9678404265166
 30
0.0
 40
1.000000000000056
100
AcDbArc
 50
180.0
 51
0.0
  0
ARC
  5
70B
330
1A
100
AcDbEntity
  8
ﾘｱｹｰｽ
100
AcDbCircle
 10
286.2621854576754
 20
414.4678404265166
 30
0.0
 40
1.000000000000056
100
AcDbArc
 50
0.0
 51
180.0
  0
ARC
  5
70C
330
1A
100
AcDbEntity
  8
ﾘｱｹｰｽ
100
AcDbCircle
 10
286.2621854576754
 20
417.9678404265166
 30
0.0
 40
1.000000000000056
100
AcDbArc
 50
180.0
 51
0.0
  0
LINE
  5
70D
330
1A
100
AcDbEntity
  8
ﾘｱｹｰｽ
100
AcDbLine
 10
280.2621854576755
 20
417.9678404265164
 30
0.0
 11
280.2621854576759
 21
428.9678404265164
 31
0.0
  0
LINE
  5
70E
330
1A
100
AcDbEntity
  8
ﾘｱｹｰｽ
100
AcDbLine
 10
281.7621854576755
 20
417.9678404265164
 30
0.0
 11
281.7621854576755
 21
428.9678404265164
 31
0.0
  0
LINE
  5
70F
330
1A
100
AcDbEntity
  8
ﾘｱｹｰｽ
100
AcDbLine
 10
283.7621854576754
 20
417.9678404265164
 30
0.0
 11
283.7621854576759
 21
428.9678404265164
 31
0.0
  0
LINE
  5
710
330
1A
100
AcDbEntity
  8
ﾘｱｹｰｽ
100
AcDbLine
 10
285.2621854576755
 20
417.9678404265164
 30
0.0
 11
285.2621854576755
 21
428.9678404265164
 31
0.0
  0
LINE
  5
711
330
1A
100
AcDbEntity
  8
ﾘｱｹｰｽ
100
AcDbLine
 10
287.2621854576755
 20
417.9678404265164
 30
0.0
 11
287.2621854576759
 21
428.9678404265164
 31
0.0
  0
ARC
  5
712
330
1A
100
AcDbEntity
  8
ﾘｱｹｰｽ
100
AcDbCircle
 10
289.4012285555504
 20
468.4678404265171
 30
0.0
 40
2.0
100
AcDbArc
 50
0.4999999999915467
 51
90.0
  0
LINE
  5
713
330
1A
100
AcDbEntity
  8
ﾘｱｹｰｽ
100
AcDbLine
 10
297.0435503261014
 20
470.4678404265169
 30
0.0
 11
296.9910368087139
 21
476.4852934975137
 31
0.0
  0
ARC
  5
714
330
1A
100
AcDbEntity
  8
ﾘｱｹｰｽ
100
AcDbCircle
 10
297.4012285555504
 20
468.4678404265171
 30
0.0
 40
2.0
100
AcDbArc
 50
0.4999999999915467
 51
90.0
  0
LINE
  5
715
330
1A
100
AcDbEntity
  8
ﾘｱｹｰｽ
100
AcDbLine
 10
286.6133652684279
 20
478.4678404265163
 30
0.0
 11
294.9911129625856
 21
478.4678404265173
 31
0.0
  0
LINE
  5
716
330
1A
100
AcDbEntity
  8
M_PARTS
100
AcDbLine
 10
307.0121854576771
 20
380.4678404265164
 30
0.0
 11
307.012185457678
 21
460.4678404265164
 31
0.0
  0
LINE
  5
717
330
1A
100
AcDbEntity
  8
M_PARTS
100
AcDbLine
 10
305.5121854576771
 20
425.4678404265105
 30
0.0
 11
307.0121854576775
 21
425.4678404265105
 31
0.0
  0
LINE
  5
718
330
1A
100
AcDbEntity
  8
M_PARTS
100
AcDbLine
 10
309.5121854576775
 20
460.0640345042302
 30
0.0
 11
307.012185457678
 21
460.0640345042304
 31
0.0
  0
LINE
  5
719
330
1A
100
AcDbEntity
  8
M_PARTS
100
AcDbLine
 10
309.512185457677
 20
459.0033743324502
 30
0.0
 11
307.012185457678
 21
459.0033743324504
 31
0.0
  0
LINE
  5
71A
330
1A
100
AcDbEntity
  8
M_PARTS
100
AcDbLine
 10
305.5121854576766
 20
460.4678404265164
 30
0.0
 11
307.012185457678
 21
460.4678404265164
 31
0.0
  0
ARC
  5
71B
330
1A
100
AcDbEntity
  8
M_PARTS
100
AcDbCircle
 10
309.5121854576775
 20
458.5640345042302
 30
0.0
 40
1.5
100
AcDbArc
 50
0.0
 51
90.0
  0
ARC
  5
71C
330
1A
100
AcDbEntity
  8
M_PARTS
100
AcDbCircle
 10
309.512185457677
 20
457.5033743324502
 30
0.0
 40
1.5
100
AcDbArc
 50
0.0
 51
90.0
  0
LINE
  5
71D
330
1A
100
AcDbEntity
  8
M_PARTS
100
AcDbLine
 10
311.0121854576773
 20
448.4678404265171
 30
0.0
 11
311.0121854576775
 21
458.5640345042302
 31
0.0
  0
LINE
  5
71E
330
1A
100
AcDbEntity
  8
M_PARTS
100
AcDbLine
 10
305.5121854576775
 20
380.4678404265164
 30
0.0
 11
305.5121854576757
 21
505.4678404265167
 31
0.0
  0
DIMENSION
  5
71F
330
1A
100
AcDbEntity
  8
MEASURE
100
AcDbDimension
  2
*D18
 10
549.7779391912047
 20
314.5126918507425
 30
0.0
 11
499.7779391912053
 21
318.2626918507426
 31
0.0
 70
    32
 71
     5
 42
99.99999999999886
  3
AD-STANDARD
100
AcDbAlignedDimension
 13
449.7779391912058
 23
270.4196094123774
 33
0.0
 14
549.7779391912047
 24
223.2958791891416
 34
0.0
100
AcDbRotatedDimension
1001
ACAD
1000
DSTYLE
1002
{
1070
    40
1040
0.5
1070
    41
1040
10.0
1070
   140
1040
14.0
1002
}
  0
LINE
  5
720
330
1A
100
AcDbEntity
  8
M_PARTS
100
AcDbLine
 10
472.2779391911999
 20
201.3656941314636
 30
0.0
 11
487.3688482821083
 21
201.3656941314636
 31
0.0
  0
LINE
  5
721
330
1A
100
AcDbEntity
  8
M_PARTS
100
AcDbLine
 10
472.2779391911999
 20
221.3656941314636
 30
0.0
 11
489.4574311155099
 21
221.3656941314638
 31
0.0
  0
LINE
  5
722
330
1A
100
AcDbEntity
  8
ﾘｱｹｰｽ
100
AcDbLine
 10
478.6049067370595
 20
179.9427259102346
 30
0.0
 11
469.7779391912047
 21
179.8656941314686
 31
0.0
  0
LINE
  5
723
330
1A
100
AcDbEntity
  8
ﾘｱｹｰｽ
100
AcDbLine
 10
539.795392262202
 20
270.2546610754713
 30
0.0
 11
469.7779391912051
 21
270.8656941314681
 31
0.0
  0
LINE
  5
724
330
1A
100
AcDbEntity
  8
ﾘｱｹｰｽ
100
AcDbLine
 10
539.795392262202
 20
262.2546610754713
 30
0.0
 11
469.7779391912042
 21
262.8656941314681
 31
0.0
  0
LINE
  5
725
330
1A
100
AcDbEntity
  8
ﾘｱｹｰｽ
100
AcDbLine
 10
481.889359777379
 20
187.9713888976819
 30
0.0
 11
469.7779391912042
 21
187.8656941314681
 31
0.0
  0
DIMENSION
  5
726
330
1A
100
AcDbEntity
  8
MEASURE
100
AcDbDimension
  2
*D19
 10
506.7779391911986
 20
292.6278433775225
 30
0.0
 11
478.2779391912021
 21
296.3778433775225
 31
0.0
 70
    32
 71
     5
 42
56.99999999999295
  3
AD-STANDARD
100
AcDbAlignedDimension
 13
449.7779391912056
 23
270.4196094123773
 33
0.0
 14
506.7779391911986
 24
211.3656941314636
 34
0.0
100
AcDbRotatedDimension
1001
ACAD
1000
DSTYLE
1002
{
1070
    40
1040
0.5
1070
    41
1040
10.0
1070
   140
1040
14.0
1002
}
  0
DIMENSION
  5
727
330
1A
100
AcDbEntity
  8
MEASURE
100
AcDbDimension
  2
*D20
 10
423.7109762148857
 20
177.3656941314681
 30
0.0
 11
419.9609762148856
 21
225.3656941314682
 31
0.0
 70
    32
 71
     5
 42
96.0
  3
AD-STANDARD
100
AcDbAlignedDimension
 13
469.7779391912047
 23
273.3656941314681
 33
0.0
 14
469.7779391912049
 24
177.3656941314681
 34
0.0
 50
90.0
100
AcDbRotatedDimension
1001
ACAD
1000
DSTYLE
1002
{
1070
    40
1040
0.5
1070
    41
1040
10.0
1070
   140
1040
14.0
1002
}
  0
LINE
  5
728
330
1A
100
AcDbEntity
  8
M_PARTS
100
AcDbLine
 10
470.2779391911999
 20
219.3656941314636
 30
0.0
 11
470.2779391911999
 21
203.3656941314636
 31
0.0
  0
ARC
  5
729
330
1A
100
AcDbEntity
  8
M_PARTS
100
AcDbCircle
 10
472.2779391911999
 20
203.3656941314636
 30
0.0
 40
2.0
100
AcDbArc
 50
180.0
 51
270.0
  0
ARC
  5
72A
330
1A
100
AcDbEntity
  8
M_PARTS
100
AcDbCircle
 10
472.2779391911999
 20
219.3656941314636
 30
0.0
 40
2.0
100
AcDbArc
 50
90.0
 51
180.0
  0
LINE
  5
72B
330
1A
100
AcDbEntity
  8
M_PARTS
100
AcDbLine
 10
470.2779391911986
 20
219.3656941314636
 30
0.0
 11
470.2779391911986
 21
203.3656941314636
 31
0.0
  0
ARC
  5
72C
330
1A
100
AcDbEntity
  8
ﾌﾛﾝﾄｹｰｽ
100
AcDbCircle
 10
451.7779391912058
 20
270.4196094123773
 30
0.0
 40
2.0
100
AcDbArc
 50
93.00000000000558
 51
180.0
  0
LINE
  5
72D
330
1A
100
AcDbEntity
  8
ﾌﾛﾝﾄｹｰｽ
100
AcDbLine
 10
451.67326727872
 20
272.4168684818866
 30
0.0
 11
469.7779391912047
 21
273.3656941314681
 31
0.0
  0
ARC
  5
72E
330
1A
100
AcDbEntity
  8
ﾌﾛﾝﾄｹｰｽ
100
AcDbCircle
 10
451.7779391912037
 20
180.311778850558
 30
0.0
 40
2.0
100
AcDbArc
 50
180.0
 51
267.0000000000074
  0
LINE
  5
72F
330
1A
100
AcDbEntity
  8
ﾌﾛﾝﾄｹｰｽ
100
AcDbLine
 10
451.6732672787179
 20
178.3145197810487
 30
0.0
 11
469.7779391912049
 21
177.3656941314681
 31
0.0
  0
LINE
  5
730
330
1A
100
AcDbEntity
  8
ﾌﾛﾝﾄｹｰｽ
100
AcDbLine
 10
449.7779391912038
 20
180.311778850558
 30
0.0
 11
449.7779391912058
 21
270.4196094123773
 31
0.0
  0
LINE
  5
731
330
1A
100
AcDbEntity
  8
ﾌﾛﾝﾄｹｰｽ
100
AcDbLine
 10
469.7779391912047
 20
273.3656941314681
 30
0.0
 11
469.7779391912049
 21
177.3656941314681
 31
0.0
  0
LINE
  5
732
330
1A
100
AcDbEntity
  8
M_PARTS
100
AcDbLine
 10
531.7779391911986
 20
201.3656941314636
 30
0.0
 11
542.7779391911983
 21
201.3656941314636
 31
0.0
  0
LINE
  5
733
330
1A
100
AcDbEntity
  8
M_PARTS
100
AcDbLine
 10
531.360514886154
 20
221.365694131464
 30
0.0
 11
542.7779391911999
 21
221.3656941314641
 31
0.0
  0
LINE
  5
734
330
1A
100
AcDbEntity
  8
ﾘｱｹｰｽ
100
AcDbLine
 10
541.7779391912045
 20
201.3656941314636
 30
0.0
 11
541.7779391912042
 21
182.4766510335945
 31
0.0
  0
LINE
  5
735
330
1A
100
AcDbEntity
  8
M_PARTS
100
AcDbLine
 10
526.7779391911981
 20
224.365694131464
 30
0.0
 11
516.1064500787679
 21
224.365694131464
 31
0.0
  0
ARC
  5
736
330
1A
100
AcDbEntity
  8
M_PARTS
100
AcDbCircle
 10
526.7779391911981
 20
219.365694131464
 30
0.0
 40
5.0
100
AcDbArc
 50
0.0
 51
90.0
  0
LINE
  5
737
330
1A
100
AcDbEntity
  8
ﾘｱｹｰｽ
100
AcDbLine
 10
498.629584255007
 20
225.3656941314682
 30
0.0
 11
478.2779391912047
 21
225.3656941314681
 31
0.0
  0
LINE
  5
738
330
1A
100
AcDbEntity
  8
M_PARTS
100
AcDbLine
 10
531.7779391911981
 20
219.3656941314646
 30
0.0
 11
531.7779391911983
 21
199.3656941314655
 31
0.0
  0
LINE
  5
739
330
1A
100
AcDbEntity
  8
M_PARTS
100
AcDbLine
 10
506.7779391911992
 20
165.8656941314628
 30
0.0
 11
506.7779391912008
 21
142.9367619433303
 31
0.0
  0
LINE
  5
73A
330
1A
100
AcDbEntity
  8
M_PARTS
100
AcDbLine
 10
506.7779391911992
 20
165.8656941314628
 30
0.0
 11
531.7779391911986
 21
199.365694131466
 31
0.0
  0
LINE
  5
73B
330
1A
100
AcDbEntity
  8
M_PARTS
100
AcDbLine
 10
530.1501748677094
 20
191.4962633852272
 30
0.0
 11
531.7779391911986
 21
199.365694131466
 31
0.0
  0
LINE
  5
73C
330
1A
100
AcDbEntity
  8
M_PARTS
100
AcDbLine
 10
530.7824563334581
 20
191.024411545116
 30
0.0
 11
531.7779391911986
 21
199.365694131466
 31
0.0
  0
LINE
  5
73D
330
1A
100
AcDbEntity
  8
M_PARTS
100
AcDbLine
 10
531.777939191199
 20
219.3656941314646
 30
0.0
 11
531.7779391911986
 21
201.0257180548765
 31
0.0
  0
LINE
  5
73E
330
1A
100
AcDbEntity
  8
M_PARTS
100
AcDbLine
 10
512.3470713634105
 20
166.320995685249
 30
0.0
 11
530.7824563334581
 21
191.024411545116
 31
0.0
  0
LINE
  5
73F
330
1A
100
AcDbEntity
  8
M_PARTS
100
AcDbLine
 10
511.9278063600459
 20
167.078289584955
 30
0.0
 11
530.1501748677091
 21
191.4962633852272
 31
0.0
  0
LINE
  5
740
330
1A
100
AcDbEntity
  8
MEASURE
100
AcDbLine
 10
514.4309030106428
 20
176.1206656495185
 30
0.0
 11
514.4309030106428
 21
176.1206656495185
 31
0.0
  0
LINE
  5
741
330
1A
100
AcDbEntity
  8
M_PARTS
100
AcDbLine
 10
512.3470713634105
 20
166.320995685249
 30
0.0
 11
506.7779391911995
 21
165.865694131463
 31
0.0
  0
LINE
  5
742
330
1A
100
AcDbEntity
  8
M_PARTS
100
AcDbLine
 10
511.9278063600459
 20
167.078289584955
 30
0.0
 11
507.4070459026315
 21
166.7086971247823
 31
0.0
  0
LINE
  5
743
330
1A
100
AcDbEntity
  8
M_PARTS
100
AcDbLine
 10
530.1501748677094
 20
191.4962633852272
 30
0.0
 11
530.7824563334581
 21
191.024411545116
 31
0.0
  0
ARC
  5
744
330
1A
100
AcDbEntity
  8
M_PARTS
100
AcDbCircle
 10
511.7779391912006
 20
142.9367619433305
 30
0.0
 40
5.0
100
AcDbArc
 50
180.0
 51
224.9999999999908
  0
CIRCLE
  5
745
330
1A
100
AcDbEntity
  8
0
100
AcDbCircle
 10
506.7779391911986
 20
211.3656941314636
 30
0.0
 40
7.5
  0
CIRCLE
  5
746
330
1A
100
AcDbEntity
  8
0
100
AcDbCircle
 10
506.7779391911986
 20
211.3656941314636
 30
0.0
 40
10.5
  0
CIRCLE
  5
747
330
1A
100
AcDbEntity
  8
0
100
AcDbCircle
 10
506.7779391911986
 20
211.3656941314636
 30
0.0
 40
12.5
  0
ARC
  5
748
330
1A
100
AcDbEntity
  8
0
100
AcDbCircle
 10
506.7779391911986
 20
211.3656941314636
 30
0.0
 40
20.0
100
AcDbArc
 50
291.5224878140729
 51
320.4775121859302
  0
ARC
  5
749
330
1A
100
AcDbEntity
  8
0
100
AcDbCircle
 10
506.7779391911986
 20
211.3656941314636
 30
0.0
 40
20.0
100
AcDbArc
 50
3.522487814068525
 51
32.47751218593014
  0
ARC
  5
74A
330
1A
100
AcDbEntity
  8
0
100
AcDbCircle
 10
506.7779391911986
 20
211.3656941314636
 30
0.0
 40
20.0
100
AcDbArc
 50
75.52248781407015
 51
104.4775121859298
  0
ARC
  5
74B
330
1A
100
AcDbEntity
  8
0
100
AcDbCircle
 10
506.7779391911986
 20
211.3656941314636
 30
0.0
 40
20.0
100
AcDbArc
 50
147.5224878140698
 51
176.4775121859314
  0
ARC
  5
74C
330
1A
100
AcDbEntity
  8
0
100
AcDbCircle
 10
480.4963122482472
 20
202.8262758886534
 30
0.0
 40
11.63413792203584
100
AcDbArc
 50
338.9002654736855
 51
57.09973452631212
  0
ARC
  5
74D
330
1A
100
AcDbEntity
  8
0
100
AcDbCircle
 10
506.7779391911986
 20
183.7315562094276
 30
0.0
 40
11.63413792203599
100
AcDbArc
 50
50.9002654736888
 51
129.0997345263111
  0
ARC
  5
74E
330
1A
100
AcDbEntity
  8
0
100
AcDbCircle
 10
533.0595661341499
 20
202.8262758886534
 30
0.0
 40
11.63413792203584
100
AcDbArc
 50
122.9002654736878
 51
201.0997345263144
  0
ARC
  5
74F
330
1A
100
AcDbEntity
  8
0
100
AcDbCircle
 10
490.5350004608099
 20
233.7221813352919
 30
0.0
 40
11.63413792203573
100
AcDbArc
 50
266.9002654736865
 51
345.0997345263115
  0
ARC
  5
750
330
1A
100
AcDbEntity
  8
0
100
AcDbCircle
 10
523.0208779215872
 20
233.7221813352919
 30
0.0
 40
11.63413792203573
100
AcDbArc
 50
194.9002654736884
 51
273.0997345263134
  0
ARC
  5
751
330
1A
100
AcDbEntity
  8
0
100
AcDbCircle
 10
506.7779391911986
 20
211.3656941314636
 30
0.0
 40
20.0
100
AcDbArc
 50
219.5224878140697
 51
248.477512185927
  0
LINE
  5
752
330
1A
100
AcDbEntity
  8
M_PARTS
100
AcDbLine
 10
536.7779391911999
 20
225.8656941314655
 30
0.0
 11
536.7779391911997
 21
225.8656941314654
 31
0.0
  0
LINE
  5
753
330
1A
100
AcDbEntity
  8
M_PARTS
100
AcDbLine
 10
542.7779391911999
 20
221.3656941314641
 30
0.0
 11
542.7779391911999
 21
205.3656941314645
 31
0.0
  0
LINE
  5
754
330
1A
100
AcDbEntity
  8
M_PARTS
100
AcDbLine
 10
542.7779391911985
 20
218.3656941314643
 30
0.0
 11
542.7779391911983
 21
201.3656941314636
 31
0.0
  0
ARC
  5
755
330
1A
100
AcDbEntity
  8
ﾘｱｹｰｽ
100
AcDbCircle
 10
539.7779391912052
 20
268.2547372293431
 30
0.0
 40
2.0
100
AcDbArc
 50
0.0
 51
89.49999999998238
  0
ARC
  5
756
330
1A
100
AcDbEntity
  8
ﾘｱｹｰｽ
100
AcDbCircle
 10
539.7779391912052
 20
260.2547372293431
 30
0.0
 40
2.0
100
AcDbArc
 50
0.0
 51
89.49999999998238
  0
LINE
  5
757
330
1A
100
AcDbEntity
  8
ﾘｱｹｰｽ
100
AcDbLine
 10
541.7779391912047
 20
223.3656941314672
 30
0.0
 11
549.7779391912047
 21
223.2958791891416
 31
0.0
  0
LINE
  5
758
330
1A
100
AcDbEntity
  8
ﾘｱｹｰｽ
100
AcDbLine
 10
541.7779391912047
 20
221.8656941314672
 30
0.0
 11
549.7779391912047
 21
221.9355090737932
 31
0.0
  0
ARC
  5
759
330
1A
100
AcDbEntity
  8
ﾘｱｹｰｽ
100
AcDbCircle
 10
478.2779391912047
 20
257.8656941314686
 30
0.0
 40
2.0
100
AcDbArc
 50
90.0
 51
180.0
  0
ARC
  5
75A
330
1A
100
AcDbEntity
  8
ﾘｱｹｰｽ
100
AcDbCircle
 10
478.2779391912047
 20
227.3656941314681
 30
0.0
 40
2.0
100
AcDbArc
 50
180.0
 51
270.0
  0
LINE
  5
75B
330
1A
100
AcDbEntity
  8
ﾘｱｹｰｽ
100
AcDbLine
 10
476.2779391912046
 20
227.3656941314681
 30
0.0
 11
476.2779391912046
 21
257.8656941314686
 31
0.0
  0
LINE
  5
75C
330
1A
100
AcDbEntity
  8
ﾘｱｹｰｽ
100
AcDbLine
 10
541.7779391912047
 20
259.8656941314681
 30
0.0
 11
478.2779391912047
 21
259.8656941314686
 31
0.0
  0
LINE
  5
75D
330
1A
100
AcDbEntity
  8
ﾘｱｹｰｽ
100
AcDbLine
 10
541.7779391912047
 20
225.3656941314681
 30
0.0
 11
514.92629412739
 21
225.3656941314682
 31
0.0
  0
ARC
  5
75E
330
1A
100
AcDbEntity
  8
ﾘｱｹｰｽ
100
AcDbCircle
 10
539.7779391912043
 20
182.4766510335945
 30
0.0
 40
2.0
100
AcDbArc
 50
270.5000000000175
 51
0.0
  0
ARC
  5
75F
330
1A
100
AcDbEntity
  8
ﾘｱｹｰｽ
100
AcDbCircle
 10
539.7779391912043
 20
198.8064771116757
 30
0.0
 40
2.0
100
AcDbArc
 50
270.4999999999915
 51
0.0
  0
LINE
  5
760
330
1A
100
AcDbEntity
  8
ﾘｱｹｰｽ
100
AcDbLine
 10
541.7779391912042
 20
199.3656941314672
 30
0.0
 11
549.7779391912042
 21
199.4355090737924
 31
0.0
  0
LINE
  5
761
330
1A
100
AcDbEntity
  8
ﾘｱｹｰｽ
100
AcDbLine
 10
541.7779391912042
 20
200.8656941314672
 30
0.0
 11
549.7779391912042
 21
200.7958791891407
 31
0.0
  0
LINE
  5
762
330
1A
100
AcDbEntity
  8
ﾘｱｹｰｽ
100
AcDbLine
 10
539.7953922622011
 20
180.4767271874658
 30
0.0
 11
522.8003685102994
 21
180.328413862082
 31
0.0
  0
LINE
  5
763
330
1A
100
AcDbEntity
  8
ﾘｱｹｰｽ
100
AcDbLine
 10
531.463843519944
 20
196.733844941182
 30
0.0
 11
539.7953922622011
 21
196.8065532655479
 31
0.0
  0
LINE
  5
764
330
1A
100
AcDbEntity
  8
ﾘｱｹｰｽ
100
AcDbLine
 10
541.7779391912051
 20
268.2547372293431
 30
0.0
 11
541.7779391912047
 21
221.3656941314641
 31
0.0
  0
LINE
  5
765
330
1A
100
AcDbEntity
  8
ﾘｱｹｰｽ
100
AcDbLine
 10
549.7779391912047
 20
223.2958791891416
 30
0.0
 11
549.7779391912042
 21
199.4355090737924
 31
0.0
  0
LINE
  5
897
330
1A
100
AcDbEntity
  8
0
100
AcDbLine
 10
296.2621854576777
 20
258.3656941314663
 30
0.0
 11
140.7621854576775
 21
258.3656941314663
 31
0.0
  0
LINE
  5
899
330
1A
100
AcDbEntity
  8
0
100
AcDbLine
 10
296.2621854576777
 20
206.3656941314663
 30
0.0
 11
140.7621854576775
 21
206.3656941314663
 31
0.0
  0
LINE
  5
89B
330
1A
100
AcDbEntity
  8
0
100
AcDbLine
 10
149.512185457678
 20
221.3656941314677
 30
0.0
 11
235.0121854576777
 21
221.3656941314676
 31
0.0
  0
LINE
  5
89C
330
1A
100
AcDbEntity
  8
0
100
AcDbLine
 10
149.5121854576776
 20
253.3656941314665
 30
0.0
 11
235.0121854576777
 21
253.3656941314665
 31
0.0
  0
LINE
  5
89D
330
1A
100
AcDbEntity
  8
0
100
AcDbLine
 10
148.0121854576776
 20
251.8656941314665
 30
0.0
 11
148.012185457678
 21
222.8656941314677
 31
0.0
  0
LINE
  5
89F
330
1A
100
AcDbEntity
  8
0
100
AcDbLine
 10
139.2621854576775
 20
256.8656941314662
 30
0.0
 11
139.2621854576775
 21
207.8656941314662
 31
0.0
  0
ARC
  5
8A0
330
1A
100
AcDbEntity
  8
0
100
AcDbCircle
 10
149.512185457678
 20
222.8656941314677
 30
0.0
 40
1.5
100
AcDbArc
 50
180.0
 51
270.0
  0
ARC
  5
8A2
330
1A
100
AcDbEntity
  8
0
100
AcDbCircle
 10
140.7621854576775
 20
207.8656941314662
 30
0.0
 40
1.5
100
AcDbArc
 50
180.0
 51
270.0
  0
ARC
  5
8A4
330
1A
100
AcDbEntity
  8
0
100
AcDbCircle
 10
149.5121854576776
 20
251.8656941314665
 30
0.0
 40
1.5
100
AcDbArc
 50
90.0
 51
180.0
  0
ARC
  5
8B8
330
1A
100
AcDbEntity
  8
0
100
AcDbCircle
 10
140.7621854576775
 20
256.8656941314662
 30
0.0
 40
1.5
100
AcDbArc
 50
90.0
 51
180.0
  0
LINE
  5
8D1
330
1A
100
AcDbEntity
  8
CENTER
100
AcDbLine
 10
268.5121854576777
 20
256.8186477346177
 30
0.0
 11
268.5121854576777
 21
207.8854558450704
 31
0.0
  0
LINE
  5
8D2
330
1A
100
AcDbEntity
  8
0
100
AcDbLine
 10
236.5121854576778
 20
251.8656941314665
 30
0.0
 11
236.5121854576778
 21
222.8656941314676
 31
0.0
  0
LINE
  5
8D3
330
1A
100
AcDbEntity
  8
0
100
AcDbLine
 10
297.7621854576777
 20
207.8656941314662
 30
0.0
 11
297.7621854576777
 21
256.8656941314662
 31
0.0
  0
LINE
  5
8D4
330
1A
100
AcDbEntity
  8
CENTER
100
AcDbLine
 10
286.5121854576777
 20
255.7298596680717
 30
0.0
 11
286.5121854576777
 21
207.6566048926962
 31
0.0
  0
ARC
  5
8D8
330
1A
100
AcDbEntity
  8
0
100
AcDbCircle
 10
296.2621854576777
 20
207.8656941314662
 30
0.0
 40
1.5
100
AcDbArc
 50
270.0
 51
0.0
  0
LINE
  5
8DA
330
1A
100
AcDbEntity
  8
CENTER
100
AcDbLine
 10
252.9082110288279
 20
247.1156941314662
 30
0.0
 11
296.3357647995933
 21
247.1156941314662
 31
0.0
  0
LINE
  5
8DB
330
1A
100
AcDbEntity
  8
CENTER
100
AcDbLine
 10
252.9082110288279
 20
232.1156941314662
 30
0.0
 11
296.6299478023618
 21
232.1156941314662
 31
0.0
  0
LINE
  5
8DE
330
1A
100
AcDbEntity
  8
CENTER
100
AcDbLine
 10
253.3660299751352
 20
217.1156941314662
 30
0.0
 11
296.706248350443
 21
217.1156941314662
 31
0.0
  0
ARC
  5
8E0
330
1A
100
AcDbEntity
  8
0
100
AcDbCircle
 10
235.0121854576777
 20
222.8656941314676
 30
0.0
 40
1.5
100
AcDbArc
 50
270.0
 51
0.0
  0
ARC
  5
8E7
330
1A
100
AcDbEntity
  8
0
100
AcDbCircle
 10
296.2621854576777
 20
256.8656941314662
 30
0.0
 40
1.5
100
AcDbArc
 50
0.0
 51
90.0
  0
ARC
  5
8E8
330
1A
100
AcDbEntity
  8
0
100
AcDbCircle
 10
235.0121854576777
 20
251.8656941314665
 30
0.0
 40
1.5
100
AcDbArc
 50
0.0
 51
90.0
  0
VIEWPORT
  5
22
330
17
100
AcDbEntity
 67
     1
  8
0
100
AcDbViewport
 10
318.4173666735178
 20
203.1369109363025
 30
0.0
 40
720.5797539896039
 41
454.5570844388271
 68
     1
 69
     1
 12
318.4173666735178
 22
203.1369109363025
 13
0.0
 23
0.0
 14
1.0
 24
1.0
 15
10.0
 25
10.0
 16
0.0
 26
0.0
 36
1.0
 17
0.0
 27
0.0
 37
0.0
 42
50.0
 43
0.0
 44
0.0
 45
454.5570844388271
 50
0.0
 51
0.0
 72
   100
 90
    32768
  1

281
     0
 71
     1
 74
     0
110
0.0
120
0.0
130
0.0
111
1.0
121
0.0
131
0.0
112
0.0
122
1.0
132
0.0
 79
     0
146
0.0
  0
VIEWPORT
  5
399
330
17
100
AcDbEntity
 67
     1
  8
0
100
AcDbViewport
 10
212.5
 20
149.4999999999999
 30
0.0
 40
385.0
 41
264.9999999999999
 68
     2
 69
     2
 12
392.1641732826831
 22
296.0735378878289
 13
0.0
 23
0.0
 14
168.0
 24
168.0
 15
0.0
 25
0.0
 16
0.0
 26
0.0
 36
1.0
 17
0.0
 27
0.0
 37
0.0
 42
50.0
 43
0.0
 44
0.0
 45
530.0000012035936
 50
0.0
 51
0.0
 72
   100
 90
    36864
  1

281
     0
 71
     1
 74
     0
110
0.0
120
0.0
130
0.0
111
1.0
121
0.0
131
0.0
112
0.0
122
1.0
132
0.0
 79
     0
146
0.0
  0
ENDSEC
  0
SECTION
  2
OBJECTS
  0
DICTIONARY
  5
C
330
0
100
AcDbDictionary
281
     1
  3
ACAD_GROUP
350
D
  3
ACAD_LAYOUT
350
2C2
  3
ACAD_MLINESTYLE
350
E
  3
ACAD_PLOTSETTINGS
350
2C3
  3
ACAD_PLOTSTYLENAME
350
2C0
  3
AcadDim
350
2CE
  3
CONTENTDICTIONARY
350
234
  0
DICTIONARY
  5
D
102
{ACAD_REACTORS
330
C
102
}
330
C
100
AcDbDictionary
281
     1
  0
DICTIONARY
  5
2C2
102
{ACAD_REACTORS
330
C
102
}
330
C
100
AcDbDictionary
281
     1
  3
Model
350
2C4
  3
ﾚｲｱｳﾄ1
350
2C5
  0
DICTIONARY
  5
E
102
{ACAD_REACTORS
330
C
102
}
330
C
100
AcDbDictionary
281
     1
  3
STANDARD
350
13
  0
DICTIONARY
  5
2C3
102
{ACAD_REACTORS
330
C
102
}
330
C
100
AcDbDictionary
281
     1
  3
A3form
350
2DD
  0
ACDBDICTIONARYWDFLT
  5
2C0
102
{ACAD_REACTORS
330
C
102
}
330
C
100
AcDbDictionary
281
     1
  3
Normal
350
2C1
100
AcDbDictionaryWithDefault
340
2C1
  0
XRECORD
  5
2CE
102
{ACAD_REACTORS
330
C
102
}
330
C
100
AcDbXrecord
280
     1
 90
   990106
  3

 60
     0
 61
     0
 62
     4
 63
     4
 64
     1
 65
     0
 66
     0
 67
     3
 68
     1
 69
     0
 70
     0
 71
     0
 72
     0
 40
0.0
170
     2
340
0
  0
DICTIONARY
  5
234
102
{ACAD_REACTORS
330
C
102
}
330
C
100
AcDbDictionary
281
     1
  0
LAYOUT
  5
2C4
102
{ACAD_REACTORS
330
2C2
102
}
330
2C2
100
AcDbPlotSettings
  1

  2
Laser Wind 2080W
  4

  6

 40
0.0
 41
0.0
 42
0.0
 43
0.0
 44
0.0
 45
0.0
 46
0.0
 47
0.0
 48
0.0
 49
0.0
140
0.0
141
0.0
142
1.0
143
1.0
 70
  1712
 72
     0
 73
     0
 74
     0
  7

 75
     0
147
1.0
148
0.0
149
0.0
100
AcDbLayout
  1
Model
 70
     1
 71
     0
 10
0.0
 20
0.0
 11
12.0
 21
9.0
 12
0.0
 22
0.0
 32
0.0
 14
0.0
 24
0.0
 34
0.0
 15
0.0
 25
0.0
 35
0.0
146
0.0
 13
0.0
 23
0.0
 33
0.0
 16
1.0
 26
0.0
 36
0.0
 17
0.0
 27
1.0
 37
0.0
 76
     0
330
1A
  0
LAYOUT
  5
2C5
102
{ACAD_REACTORS
330
2C2
102
}
330
2C2
100
AcDbPlotSettings
  1

  2
\\Adj-dv01-sv1\Canon LBP5700 LIPS
  4
A3
  6

 40
5.873749732971191
 41
5.873747825622558
 42
5.873748779296875
 43
5.873748779296875
 44
296.9259948730469
 45
419.9466552734374
 46
5.9
 47
9.009999999999999
 48
0.0
 49
0.0
140
0.0
141
0.0
142
1.0
143
1.0
 70
   692
 72
     1
 73
     1
 74
     1
  7
aclt.ctb
 75
    16
147
1.0
148
-14.9883313044736
149
-8.779223561501453
100
AcDbLayout
  1
ﾚｲｱｳﾄ1
 70
     1
 71
     1
 10
0.1045825251767294
 20
-2.994526171469738
 11
420.0512377986142
 21
293.9314687015771
 12
0.0
 22
0.0
 32
0.0
 14
20.0
 24
17.0
 34
0.0
 15
405.0
 25
281.9999999999999
 35
0.0
146
0.0
 13
0.0
 23
0.0
 33
0.0
 16
1.0
 26
0.0
 36
0.0
 17
0.0
 27
1.0
 37
0.0
 76
     0
330
17
331
22
  0
MLINESTYLE
  5
13
102
{ACAD_REACTORS
330
E
102
}
330
E
100
AcDbMlineStyle
  2
STANDARD
 70
     0
  3

 62
     0
 51
90.0
 52
90.0
 71
     2
 49
0.5
 62
   256
  6
BYLAYER
 49
-0.5
 62
   256
  6
BYLAYER
  0
PLOTSETTINGS
  5
2DD
102
{ACAD_REACTORS
330
2C3
102
}
330
2C3
100
AcDbPlotSettings
  1
A3form
  2
Laser Wind 2080W
  4
A3
  6

 40
4.773083209991455
 41
4.773059368133544
 42
4.7730712890625
 43
4.7730712890625
 44
297.0106506347656
 45
419.9889831542968
 46
0.0
 47
0.0
 48
0.0
 49
0.0
140
0.0
141
0.0
142
1.0
143
1.000041778052157
 70
   688
 72
     1
 73
     1
 74
     2
  7
monochrome.ctb
 75
     0
147
0.9999582236931756
148
0.0
149
0.0
  0
ACDBPLACEHOLDER
  5
2C1
102
{ACAD_REACTORS
330
2C0
102
}
330
2C0
  0
ENDSEC
  0
EOF
