  0
SECTION
  2
HEADER
  9
$ACADVER
  1
AC1027
  9
$ACADMAINTVER
 70
     8
  9
$DWGCODEPAGE
  3
ANSI_932
  9
$LASTSAVEDBY
  1
DODATE-685
  9
$REQUIREDVERSIONS
160
                 0
  9
$INSBASE
 10
0.0
 20
0.0
 30
0.0
  9
$EXTMIN
 10
128.4828559977893
 20
79.00894580530473
 30
0.0
  9
$EXTMAX
 10
433.4828559978092
 20
316.6848773937926
 30
0.0
  9
$LIMMIN
 10
0.0
 20
0.0
  9
$LIMMAX
 10
10000.0
 20
10000.0
  9
$ORTHOMODE
 70
     0
  9
$REGENMODE
 70
     1
  9
$FILLMODE
 70
     1
  9
$QTEXTMODE
 70
     0
  9
$MIRRTEXT
 70
     1
  9
$LTSCALE
 40
10.0
  9
$ATTMODE
 70
     1
  9
$TEXTSIZE
 40
3.5
  9
$TRACEWID
 40
1.0
  9
$TEXTSTYLE
  7
AD-STANDARD
  9
$CLAYER
  8
MEASURE
  9
$CELTYPE
  6
BYLAYER
  9
$CECOLOR
 62
   256
  9
$CELTSCALE
 40
1.0
  9
$DISPSILH
 70
     0
  9
$DIMSCALE
 40
1.0
  9
$DIMASZ
 40
2.5
  9
$DIMEXO
 40
1.0
  9
$DIMDLI
 40
0.38
  9
$DIMRND
 40
0.0
  9
$DIMDLE
 40
0.0
  9
$DIMEXE
 40
2.0
  9
$DIMTP
 40
0.0
  9
$DIMTM
 40
0.0
  9
$DIMTXT
 40
3.5
  9
$DIMCEN
 40
-2.0
  9
$DIMTSZ
 40
0.0
  9
$DIMTOL
 70
     0
  9
$DIMLIM
 70
     0
  9
$DIMTIH
 70
     0
  9
$DIMTOH
 70
     0
  9
$DIMSE1
 70
     0
  9
$DIMSE2
 70
     0
  9
$DIMTAD
 70
     1
  9
$DIMZIN
 70
     8
  9
$DIMBLK
  1

  9
$DIMASO
 70
     1
  9
$DIMSHO
 70
     1
  9
$DIMPOST
  1

  9
$DIMAPOST
  1

  9
$DIMALT
 70
     0
  9
$DIMALTD
 70
     2
  9
$DIMALTF
 40
25.4
  9
$DIMLFAC
 40
1.0
  9
$DIMTOFL
 70
     1
  9
$DIMTVP
 40
0.0
  9
$DIMTIX
 70
     0
  9
$DIMSOXD
 70
     0
  9
$DIMSAH
 70
     0
  9
$DIMBLK1
  1

  9
$DIMBLK2
  1

  9
$DIMSTYLE
  2
AD-STANDARD
  9
$DIMCLRD
 70
     9
  9
$DIMCLRE
 70
     9
  9
$DIMCLRT
 70
     2
  9
$DIMTFAC
 40
1.0
  9
$DIMGAP
 40
0.5
  9
$DIMJUST
 70
     0
  9
$DIMSD1
 70
     0
  9
$DIMSD2
 70
     0
  9
$DIMTOLJ
 70
     1
  9
$DIMTZIN
 70
     8
  9
$DIMALTZ
 70
     0
  9
$DIMALTTZ
 70
     0
  9
$DIMUPT
 70
     0
  9
$DIMDEC
 70
     4
  9
$DIMTDEC
 70
     4
  9
$DIMALTU
 70
     2
  9
$DIMALTTD
 70
     2
  9
$DIMTXSTY
  7
AD-STANDARD
  9
$DIMAUNIT
 70
     0
  9
$DIMADEC
 70
     0
  9
$DIMALTRND
 40
0.0
  9
$DIMAZIN
 70
     0
  9
$DIMDSEP
 70
    46
  9
$DIMATFIT
 70
     3
  9
$DIMFRAC
 70
     0
  9
$DIMLDRBLK
  1

  9
$DIMLUNIT
 70
     2
  9
$DIMLWD
 70
    -2
  9
$DIMLWE
 70
    -2
  9
$DIMTMOVE
 70
     0
  9
$DIMFXL
 40
1.0
  9
$DIMFXLON
 70
     0
  9
$DIMJOGANG
 40
0.7853981633974483
  9
$DIMTFILL
 70
     0
  9
$DIMTFILLCLR
 70
     0
  9
$DIMARCSYM
 70
     0
  9
$DIMLTYPE
  6

  9
$DIMLTEX1
  6

  9
$DIMLTEX2
  6

  9
$DIMTXTDIRECTION
 70
     0
  9
$LUNITS
 70
     2
  9
$LUPREC
 70
     4
  9
$SKETCHINC
 40
1.0
  9
$FILLETRAD
 40
0.0
  9
$AUNITS
 70
     0
  9
$AUPREC
 70
     0
  9
$MENU
  1
.
  9
$ELEVATION
 40
0.0
  9
$PELEVATION
 40
0.0
  9
$THICKNESS
 40
0.0
  9
$LIMCHECK
 70
     0
  9
$CHAMFERA
 40
0.0
  9
$CHAMFERB
 40
0.0
  9
$CHAMFERC
 40
673.4006734006733
  9
$CHAMFERD
 40
0.0
  9
$SKPOLY
 70
     0
  9
$TDCREATE
 40
2453264.377754803
  9
$TDUCREATE
 40
2453264.002754803
  9
$TDUPDATE
 40
2459544.730542870
  9
$TDUUPDATE
 40
2459544.355542870
  9
$TDINDWG
 40
0.3033591551
  9
$TDUSRTIMER
 40
0.3033591551
  9
$USRTIMER
 70
     1
  9
$ANGBASE
 50
0.0
  9
$ANGDIR
 70
     0
  9
$PDMODE
 70
     0
  9
$PDSIZE
 40
0.0
  9
$PLINEWID
 40
0.0
  9
$SPLFRAME
 70
     0
  9
$SPLINETYPE
 70
     6
  9
$SPLINESEGS
 70
     8
  9
$HANDSEED
  5
BBD
  9
$SURFTAB1
 70
     6
  9
$SURFTAB2
 70
     6
  9
$SURFTYPE
 70
     6
  9
$SURFU
 70
     6
  9
$SURFV
 70
     6
  9
$UCSBASE
  2

  9
$UCSNAME
  2

  9
$UCSORG
 10
0.0
 20
0.0
 30
0.0
  9
$UCSXDIR
 10
1.0
 20
0.0
 30
0.0
  9
$UCSYDIR
 10
0.0
 20
1.0
 30
0.0
  9
$UCSORTHOREF
  2

  9
$UCSORTHOVIEW
 70
     0
  9
$UCSORGTOP
 10
0.0
 20
0.0
 30
0.0
  9
$UCSORGBOTTOM
 10
0.0
 20
0.0
 30
0.0
  9
$UCSORGLEFT
 10
0.0
 20
0.0
 30
0.0
  9
$UCSORGRIGHT
 10
0.0
 20
0.0
 30
0.0
  9
$UCSORGFRONT
 10
0.0
 20
0.0
 30
0.0
  9
$UCSORGBACK
 10
0.0
 20
0.0
 30
0.0
  9
$PUCSBASE
  2

  9
$PUCSNAME
  2

  9
$PUCSORG
 10
0.0
 20
0.0
 30
0.0
  9
$PUCSXDIR
 10
1.0
 20
0.0
 30
0.0
  9
$PUCSYDIR
 10
0.0
 20
1.0
 30
0.0
  9
$PUCSORTHOREF
  2

  9
$PUCSORTHOVIEW
 70
     0
  9
$PUCSORGTOP
 10
0.0
 20
0.0
 30
0.0
  9
$PUCSORGBOTTOM
 10
0.0
 20
0.0
 30
0.0
  9
$PUCSORGLEFT
 10
0.0
 20
0.0
 30
0.0
  9
$PUCSORGRIGHT
 10
0.0
 20
0.0
 30
0.0
  9
$PUCSORGFRONT
 10
0.0
 20
0.0
 30
0.0
  9
$PUCSORGBACK
 10
0.0
 20
0.0
 30
0.0
  9
$USERI1
 70
     0
  9
$USERI2
 70
     0
  9
$USERI3
 70
     0
  9
$USERI4
 70
     0
  9
$USERI5
 70
     0
  9
$USERR1
 40
0.0
  9
$USERR2
 40
0.0
  9
$USERR3
 40
0.0
  9
$USERR4
 40
0.0
  9
$USERR5
 40
0.0
  9
$WORLDVIEW
 70
     1
  9
$SHADEDGE
 70
     3
  9
$SHADEDIF
 70
    70
  9
$TILEMODE
 70
     0
  9
$MAXACTVP
 70
    16
  9
$PINSBASE
 10
0.0
 20
0.0
 30
0.0
  9
$PLIMCHECK
 70
     0
  9
$PEXTMIN
 10
20.0
 20
17.0
 30
0.0
  9
$PEXTMAX
 10
405.0
 20
281.9999999999999
 30
0.0
  9
$PLIMMIN
 10
0.1045825251767294
 20
-2.994526171469738
  9
$PLIMMAX
 10
420.0512377986142
 20
293.9314687015772
  9
$UNITMODE
 70
     0
  9
$VISRETAIN
 70
     0
  9
$PLINEGEN
 70
     0
  9
$PSLTSCALE
 70
     1
  9
$TREEDEPTH
 70
  3020
  9
$CMLSTYLE
  2
STANDARD
  9
$CMLJUST
 70
     0
  9
$CMLSCALE
 40
1.0
  9
$PROXYGRAPHICS
 70
     1
  9
$MEASUREMENT
 70
     1
  9
$CELWEIGHT
370
    -1
  9
$ENDCAPS
280
     0
  9
$JOINSTYLE
280
     0
  9
$LWDISPLAY
290
     0
  9
$INSUNITS
 70
     0
  9
$HYPERLINKBASE
  1

  9
$STYLESHEET
  1

  9
$XEDIT
290
     1
  9
$CEPSNTYPE
380
     0
  9
$PSTYLEMODE
290
     1
  9
$FINGERPRINTGUID
  2
{8ACAE060-96A8-11D3-AA4A-00A0247712C1}
  9
$VERSIONGUID
  2
{53E74213-8A53-44DF-86F0-7046C8E89520}
  9
$EXTNAMES
290
     1
  9
$PSVPSCALE
 40
0.0
  9
$OLESTARTUP
290
     0
  9
$SORTENTS
280
   127
  9
$INDEXCTL
280
     0
  9
$HIDETEXT
280
     0
  9
$XCLIPFRAME
280
     2
  9
$HALOGAP
280
     0
  9
$OBSCOLOR
 70
   257
  9
$OBSLTYPE
280
     0
  9
$INTERSECTIONDISPLAY
280
     0
  9
$INTERSECTIONCOLOR
 70
   257
  9
$DIMASSOC
280
     1
  9
$PROJECTNAME
  1

  9
$CAMERADISPLAY
290
     0
  9
$LENSLENGTH
 40
50.0
  9
$CAMERAHEIGHT
 40
0.0
  9
$STEPSPERSEC
 40
2.0
  9
$STEPSIZE
 40
6.0
  9
$3DDWFPREC
 40
2.0
  9
$PSOLWIDTH
 40
0.25
  9
$PSOLHEIGHT
 40
4.0
  9
$LOFTANG1
 40
1.570796326794896
  9
$LOFTANG2
 40
1.570796326794896
  9
$LOFTMAG1
 40
0.0
  9
$LOFTMAG2
 40
0.0
  9
$LOFTPARAM
 70
     7
  9
$LOFTNORMALS
280
     1
  9
$LATITUDE
 40
37.795
  9
$LONGITUDE
 40
-122.394
  9
$NORTHDIRECTION
 40
0.0
  9
$TIMEZONE
 70
 -8000
  9
$LIGHTGLYPHDISPLAY
280
     1
  9
$TILEMODELIGHTSYNCH
280
     1
  9
$CMATERIAL
347
A32
  9
$SOLIDHIST
280
     0
  9
$SHOWHIST
280
     1
  9
$DWFFRAME
280
     2
  9
$DGNFRAME
280
     0
  9
$REALWORLDSCALE
290
     1
  9
$INTERFERECOLOR
 62
     1
  9
$INTERFEREOBJVS
345
A54
  9
$INTERFEREVPVS
346
A51
  9
$CSHADOW
280
     0
  9
$SHADOWPLANELOCATION
 40
0.0
  0
ENDSEC
  0
SECTION
  2
CLASSES
  0
CLASS
  1
ACDBDICTIONARYWDFLT
  2
AcDbDictionaryWithDefault
  3
ObjectDBX Classes
 90
        0
 91
        1
280
     0
281
     0
  0
CLASS
  1
PLOTSETTINGS
  2
AcDbPlotSettings
  3
ObjectDBX Classes
 90
        0
 91
        1
280
     0
281
     0
  0
CLASS
  1
MATERIAL
  2
AcDbMaterial
  3
ObjectDBX Classes
 90
     1153
 91
        3
280
     0
281
     0
  0
CLASS
  1
VISUALSTYLE
  2
AcDbVisualStyle
  3
ObjectDBX Classes
 90
     4095
 91
       24
280
     0
281
     0
  0
CLASS
  1
TABLESTYLE
  2
AcDbTableStyle
  3
ObjectDBX Classes
 90
     4095
 91
        1
280
     0
281
     0
  0
CLASS
  1
SCALE
  2
AcDbScale
  3
ObjectDBX Classes
 90
     1153
 91
       17
280
     0
281
     0
  0
CLASS
  1
MLEADERSTYLE
  2
AcDbMLeaderStyle
  3
ACDB_MLEADERSTYLE_CLASS
 90
     4095
 91
        1
280
     0
281
     0
  0
CLASS
  1
ACDBSECTIONVIEWSTYLE
  2
AcDbSectionViewStyle
  3
ObjectDBX Classes
 90
     1025
 91
        1
280
     0
281
     0
  0
CLASS
  1
ACDBDETAILVIEWSTYLE
  2
AcDbDetailViewStyle
  3
ObjectDBX Classes
 90
     1025
 91
        1
280
     0
281
     0
  0
CLASS
  1
DICTIONARYVAR
  2
AcDbDictionaryVar
  3
ObjectDBX Classes
 90
        0
 91
       27
280
     0
281
     0
  0
CLASS
  1
SORTENTSTABLE
  2
AcDbSortentsTable
  3
ObjectDBX Classes
 90
        0
 91
        2
280
     0
281
     0
  0
CLASS
  1
CELLSTYLEMAP
  2
AcDbCellStyleMap
  3
ObjectDBX Classes
 90
     1152
 91
        2
280
     0
281
     0
  0
ENDSEC
  0
SECTION
  2
TABLES
  0
TABLE
  2
VPORT
  5
8
330
0
100
AcDbSymbolTable
 70
     1
  0
VPORT
  5
A19
330
8
100
AcDbSymbolTableRecord
100
AcDbViewportTableRecord
  2
*Active
 70
     0
 10
0.0
 20
0.0
 11
1.0
 21
1.0
 12
283.0870762744131
 22
196.7511014190666
 13
0.0
 23
0.0
 14
168.0
 24
168.0
 15
0.0
 25
0.0
 16
0.0
 26
0.0
 36
1.0
 17
0.0
 27
0.0
 37
0.0
 40
421.4997746061617
 41
1.422799422799422
 42
50.0
 43
0.0
 44
0.0
 50
0.0
 51
0.0
 71
     0
 72
   100
 73
     1
 74
     0
 75
     0
 76
     0
 77
     0
 78
     1
281
     0
 65
     1
110
0.0
120
0.0
130
0.0
111
1.0
121
0.0
131
0.0
112
0.0
122
1.0
132
0.0
 79
     0
146
0.0
348
A50
 60
     3
 61
     5
292
     1
282
     1
141
0.0
142
0.0
 63
   250
421
  3355443
1001
ACAD_NAV_VCDISPLAY
1070
     3
  0
ENDTAB
  0
TABLE
  2
LTYPE
  5
5
330
0
100
AcDbSymbolTable
 70
     4
  0
LTYPE
  5
14
330
5
100
AcDbSymbolTableRecord
100
AcDbLinetypeTableRecord
  2
BYBLOCK
 70
     0
  3

 72
    65
 73
     0
 40
0.0
  0
LTYPE
  5
15
330
5
100
AcDbSymbolTableRecord
100
AcDbLinetypeTableRecord
  2
BYLAYER
 70
     0
  3

 72
    65
 73
     0
 40
0.0
  0
LTYPE
  5
16
330
5
100
AcDbSymbolTableRecord
100
AcDbLinetypeTableRecord
  2
CONTINUOUS
 70
     0
  3
Solid line
 72
    65
 73
     0
 40
0.0
  0
LTYPE
  5
6E
330
5
100
AcDbSymbolTableRecord
100
AcDbLinetypeTableRecord
  2
CENTER
 70
     0
  3
____ _ ____ _ ____ _ ____ _ ____ _ ____ _ ____ 
 72
    65
 73
     4
 40
2.0
 49
1.25
 74
     0
 49
-0.25
 74
     0
 49
0.25
 74
     0
 49
-0.25
 74
     0
  0
LTYPE
  5
6F
330
5
100
AcDbSymbolTableRecord
100
AcDbLinetypeTableRecord
  2
HIDDEN
 70
     0
  3
__ __ __ __ __ __ __ __ __ __ __ __ __ __ __ __
 72
    65
 73
     2
 40
0.375
 49
0.25
 74
     0
 49
-0.125
 74
     0
  0
ENDTAB
  0
TABLE
  2
LAYER
  5
2
102
{ACAD_XDICTIONARY
360
AEE
102
}
330
0
100
AcDbSymbolTable
 70
     9
  0
LAYER
  5
F
102
{ACAD_XDICTIONARY
360
A89
102
}
330
2
100
AcDbSymbolTableRecord
100
AcDbLayerTableRecord
  2
0
 70
     0
 62
     7
  6
CONTINUOUS
370
    -3
390
2C1
347
A42
348
0
  0
LAYER
  5
71
102
{ACAD_XDICTIONARY
360
A8D
102
}
330
2
100
AcDbSymbolTableRecord
100
AcDbLayerTableRecord
  2
MEASURE
 70
     0
 62
     9
  6
CONTINUOUS
370
    -3
390
2C1
347
A42
348
0
  0
LAYER
  5
72
330
2
100
AcDbSymbolTableRecord
100
AcDbLayerTableRecord
  2
DEFPOINTS
 70
     0
 62
     7
  6
CONTINUOUS
290
     0
370
    -3
390
2C1
347
A42
348
0
  0
LAYER
  5
74
102
{ACAD_XDICTIONARY
360
A91
102
}
330
2
100
AcDbSymbolTableRecord
100
AcDbLayerTableRecord
  2
CENTER
 70
     0
 62
     9
  6
CENTER
370
    -3
390
2C1
347
A42
348
0
  0
ENDTAB
  0
TABLE
  2
STYLE
  5
3
330
0
100
AcDbSymbolTable
 70
     9
  0
STYLE
  5
10
330
3
100
AcDbSymbolTableRecord
100
AcDbTextStyleTableRecord
  2
STANDARD
 70
     0
 40
0.0
 41
0.8
 50
0.0
 71
     0
 42
84.17508417508416
  3
TXT
  4
bigfont.shx
  0
STYLE
  5
63
330
3
100
AcDbSymbolTableRecord
100
AcDbTextStyleTableRecord
  2
AD-STANDARD
 70
     0
 40
0.0
 41
0.8
 50
0.0
 71
     0
 42
3.5
  3
C:\Program Files\AutoCAD LT\romans.shx
  4
bigfont.shx
  0
ENDTAB
  0
TABLE
  2
VIEW
  5
6
330
0
100
AcDbSymbolTable
 70
     8
  0
ENDTAB
  0
TABLE
  2
UCS
  5
7
330
0
100
AcDbSymbolTable
 70
     0
  0
ENDTAB
  0
TABLE
  2
APPID
  5
9
330
0
100
AcDbSymbolTable
 70
     8
  0
APPID
  5
11
330
9
100
AcDbSymbolTableRecord
100
AcDbRegAppTableRecord
  2
ACAD
 70
     0
  0
APPID
  5
22A
330
9
100
AcDbSymbolTableRecord
100
AcDbRegAppTableRecord
  2
CONTENTTABDATA
 70
     0
  0
APPID
  5
22B
330
9
100
AcDbSymbolTableRecord
100
AcDbRegAppTableRecord
  2
CONTENTCURRENTTAB
 70
     0
  0
APPID
  5
232
330
9
100
AcDbSymbolTableRecord
100
AcDbRegAppTableRecord
  2
CONTENTBLOCKDESCRIPTION
 70
     0
  0
APPID
  5
233
330
9
100
AcDbSymbolTableRecord
100
AcDbRegAppTableRecord
  2
CONTENTBLOCKICON
 70
     0
  0
APPID
  5
454
330
9
100
AcDbSymbolTableRecord
100
AcDbRegAppTableRecord
  2
Sigma
 70
     0
  0
APPID
  5
455
330
9
100
AcDbSymbolTableRecord
100
AcDbRegAppTableRecord
  2
KCAD_DIM_EXT
 70
     0
  0
APPID
  5
AF3
330
9
100
AcDbSymbolTableRecord
100
AcDbRegAppTableRecord
  2
ACAD_NAV_VCDISPLAY
 70
     0
  0
ENDTAB
  0
TABLE
  2
DIMSTYLE
  5
A
330
0
100
AcDbSymbolTable
 70
     5
100
AcDbDimStyleTable
 71
     1
340
68
  0
DIMSTYLE
105
1D
330
A
100
AcDbSymbolTableRecord
100
AcDbDimStyleTableRecord
  2
STANDARD
 70
     0
340
10
  0
DIMSTYLE
105
68
102
{ACAD_REACTORS
330
86A
330
877
330
884
330
891
330
89E
330
8AD
330
8BA
330
8C7
330
8D4
330
8FE
330
B9F
102
}
330
A
100
AcDbSymbolTableRecord
100
AcDbDimStyleTableRecord
  2
AD-STANDARD
 70
     0
 41
2.5
 42
1.0
 44
2.0
 73
     0
 74
     0
 77
     1
 78
     8
140
3.5
141
-2.0
147
0.5
172
     1
176
     9
177
     9
178
     2
284
     8
340
63
  0
ENDTAB
  0
TABLE
  2
BLOCK_RECORD
  5
1
330
0
100
AcDbSymbolTable
 70
    18
  0
BLOCK_RECORD
  5
1A
102
{ACAD_XDICTIONARY
360
B33
102
}
330
1
100
AcDbSymbolTableRecord
100
AcDbBlockTableRecord
  2
*MODEL_SPACE
340
2C4
 70
     0
280
     1
281
     0
  0
BLOCK_RECORD
  5
17
330
1
100
AcDbSymbolTableRecord
100
AcDbBlockTableRecord
  2
*PAPER_SPACE
340
2C5
 70
     0
280
     1
281
     0
  0
BLOCK_RECORD
  5
86B
330
1
100
AcDbSymbolTableRecord
100
AcDbBlockTableRecord
  2
*D1
340
0
 70
     0
280
     1
281
     0
  0
BLOCK_RECORD
  5
878
330
1
100
AcDbSymbolTableRecord
100
AcDbBlockTableRecord
  2
*D2
340
0
 70
     0
280
     1
281
     0
  0
BLOCK_RECORD
  5
885
330
1
100
AcDbSymbolTableRecord
100
AcDbBlockTableRecord
  2
*D3
340
0
 70
     0
280
     1
281
     0
  0
BLOCK_RECORD
  5
892
330
1
100
AcDbSymbolTableRecord
100
AcDbBlockTableRecord
  2
*D4
340
0
 70
     0
280
     1
281
     0
  0
BLOCK_RECORD
  5
89F
330
1
100
AcDbSymbolTableRecord
100
AcDbBlockTableRecord
  2
*D5
340
0
 70
     0
280
     1
281
     0
  0
BLOCK_RECORD
  5
8AE
330
1
100
AcDbSymbolTableRecord
100
AcDbBlockTableRecord
  2
*D6
340
0
 70
     0
280
     1
281
     0
  0
BLOCK_RECORD
  5
8BB
330
1
100
AcDbSymbolTableRecord
100
AcDbBlockTableRecord
  2
*D7
340
0
 70
     0
280
     1
281
     0
  0
BLOCK_RECORD
  5
8C8
330
1
100
AcDbSymbolTableRecord
100
AcDbBlockTableRecord
  2
*D8
340
0
 70
     0
280
     1
281
     0
  0
BLOCK_RECORD
  5
8D5
330
1
100
AcDbSymbolTableRecord
100
AcDbBlockTableRecord
  2
*D9
340
0
 70
     0
280
     1
281
     0
  0
BLOCK_RECORD
  5
8FF
330
1
100
AcDbSymbolTableRecord
100
AcDbBlockTableRecord
  2
*D10
340
0
 70
     0
280
     1
281
     0
  0
BLOCK_RECORD
  5
9C7
330
1
100
AcDbSymbolTableRecord
100
AcDbBlockTableRecord
  2
*D13
340
0
 70
     0
280
     1
281
     0
  0
BLOCK_RECORD
  5
9D4
330
1
100
AcDbSymbolTableRecord
100
AcDbBlockTableRecord
  2
*D14
340
0
 70
     0
280
     1
281
     0
  0
BLOCK_RECORD
  5
B8C
330
1
100
AcDbSymbolTableRecord
100
AcDbBlockTableRecord
  2
*D16
340
0
 70
     0
280
     1
281
     0
  0
BLOCK_RECORD
  5
BA0
330
1
100
AcDbSymbolTableRecord
100
AcDbBlockTableRecord
  2
*D17
340
0
 70
     0
280
     1
281
     0
  0
ENDTAB
  0
ENDSEC
  0
SECTION
  2
BLOCKS
  0
BLOCK
  5
1B
330
1A
100
AcDbEntity
  8
0
100
AcDbBlockBegin
  2
*MODEL_SPACE
 70
     0
 10
0.0
 20
0.0
 30
0.0
  3
*MODEL_SPACE
  1

  0
ENDBLK
  5
1C
330
1A
100
AcDbEntity
  8
0
100
AcDbBlockEnd
  0
BLOCK
  5
18
330
17
100
AcDbEntity
 67
     1
  8
0
100
AcDbBlockBegin
  2
*PAPER_SPACE
 70
     0
 10
0.0
 20
0.0
 30
0.0
  3
*PAPER_SPACE
  1

  0
ENDBLK
  5
19
330
17
100
AcDbEntity
 67
     1
  8
0
100
AcDbBlockEnd
  0
BLOCK
  5
875
330
86B
100
AcDbEntity
  8
0
100
AcDbBlockBegin
  2
*D1
 70
     1
 10
0.0
 20
0.0
 30
0.0
  3
*D1
  1

  0
LINE
  5
86C
330
86B
100
AcDbEntity
  8
MEASURE
 62
     9
440
 16777216
370
    -2
100
AcDbLine
 10
239.9828559978093
 20
302.6848773937925
 30
0.0
 11
267.5481943758666
 21
302.6848773937925
 31
0.0
  0
LINE
  5
86D
330
86B
100
AcDbEntity
  8
MEASURE
 62
     9
440
 16777216
370
    -2
100
AcDbLine
 10
239.9828559978093
 20
210.6848773937926
 30
0.0
 11
267.5481943758666
 21
210.6848773937926
 31
0.0
  0
LINE
  5
86E
330
86B
100
AcDbEntity
  8
MEASURE
 62
     9
440
 16777216
370
    -2
100
AcDbLine
 10
265.5481943758666
 20
300.1848773937926
 30
0.0
 11
265.5481943758666
 21
213.1848773937926
 31
0.0
  0
SOLID
  5
86F
330
86B
100
AcDbEntity
  8
MEASURE
 62
     9
440
 16777216
100
AcDbTrace
 10
265.1315277091999
 20
300.1848773937926
 30
0.0
 11
265.9648610425333
 21
300.1848773937926
 31
0.0
 12
265.5481943758666
 22
302.6848773937925
 32
0.0
 13
265.5481943758666
 23
302.6848773937925
 33
0.0
  0
SOLID
  5
870
330
86B
100
AcDbEntity
  8
MEASURE
 62
     9
440
 16777216
100
AcDbTrace
 10
265.1315277091999
 20
213.1848773937926
 30
0.0
 11
265.9648610425333
 21
213.1848773937926
 31
0.0
 12
265.5481943758666
 22
210.6848773937926
 32
0.0
 13
265.5481943758666
 23
210.6848773937926
 33
0.0
  0
MTEXT
  5
871
330
86B
100
AcDbEntity
  8
MEASURE
 62
     2
440
 16777216
100
AcDbMText
 10
263.2981943758665
 20
256.6848773937926
 30
0.0
 40
3.5
 41
0.0
 46
0.0
 71
     5
 72
     1
  1
\A1;92
  7
AD-STANDARD
 11
0.0000000000000001
 21
1.0
 31
0.0
 73
     1
 44
1.0
  0
POINT
  5
872
330
86B
100
AcDbEntity
  8
DEFPOINTS
 62
     0
440
 16777216
100
AcDbPoint
 10
238.9828559978093
 20
302.6848773937925
 30
0.0
  0
POINT
  5
873
330
86B
100
AcDbEntity
  8
DEFPOINTS
 62
     0
440
 16777216
100
AcDbPoint
 10
238.9828559978093
 20
210.6848773937926
 30
0.0
  0
POINT
  5
874
330
86B
100
AcDbEntity
  8
DEFPOINTS
 62
     0
440
 16777216
100
AcDbPoint
 10
265.5481943758666
 20
210.6848773937926
 30
0.0
  0
ENDBLK
  5
876
330
86B
100
AcDbEntity
  8
0
100
AcDbBlockEnd
  0
BLOCK
  5
882
330
878
100
AcDbEntity
  8
0
100
AcDbBlockBegin
  2
*D2
 70
     1
 10
0.0
 20
0.0
 30
0.0
  3
*D2
  1

  0
LINE
  5
90B
330
878
100
AcDbEntity
  8
MEASURE
 62
     9
440
 16777216
370
    -2
100
AcDbLine
 10
132.4828559977893
 20
152.6848773937926
 30
0.0
 11
132.4828559977893
 21
179.9219528180927
 31
0.0
  0
LINE
  5
90C
330
878
100
AcDbEntity
  8
MEASURE
 62
     9
440
 16777216
370
    -2
100
AcDbLine
 10
244.4828559978093
 20
152.6848773937926
 30
0.0
 11
244.4828559978093
 21
179.9219528180927
 31
0.0
  0
LINE
  5
90D
330
878
100
AcDbEntity
  8
MEASURE
 62
     9
440
 16777216
370
    -2
100
AcDbLine
 10
134.9828559977892
 20
177.9219528180927
 30
0.0
 11
241.9828559978093
 21
177.9219528180927
 31
0.0
  0
SOLID
  5
90E
330
878
100
AcDbEntity
  8
MEASURE
 62
     9
440
 16777216
100
AcDbTrace
 10
134.9828559977892
 20
178.3386194847593
 30
0.0
 11
134.9828559977892
 21
177.505286151426
 31
0.0
 12
132.4828559977893
 22
177.9219528180927
 32
0.0
 13
132.4828559977893
 23
177.9219528180927
 33
0.0
  0
SOLID
  5
90F
330
878
100
AcDbEntity
  8
MEASURE
 62
     9
440
 16777216
100
AcDbTrace
 10
241.9828559978093
 20
178.3386194847593
 30
0.0
 11
241.9828559978093
 21
177.505286151426
 31
0.0
 12
244.4828559978093
 22
177.9219528180927
 32
0.0
 13
244.4828559978093
 23
177.9219528180927
 33
0.0
  0
MTEXT
  5
910
330
878
100
AcDbEntity
  8
MEASURE
 62
     2
440
 16777216
100
AcDbMText
 10
188.4828559977993
 20
180.1719528180927
 30
0.0
 40
3.5
 41
0.0
 46
0.0
 71
     5
 72
     1
  1
\A1;112
  7
AD-STANDARD
 73
     1
 44
1.0
  0
POINT
  5
911
330
878
100
AcDbEntity
  8
DEFPOINTS
 62
     0
440
 16777216
100
AcDbPoint
 10
132.4828559977893
 20
151.6848773937926
 30
0.0
  0
POINT
  5
912
330
878
100
AcDbEntity
  8
DEFPOINTS
 62
     0
440
 16777216
100
AcDbPoint
 10
244.4828559978093
 20
151.6848773937926
 30
0.0
  0
POINT
  5
913
330
878
100
AcDbEntity
  8
DEFPOINTS
 62
     0
440
 16777216
100
AcDbPoint
 10
244.4828559978093
 20
177.9219528180927
 30
0.0
  0
ENDBLK
  5
883
330
878
100
AcDbEntity
  8
0
100
AcDbBlockEnd
  0
BLOCK
  5
88F
330
885
100
AcDbEntity
  8
0
100
AcDbBlockBegin
  2
*D3
 70
     1
 10
0.0
 20
0.0
 30
0.0
  3
*D3
  1

  0
LINE
  5
886
330
885
100
AcDbEntity
  8
MEASURE
 62
     9
440
 16777216
370
    -2
100
AcDbLine
 10
145.9828559977893
 20
104.9160055318826
 30
0.0
 11
145.9828559977893
 21
91.12414509772262
 31
0.0
  0
LINE
  5
887
330
885
100
AcDbEntity
  8
MEASURE
 62
     9
440
 16777216
370
    -2
100
AcDbLine
 10
188.4828559978093
 20
104.9160055318826
 30
0.0
 11
188.4828559978093
 21
91.12414509772262
 31
0.0
  0
LINE
  5
888
330
885
100
AcDbEntity
  8
MEASURE
 62
     9
440
 16777216
370
    -2
100
AcDbLine
 10
148.4828559977892
 20
93.12414509772263
 30
0.0
 11
185.9828559978092
 21
93.12414509772263
 31
0.0
  0
SOLID
  5
889
330
885
100
AcDbEntity
  8
MEASURE
 62
     9
440
 16777216
100
AcDbTrace
 10
148.4828559977892
 20
93.5408117643893
 30
0.0
 11
148.4828559977892
 21
92.70747843105596
 31
0.0
 12
145.9828559977893
 22
93.12414509772263
 32
0.0
 13
145.9828559977893
 23
93.12414509772263
 33
0.0
  0
SOLID
  5
88A
330
885
100
AcDbEntity
  8
MEASURE
 62
     9
440
 16777216
100
AcDbTrace
 10
185.9828559978092
 20
93.5408117643893
 30
0.0
 11
185.9828559978092
 21
92.70747843105596
 31
0.0
 12
188.4828559978093
 22
93.12414509772263
 32
0.0
 13
188.4828559978093
 23
93.12414509772263
 33
0.0
  0
MTEXT
  5
88B
330
885
100
AcDbEntity
  8
MEASURE
 62
     2
440
 16777216
100
AcDbMText
 10
167.2328559977993
 20
95.37414509772263
 30
0.0
 40
3.5
 41
0.0
 46
0.0
 71
     5
 72
     1
  1
\A1;42.5
  7
AD-STANDARD
 73
     1
 44
1.0
  0
POINT
  5
88C
330
885
100
AcDbEntity
  8
DEFPOINTS
 62
     0
440
 16777216
100
AcDbPoint
 10
145.9828559977893
 20
105.9160055318826
 30
0.0
  0
POINT
  5
88D
330
885
100
AcDbEntity
  8
DEFPOINTS
 62
     0
440
 16777216
100
AcDbPoint
 10
188.4828559978093
 20
105.9160055318826
 30
0.0
  0
POINT
  5
88E
330
885
100
AcDbEntity
  8
DEFPOINTS
 62
     0
440
 16777216
100
AcDbPoint
 10
188.4828559978093
 20
93.12414509772263
 30
0.0
  0
ENDBLK
  5
890
330
885
100
AcDbEntity
  8
0
100
AcDbBlockEnd
  0
BLOCK
  5
89C
330
892
100
AcDbEntity
  8
0
100
AcDbBlockBegin
  2
*D4
 70
     1
 10
0.0
 20
0.0
 30
0.0
  3
*D4
  1

  0
LINE
  5
893
330
892
100
AcDbEntity
  8
MEASURE
 62
     9
440
 16777216
370
    -2
100
AcDbLine
 10
188.4828559978093
 20
104.9160055318826
 30
0.0
 11
188.4828559978093
 21
91.12414509772262
 31
0.0
  0
LINE
  5
894
330
892
100
AcDbEntity
  8
MEASURE
 62
     9
440
 16777216
370
    -2
100
AcDbLine
 10
230.9828559978093
 20
104.9160055318826
 30
0.0
 11
230.9828559978093
 21
91.12414509772262
 31
0.0
  0
LINE
  5
895
330
892
100
AcDbEntity
  8
MEASURE
 62
     9
440
 16777216
370
    -2
100
AcDbLine
 10
190.9828559978093
 20
93.12414509772263
 30
0.0
 11
228.4828559978093
 21
93.12414509772263
 31
0.0
  0
SOLID
  5
896
330
892
100
AcDbEntity
  8
MEASURE
 62
     9
440
 16777216
100
AcDbTrace
 10
190.9828559978093
 20
93.5408117643893
 30
0.0
 11
190.9828559978093
 21
92.70747843105596
 31
0.0
 12
188.4828559978093
 22
93.12414509772263
 32
0.0
 13
188.4828559978093
 23
93.12414509772263
 33
0.0
  0
SOLID
  5
897
330
892
100
AcDbEntity
  8
MEASURE
 62
     9
440
 16777216
100
AcDbTrace
 10
228.4828559978093
 20
93.5408117643893
 30
0.0
 11
228.4828559978093
 21
92.70747843105596
 31
0.0
 12
230.9828559978093
 22
93.12414509772263
 32
0.0
 13
230.9828559978093
 23
93.12414509772263
 33
0.0
  0
MTEXT
  5
898
330
892
100
AcDbEntity
  8
MEASURE
 62
     2
440
 16777216
100
AcDbMText
 10
209.7328559978093
 20
95.37414509772263
 30
0.0
 40
3.5
 41
0.0
 46
0.0
 71
     5
 72
     1
  1
\A1;42.5
  7
AD-STANDARD
 73
     1
 44
1.0
  0
POINT
  5
899
330
892
100
AcDbEntity
  8
DEFPOINTS
 62
     0
440
 16777216
100
AcDbPoint
 10
188.4828559978093
 20
105.9160055318826
 30
0.0
  0
POINT
  5
89A
330
892
100
AcDbEntity
  8
DEFPOINTS
 62
     0
440
 16777216
100
AcDbPoint
 10
230.9828559978093
 20
105.9160055318826
 30
0.0
  0
POINT
  5
89B
330
892
100
AcDbEntity
  8
DEFPOINTS
 62
     0
440
 16777216
100
AcDbPoint
 10
230.9828559978093
 20
93.12414509772263
 30
0.0
  0
ENDBLK
  5
89D
330
892
100
AcDbEntity
  8
0
100
AcDbBlockEnd
  0
BLOCK
  5
8A9
330
89F
100
AcDbEntity
  8
0
100
AcDbBlockBegin
  2
*D5
 70
     1
 10
0.0
 20
0.0
 30
0.0
  3
*D5
  1

  0
LINE
  5
8A0
330
89F
100
AcDbEntity
  8
MEASURE
 62
     9
440
 16777216
370
    -2
100
AcDbLine
 10
145.9828559977893
 20
103.9160055318826
 30
0.0
 11
145.9828559977893
 21
79.00894580530473
 31
0.0
  0
LINE
  5
8A1
330
89F
100
AcDbEntity
  8
MEASURE
 62
     9
440
 16777216
370
    -2
100
AcDbLine
 10
230.9828559978093
 20
104.9160055318826
 30
0.0
 11
230.9828559978093
 21
79.00894580530473
 31
0.0
  0
LINE
  5
8A2
330
89F
100
AcDbEntity
  8
MEASURE
 62
     9
440
 16777216
370
    -2
100
AcDbLine
 10
148.4828559977892
 20
81.00894580530473
 30
0.0
 11
228.4828559978093
 21
81.00894580530473
 31
0.0
  0
SOLID
  5
8A3
330
89F
100
AcDbEntity
  8
MEASURE
 62
     9
440
 16777216
100
AcDbTrace
 10
148.4828559977892
 20
81.42561247197141
 30
0.0
 11
148.4828559977892
 21
80.59227913863805
 31
0.0
 12
145.9828559977893
 22
81.00894580530473
 32
0.0
 13
145.9828559977893
 23
81.00894580530473
 33
0.0
  0
SOLID
  5
8A4
330
89F
100
AcDbEntity
  8
MEASURE
 62
     9
440
 16777216
100
AcDbTrace
 10
228.4828559978093
 20
81.42561247197141
 30
0.0
 11
228.4828559978093
 21
80.59227913863805
 31
0.0
 12
230.9828559978093
 22
81.00894580530473
 32
0.0
 13
230.9828559978093
 23
81.00894580530473
 33
0.0
  0
MTEXT
  5
8A5
330
89F
100
AcDbEntity
  8
MEASURE
 62
     2
440
 16777216
100
AcDbMText
 10
188.4828559977993
 20
83.25894580530473
 30
0.0
 40
3.5
 41
0.0
 46
0.0
 71
     5
 72
     1
  1
\A1;85
  7
AD-STANDARD
 73
     1
 44
1.0
  0
POINT
  5
8A6
330
89F
100
AcDbEntity
  8
DEFPOINTS
 62
     0
440
 16777216
100
AcDbPoint
 10
145.9828559977893
 20
104.9160055318826
 30
0.0
  0
POINT
  5
8A7
330
89F
100
AcDbEntity
  8
DEFPOINTS
 62
     0
440
 16777216
100
AcDbPoint
 10
230.9828559978093
 20
105.9160055318826
 30
0.0
  0
POINT
  5
8A8
330
89F
100
AcDbEntity
  8
DEFPOINTS
 62
     0
440
 16777216
100
AcDbPoint
 10
230.9828559978093
 20
81.00894580530473
 30
0.0
  0
ENDBLK
  5
8AA
330
89F
100
AcDbEntity
  8
0
100
AcDbBlockEnd
  0
BLOCK
  5
8B8
330
8AE
100
AcDbEntity
  8
0
100
AcDbBlockBegin
  2
*D6
 70
     1
 10
0.0
 20
0.0
 30
0.0
  3
*D6
  1

  0
LINE
  5
8AF
330
8AE
100
AcDbEntity
  8
MEASURE
 62
     9
440
 16777216
370
    -2
100
AcDbLine
 10
343.4828559978123
 20
161.6848773937926
 30
0.0
 11
289.626572666587
 21
161.6848773937926
 31
0.0
  0
LINE
  5
8B0
330
8AE
100
AcDbEntity
  8
MEASURE
 62
     9
440
 16777216
370
    -2
100
AcDbLine
 10
343.4828559978123
 20
121.6848773937926
 30
0.0
 11
289.626572666587
 21
121.6848773937926
 31
0.0
  0
LINE
  5
8B1
330
8AE
100
AcDbEntity
  8
MEASURE
 62
     9
440
 16777216
370
    -2
100
AcDbLine
 10
291.626572666587
 20
159.1848773937926
 30
0.0
 11
291.626572666587
 21
124.1848773937926
 31
0.0
  0
SOLID
  5
8B2
330
8AE
100
AcDbEntity
  8
MEASURE
 62
     9
440
 16777216
100
AcDbTrace
 10
291.2099059999203
 20
159.1848773937926
 30
0.0
 11
292.0432393332537
 21
159.1848773937926
 31
0.0
 12
291.626572666587
 22
161.6848773937926
 32
0.0
 13
291.626572666587
 23
161.6848773937926
 33
0.0
  0
SOLID
  5
8B3
330
8AE
100
AcDbEntity
  8
MEASURE
 62
     9
440
 16777216
100
AcDbTrace
 10
291.2099059999203
 20
124.1848773937926
 30
0.0
 11
292.0432393332537
 21
124.1848773937926
 31
0.0
 12
291.626572666587
 22
121.6848773937926
 32
0.0
 13
291.626572666587
 23
121.6848773937926
 33
0.0
  0
MTEXT
  5
8B4
330
8AE
100
AcDbEntity
  8
MEASURE
 62
     2
440
 16777216
100
AcDbMText
 10
289.376572666587
 20
141.6848773937926
 30
0.0
 40
3.5
 41
0.0
 46
0.0
 71
     5
 72
     1
  1
\A1;40
  7
AD-STANDARD
 11
0.0000000000000001
 21
1.0
 31
0.0
 73
     1
 44
1.0
  0
POINT
  5
8B5
330
8AE
100
AcDbEntity
  8
DEFPOINTS
 62
     0
440
 16777216
100
AcDbPoint
 10
344.4828559978123
 20
161.6848773937926
 30
0.0
  0
POINT
  5
8B6
330
8AE
100
AcDbEntity
  8
DEFPOINTS
 62
     0
440
 16777216
100
AcDbPoint
 10
344.4828559978123
 20
121.6848773937926
 30
0.0
  0
POINT
  5
8B7
330
8AE
100
AcDbEntity
  8
DEFPOINTS
 62
     0
440
 16777216
100
AcDbPoint
 10
291.626572666587
 20
121.6848773937926
 30
0.0
  0
ENDBLK
  5
8B9
330
8AE
100
AcDbEntity
  8
0
100
AcDbBlockEnd
  0
BLOCK
  5
8C5
330
8BB
100
AcDbEntity
  8
0
100
AcDbBlockBegin
  2
*D7
 70
     1
 10
0.0
 20
0.0
 30
0.0
  3
*D7
  1

  0
LINE
  5
8BC
330
8BB
100
AcDbEntity
  8
MEASURE
 62
     9
440
 16777216
370
    -2
100
AcDbLine
 10
325.4828559978123
 20
141.6848773937926
 30
0.0
 11
309.5380795034476
 21
141.6848773937926
 31
0.0
  0
LINE
  5
8BD
330
8BB
100
AcDbEntity
  8
MEASURE
 62
     9
440
 16777216
370
    -2
100
AcDbLine
 10
352.4828559978123
 20
101.6848773937926
 30
0.0
 11
309.5380795034476
 21
101.6848773937926
 31
0.0
  0
LINE
  5
8BE
330
8BB
100
AcDbEntity
  8
MEASURE
 62
     9
440
 16777216
370
    -2
100
AcDbLine
 10
311.5380795034476
 20
139.1848773937927
 30
0.0
 11
311.5380795034476
 21
104.1848773937926
 31
0.0
  0
SOLID
  5
8BF
330
8BB
100
AcDbEntity
  8
MEASURE
 62
     9
440
 16777216
100
AcDbTrace
 10
311.1214128367809
 20
139.1848773937927
 30
0.0
 11
311.9547461701143
 21
139.1848773937927
 31
0.0
 12
311.5380795034476
 22
141.6848773937926
 32
0.0
 13
311.5380795034476
 23
141.6848773937926
 33
0.0
  0
SOLID
  5
8C0
330
8BB
100
AcDbEntity
  8
MEASURE
 62
     9
440
 16777216
100
AcDbTrace
 10
311.1214128367809
 20
104.1848773937926
 30
0.0
 11
311.9547461701142
 21
104.1848773937926
 31
0.0
 12
311.5380795034476
 22
101.6848773937926
 32
0.0
 13
311.5380795034476
 23
101.6848773937926
 33
0.0
  0
MTEXT
  5
8C1
330
8BB
100
AcDbEntity
  8
MEASURE
 62
     2
440
 16777216
100
AcDbMText
 10
309.2880795034475
 20
121.6848773937927
 30
0.0
 40
3.5
 41
0.0
 46
0.0
 71
     5
 72
     1
  1
\A1;40
  7
AD-STANDARD
 11
0.0000000000000001
 21
1.0
 31
0.0
 73
     1
 44
1.0
  0
POINT
  5
8C2
330
8BB
100
AcDbEntity
  8
DEFPOINTS
 62
     0
440
 16777216
100
AcDbPoint
 10
326.4828559978123
 20
141.6848773937926
 30
0.0
  0
POINT
  5
8C3
330
8BB
100
AcDbEntity
  8
DEFPOINTS
 62
     0
440
 16777216
100
AcDbPoint
 10
353.4828559978123
 20
101.6848773937926
 30
0.0
  0
POINT
  5
8C4
330
8BB
100
AcDbEntity
  8
DEFPOINTS
 62
     0
440
 16777216
100
AcDbPoint
 10
311.5380795034476
 20
101.6848773937926
 30
0.0
  0
ENDBLK
  5
8C6
330
8BB
100
AcDbEntity
  8
0
100
AcDbBlockEnd
  0
BLOCK
  5
8D2
330
8C8
100
AcDbEntity
  8
0
100
AcDbBlockBegin
  2
*D8
 70
     1
 10
0.0
 20
0.0
 30
0.0
  3
*D8
  1

  0
LINE
  5
8EB
330
8C8
100
AcDbEntity
  8
MEASURE
 62
     9
440
 16777216
370
    -2
100
AcDbLine
 10
353.4828559978123
 20
100.6848773937926
 30
0.0
 11
353.4828559978123
 21
88.55416945003986
 31
0.0
  0
LINE
  5
8EC
330
8C8
100
AcDbEntity
  8
MEASURE
 62
     9
440
 16777216
370
    -2
100
AcDbLine
 10
373.4828559978093
 20
95.50562817339264
 30
0.0
 11
373.4828559978093
 21
88.55416945003986
 31
0.0
  0
LINE
  5
8ED
330
8C8
100
AcDbEntity
  8
MEASURE
 62
     9
440
 16777216
370
    -2
100
AcDbLine
 10
355.9828559978123
 20
90.55416945003985
 30
0.0
 11
370.9828559978093
 21
90.55416945003985
 31
0.0
  0
SOLID
  5
8EE
330
8C8
100
AcDbEntity
  8
MEASURE
 62
     9
440
 16777216
100
AcDbTrace
 10
355.9828559978123
 20
90.97083611670653
 30
0.0
 11
355.9828559978123
 21
90.13750278337317
 31
0.0
 12
353.4828559978123
 22
90.55416945003985
 32
0.0
 13
353.4828559978123
 23
90.55416945003985
 33
0.0
  0
SOLID
  5
8EF
330
8C8
100
AcDbEntity
  8
MEASURE
 62
     9
440
 16777216
100
AcDbTrace
 10
370.9828559978093
 20
90.97083611670653
 30
0.0
 11
370.9828559978093
 21
90.13750278337317
 31
0.0
 12
373.4828559978093
 22
90.55416945003985
 32
0.0
 13
373.4828559978093
 23
90.55416945003985
 33
0.0
  0
MTEXT
  5
8F0
330
8C8
100
AcDbEntity
  8
MEASURE
 62
     2
440
 16777216
100
AcDbMText
 10
363.4828559978108
 20
92.80416945003985
 30
0.0
 40
3.5
 41
0.0
 46
0.0
 71
     5
 72
     1
  1
\A1;20
  7
AD-STANDARD
 73
     1
 44
1.0
  0
POINT
  5
8F1
330
8C8
100
AcDbEntity
  8
DEFPOINTS
 62
     0
440
 16777216
100
AcDbPoint
 10
353.4828559978123
 20
101.6848773937926
 30
0.0
  0
POINT
  5
8F2
330
8C8
100
AcDbEntity
  8
DEFPOINTS
 62
     0
440
 16777216
100
AcDbPoint
 10
373.4828559978093
 20
96.50562817339263
 30
0.0
  0
POINT
  5
8F3
330
8C8
100
AcDbEntity
  8
DEFPOINTS
 62
     0
440
 16777216
100
AcDbPoint
 10
373.4828559978093
 20
90.55416945003985
 30
0.0
  0
ENDBLK
  5
8D3
330
8C8
100
AcDbEntity
  8
0
100
AcDbBlockEnd
  0
BLOCK
  5
8DF
330
8D5
100
AcDbEntity
  8
0
100
AcDbBlockBegin
  2
*D9
 70
     1
 10
0.0
 20
0.0
 30
0.0
  3
*D9
  1

  0
LINE
  5
8E2
330
8D5
100
AcDbEntity
  8
MEASURE
 62
     9
440
 16777216
370
    -2
100
AcDbLine
 10
373.4828559978093
 20
95.50562817339264
 30
0.0
 11
373.4828559978093
 21
88.55416945003986
 31
0.0
  0
LINE
  5
8E3
330
8D5
100
AcDbEntity
  8
MEASURE
 62
     9
440
 16777216
370
    -2
100
AcDbLine
 10
393.4828559978093
 20
100.6848773937926
 30
0.0
 11
393.4828559978093
 21
88.55416945003986
 31
0.0
  0
LINE
  5
8E4
330
8D5
100
AcDbEntity
  8
MEASURE
 62
     9
440
 16777216
370
    -2
100
AcDbLine
 10
375.9828559978093
 20
90.55416945003985
 30
0.0
 11
390.9828559978093
 21
90.55416945003985
 31
0.0
  0
SOLID
  5
8E5
330
8D5
100
AcDbEntity
  8
MEASURE
 62
     9
440
 16777216
100
AcDbTrace
 10
375.9828559978093
 20
90.97083611670653
 30
0.0
 11
375.9828559978093
 21
90.13750278337317
 31
0.0
 12
373.4828559978093
 22
90.55416945003985
 32
0.0
 13
373.4828559978093
 23
90.55416945003985
 33
0.0
  0
SOLID
  5
8E6
330
8D5
100
AcDbEntity
  8
MEASURE
 62
     9
440
 16777216
100
AcDbTrace
 10
390.9828559978093
 20
90.97083611670653
 30
0.0
 11
390.9828559978093
 21
90.13750278337317
 31
0.0
 12
393.4828559978093
 22
90.55416945003985
 32
0.0
 13
393.4828559978093
 23
90.55416945003985
 33
0.0
  0
MTEXT
  5
8E7
330
8D5
100
AcDbEntity
  8
MEASURE
 62
     2
440
 16777216
100
AcDbMText
 10
383.4828559978093
 20
92.80416945003985
 30
0.0
 40
3.5
 41
0.0
 46
0.0
 71
     5
 72
     1
  1
\A1;20
  7
AD-STANDARD
 73
     1
 44
1.0
  0
POINT
  5
8E8
330
8D5
100
AcDbEntity
  8
DEFPOINTS
 62
     0
440
 16777216
100
AcDbPoint
 10
373.4828559978093
 20
96.50562817339263
 30
0.0
  0
POINT
  5
8E9
330
8D5
100
AcDbEntity
  8
DEFPOINTS
 62
     0
440
 16777216
100
AcDbPoint
 10
393.4828559978093
 20
101.6848773937926
 30
0.0
  0
POINT
  5
8EA
330
8D5
100
AcDbEntity
  8
DEFPOINTS
 62
     0
440
 16777216
100
AcDbPoint
 10
393.4828559978093
 20
90.55416945003985
 30
0.0
  0
ENDBLK
  5
8E0
330
8D5
100
AcDbEntity
  8
0
100
AcDbBlockEnd
  0
BLOCK
  5
909
330
8FF
100
AcDbEntity
  8
0
100
AcDbBlockBegin
  2
*D10
 70
     1
 10
0.0
 20
0.0
 30
0.0
  3
*D10
  1

  0
LINE
  5
900
330
8FF
100
AcDbEntity
  8
MEASURE
 62
     9
440
 16777216
370
    -2
100
AcDbLine
 10
134.9828559977894
 20
212.6848773937926
 30
0.0
 11
134.9828559977894
 21
194.2618351330286
 31
0.0
  0
LINE
  5
901
330
8FF
100
AcDbEntity
  8
MEASURE
 62
     9
440
 16777216
370
    -2
100
AcDbLine
 10
241.9828559978093
 20
212.6848773937926
 30
0.0
 11
241.9828559978093
 21
194.2618351330286
 31
0.0
  0
LINE
  5
902
330
8FF
100
AcDbEntity
  8
MEASURE
 62
     9
440
 16777216
370
    -2
100
AcDbLine
 10
137.4828559977894
 20
196.2618351330286
 30
0.0
 11
239.4828559978093
 21
196.2618351330286
 31
0.0
  0
SOLID
  5
903
330
8FF
100
AcDbEntity
  8
MEASURE
 62
     9
440
 16777216
100
AcDbTrace
 10
137.4828559977894
 20
196.6785017996953
 30
0.0
 11
137.4828559977894
 21
195.845168466362
 31
0.0
 12
134.9828559977894
 22
196.2618351330286
 32
0.0
 13
134.9828559977894
 23
196.2618351330286
 33
0.0
  0
SOLID
  5
904
330
8FF
100
AcDbEntity
  8
MEASURE
 62
     9
440
 16777216
100
AcDbTrace
 10
239.4828559978093
 20
196.6785017996953
 30
0.0
 11
239.4828559978093
 21
195.845168466362
 31
0.0
 12
241.9828559978093
 22
196.2618351330286
 32
0.0
 13
241.9828559978093
 23
196.2618351330286
 33
0.0
  0
MTEXT
  5
905
330
8FF
100
AcDbEntity
  8
MEASURE
 62
     2
440
 16777216
100
AcDbMText
 10
188.4828559977993
 20
198.5118351330286
 30
0.0
 40
3.5
 41
0.0
 46
0.0
 71
     5
 72
     1
  1
\A1;107
  7
AD-STANDARD
 73
     1
 44
1.0
  0
POINT
  5
906
330
8FF
100
AcDbEntity
  8
DEFPOINTS
 62
     0
440
 16777216
100
AcDbPoint
 10
134.9828559977894
 20
213.6848773937927
 30
0.0
  0
POINT
  5
907
330
8FF
100
AcDbEntity
  8
DEFPOINTS
 62
     0
440
 16777216
100
AcDbPoint
 10
241.9828559978093
 20
213.6848773937927
 30
0.0
  0
POINT
  5
908
330
8FF
100
AcDbEntity
  8
DEFPOINTS
 62
     0
440
 16777216
100
AcDbPoint
 10
241.9828559978093
 20
196.2618351330286
 30
0.0
  0
ENDBLK
  5
90A
330
8FF
100
AcDbEntity
  8
0
100
AcDbBlockEnd
  0
BLOCK
  5
9D1
330
9C7
100
AcDbEntity
  8
0
100
AcDbBlockBegin
  2
*D13
 70
     1
 10
0.0
 20
0.0
 30
0.0
  3
*D13
  1

  0
LINE
  5
9C8
330
9C7
100
AcDbEntity
  8
MEASURE
 62
     9
440
 16777216
370
    -2
100
AcDbLine
 10
244.4828559978093
 20
101.6848773937926
 30
0.0
 11
268.694588641144
 21
101.6848773937926
 31
0.0
  0
LINE
  5
9C9
330
9C7
100
AcDbEntity
  8
MEASURE
 62
     9
440
 16777216
370
    -2
100
AcDbLine
 10
249.4828559978113
 20
141.6848773937926
 30
0.0
 11
268.6945886411441
 21
141.6848773937926
 31
0.0
  0
LINE
  5
9CA
330
9C7
100
AcDbEntity
  8
MEASURE
 62
     9
440
 16777216
370
    -2
100
AcDbLine
 10
266.694588641144
 20
104.1848773937926
 30
0.0
 11
266.6945886411441
 21
139.1848773937926
 31
0.0
  0
SOLID
  5
9CB
330
9C7
100
AcDbEntity
  8
MEASURE
 62
     9
440
 16777216
100
AcDbTrace
 10
266.2779219744773
 20
104.1848773937926
 30
0.0
 11
267.1112553078107
 21
104.1848773937926
 31
0.0
 12
266.694588641144
 22
101.6848773937926
 32
0.0
 13
266.694588641144
 23
101.6848773937926
 33
0.0
  0
SOLID
  5
9CC
330
9C7
100
AcDbEntity
  8
MEASURE
 62
     9
440
 16777216
100
AcDbTrace
 10
266.2779219744774
 20
139.1848773937926
 30
0.0
 11
267.1112553078108
 21
139.1848773937926
 31
0.0
 12
266.6945886411441
 22
141.6848773937926
 32
0.0
 13
266.6945886411441
 23
141.6848773937926
 33
0.0
  0
MTEXT
  5
9CD
330
9C7
100
AcDbEntity
  8
MEASURE
 62
     2
440
 16777216
100
AcDbMText
 10
264.444588641144
 20
121.6848773937927
 30
0.0
 40
3.5
 41
0.0
 46
0.0
 71
     5
 72
     1
  1
\A1;40
  7
AD-STANDARD
 11
0.0000000000000001
 21
1.0
 31
0.0
 73
     1
 44
1.0
  0
POINT
  5
9CE
330
9C7
100
AcDbEntity
  8
DEFPOINTS
 62
     0
440
 16777216
100
AcDbPoint
 10
243.4828559978093
 20
101.6848773937926
 30
0.0
  0
POINT
  5
9CF
330
9C7
100
AcDbEntity
  8
DEFPOINTS
 62
     0
440
 16777216
100
AcDbPoint
 10
248.4828559978113
 20
141.6848773937926
 30
0.0
  0
POINT
  5
9D0
330
9C7
100
AcDbEntity
  8
DEFPOINTS
 62
     0
440
 16777216
100
AcDbPoint
 10
266.6945886411441
 20
141.6848773937926
 30
0.0
  0
ENDBLK
  5
9D2
330
9C7
100
AcDbEntity
  8
0
100
AcDbBlockEnd
  0
BLOCK
  5
9DE
330
9D4
100
AcDbEntity
  8
0
100
AcDbBlockBegin
  2
*D14
 70
     1
 10
0.0
 20
0.0
 30
0.0
  3
*D14
  1

  0
LINE
  5
9D5
330
9D4
100
AcDbEntity
  8
MEASURE
 62
     9
440
 16777216
370
    -2
100
AcDbLine
 10
234.9828559978093
 20
121.6848773937926
 30
0.0
 11
277.4358789698801
 21
121.6848773937926
 31
0.0
  0
LINE
  5
9D6
330
9D4
100
AcDbEntity
  8
MEASURE
 62
     9
440
 16777216
370
    -2
100
AcDbLine
 10
234.9828559978093
 20
161.6848773937926
 30
0.0
 11
277.4358789698801
 21
161.6848773937926
 31
0.0
  0
LINE
  5
9D7
330
9D4
100
AcDbEntity
  8
MEASURE
 62
     9
440
 16777216
370
    -2
100
AcDbLine
 10
275.4358789698801
 20
124.1848773937926
 30
0.0
 11
275.4358789698802
 21
159.1848773937926
 31
0.0
  0
SOLID
  5
9D8
330
9D4
100
AcDbEntity
  8
MEASURE
 62
     9
440
 16777216
100
AcDbTrace
 10
275.0192123032134
 20
124.1848773937926
 30
0.0
 11
275.8525456365468
 21
124.1848773937926
 31
0.0
 12
275.4358789698801
 22
121.6848773937926
 32
0.0
 13
275.4358789698801
 23
121.6848773937926
 33
0.0
  0
SOLID
  5
9D9
330
9D4
100
AcDbEntity
  8
MEASURE
 62
     9
440
 16777216
100
AcDbTrace
 10
275.0192123032135
 20
159.1848773937926
 30
0.0
 11
275.8525456365468
 21
159.1848773937926
 31
0.0
 12
275.4358789698802
 22
161.6848773937926
 32
0.0
 13
275.4358789698802
 23
161.6848773937926
 33
0.0
  0
MTEXT
  5
9DA
330
9D4
100
AcDbEntity
  8
MEASURE
 62
     2
440
 16777216
100
AcDbMText
 10
273.1858789698801
 20
141.6848773937926
 30
0.0
 40
3.5
 41
0.0
 46
0.0
 71
     5
 72
     1
  1
\A1;40
  7
AD-STANDARD
 11
0.0000000000000001
 21
1.0
 31
0.0
 73
     1
 44
1.0
  0
POINT
  5
9DB
330
9D4
100
AcDbEntity
  8
DEFPOINTS
 62
     0
440
 16777216
100
AcDbPoint
 10
233.9828559978093
 20
121.6848773937926
 30
0.0
  0
POINT
  5
9DC
330
9D4
100
AcDbEntity
  8
DEFPOINTS
 62
     0
440
 16777216
100
AcDbPoint
 10
233.9828559978093
 20
161.6848773937926
 30
0.0
  0
POINT
  5
9DD
330
9D4
100
AcDbEntity
  8
DEFPOINTS
 62
     0
440
 16777216
100
AcDbPoint
 10
275.4358789698802
 20
161.6848773937926
 30
0.0
  0
ENDBLK
  5
9DF
330
9D4
100
AcDbEntity
  8
0
100
AcDbBlockEnd
  0
BLOCK
  5
B8D
330
B8C
100
AcDbEntity
  8
0
100
AcDbBlockBegin
  2
*D16
 70
     1
 10
0.0
 20
0.0
 30
0.0
  3
*D16
  1

  0
LINE
  5
B8F
330
B8C
100
AcDbEntity
  8
MEASURE
 62
     9
440
 16777216
370
    -2
100
AcDbLine
 10
71.5171361371239
 20
109.9996795160112
 30
0.0
 11
71.5171361371239
 21
145.5371290963825
 31
0.0
  0
LINE
  5
B90
330
B8C
100
AcDbEntity
  8
MEASURE
 62
     9
440
 16777216
370
    -2
100
AcDbLine
 10
183.5171357230643
 20
109.9996795160112
 30
0.0
 11
183.5171357230643
 21
145.5371290963825
 31
0.0
  0
LINE
  5
B91
330
B8C
100
AcDbEntity
  8
MEASURE
 62
     9
440
 16777216
370
    -2
100
AcDbLine
 10
74.0171361371239
 20
143.5371290963825
 30
0.0
 11
181.0171357230643
 21
143.5371290963825
 31
0.0
  0
SOLID
  5
B92
330
B8C
100
AcDbEntity
  8
MEASURE
 62
     9
440
 16777216
100
AcDbTrace
 10
74.0171361371239
 20
143.9537957630491
 30
0.0
 11
74.0171361371239
 21
143.1204624297158
 31
0.0
 12
71.5171361371239
 22
143.5371290963825
 32
0.0
 13
71.5171361371239
 23
143.5371290963825
 33
0.0
  0
SOLID
  5
B93
330
B8C
100
AcDbEntity
  8
MEASURE
 62
     9
440
 16777216
100
AcDbTrace
 10
181.0171357230643
 20
143.9537957630491
 30
0.0
 11
181.0171357230643
 21
143.1204624297158
 31
0.0
 12
183.5171357230643
 22
143.5371290963825
 32
0.0
 13
183.5171357230643
 23
143.5371290963825
 33
0.0
  0
MTEXT
  5
B94
330
B8C
100
AcDbEntity
  8
MEASURE
 62
     2
440
 16777216
100
AcDbMText
 10
127.5171359300941
 20
145.7871290963825
 30
0.0
 40
3.5
 41
0.0
 46
0.0
 71
     5
 72
     1
  1
\A1;112
  7
AD-STANDARD
 73
     1
 44
1.0
  0
POINT
  5
B95
330
B8C
100
AcDbEntity
  8
DEFPOINTS
 62
     0
440
 16777216
100
AcDbPoint
 10
71.5171361371239
 20
108.9996795160112
 30
0.0
  0
POINT
  5
B96
330
B8C
100
AcDbEntity
  8
DEFPOINTS
 62
     0
440
 16777216
100
AcDbPoint
 10
183.5171357230643
 20
108.9996795160112
 30
0.0
  0
POINT
  5
B97
330
B8C
100
AcDbEntity
  8
DEFPOINTS
 62
     0
440
 16777216
100
AcDbPoint
 10
183.5171357230643
 20
143.5371290963825
 30
0.0
  0
ENDBLK
  5
B8E
330
B8C
100
AcDbEntity
  8
0
100
AcDbBlockEnd
  0
BLOCK
  5
BA1
330
BA0
100
AcDbEntity
  8
0
100
AcDbBlockBegin
  2
*D17
 70
     1
 10
0.0
 20
0.0
 30
0.0
  3
*D17
  1

  0
LINE
  5
BA3
330
BA0
100
AcDbEntity
  8
MEASURE
 62
     9
440
 16777216
370
    -2
100
AcDbLine
 10
234.9828559978093
 20
161.6848773937926
 30
0.0
 11
276.7159878971602
 21
161.6848773937926
 31
0.0
  0
LINE
  5
BA4
330
BA0
100
AcDbEntity
  8
MEASURE
 62
     9
440
 16777216
370
    -2
100
AcDbLine
 10
244.4828559978093
 20
101.6848773937926
 30
0.0
 11
276.7159878971602
 21
101.6848773937926
 31
0.0
  0
LINE
  5
BA5
330
BA0
100
AcDbEntity
  8
MEASURE
 62
     9
440
 16777216
370
    -2
100
AcDbLine
 10
274.7159878971602
 20
159.1848773937926
 30
0.0
 11
274.7159878971602
 21
104.1848773937926
 31
0.0
  0
SOLID
  5
BA6
330
BA0
100
AcDbEntity
  8
MEASURE
 62
     9
440
 16777216
100
AcDbTrace
 10
274.2993212304936
 20
159.1848773937926
 30
0.0
 11
275.1326545638269
 21
159.1848773937926
 31
0.0
 12
274.7159878971602
 22
161.6848773937926
 32
0.0
 13
274.7159878971602
 23
161.6848773937926
 33
0.0
  0
SOLID
  5
BA7
330
BA0
100
AcDbEntity
  8
MEASURE
 62
     9
440
 16777216
100
AcDbTrace
 10
274.2993212304935
 20
104.1848773937926
 30
0.0
 11
275.1326545638268
 21
104.1848773937926
 31
0.0
 12
274.7159878971602
 22
101.6848773937926
 32
0.0
 13
274.7159878971602
 23
101.6848773937926
 33
0.0
  0
MTEXT
  5
BA8
330
BA0
100
AcDbEntity
  8
MEASURE
 62
     2
440
 16777216
100
AcDbMText
 10
272.4659878971602
 20
131.6848773937926
 30
0.0
 40
3.5
 41
0.0
 46
0.0
 71
     5
 72
     1
  1
\A1;60
  7
AD-STANDARD
 11
0.0000000000000001
 21
1.0
 31
0.0
 73
     1
 44
1.0
  0
POINT
  5
BA9
330
BA0
100
AcDbEntity
  8
DEFPOINTS
 62
     0
440
 16777216
100
AcDbPoint
 10
233.9828559978093
 20
161.6848773937926
 30
0.0
  0
POINT
  5
BAA
330
BA0
100
AcDbEntity
  8
DEFPOINTS
 62
     0
440
 16777216
100
AcDbPoint
 10
243.4828559978093
 20
101.6848773937926
 30
0.0
  0
POINT
  5
BAB
330
BA0
100
AcDbEntity
  8
DEFPOINTS
 62
     0
440
 16777216
100
AcDbPoint
 10
274.7159878971602
 20
101.6848773937926
 30
0.0
  0
ENDBLK
  5
BA2
330
BA0
100
AcDbEntity
  8
0
100
AcDbBlockEnd
  0
ENDSEC
  0
SECTION
  2
ENTITIES
  0
MTEXT
  5
3AD
330
1A
100
AcDbEntity
  8
0
100
AcDbMText
 10
115.2929324332508
 20
130.8759996587505
 30
0.0
 40
3.5
 41
45.7425
 46
0.0
 71
     1
 72
     5
  1

  7
AD-STANDARD
 73
     1
 44
1.0
  0
LINE
  5
5E4
330
1A
100
AcDbEntity
  8
0
  6
Continuous
 62
     7
370
    30
100
AcDbLine
 10
188.4828559978093
 20
101.6848773937926
 30
0.0
 11
243.4828559978093
 21
101.6848773937926
 31
0.0
1001
Sigma
1000

  0
LINE
  5
5E5
330
1A
100
AcDbEntity
  8
0
  6
Continuous
 62
     7
370
    30
100
AcDbLine
 10
242.4828559978093
 20
102.6848773937926
 30
0.0
 11
188.4828559978093
 21
102.6848773937926
 31
0.0
1001
Sigma
1000

  0
LINE
  5
5E6
330
1A
100
AcDbEntity
  8
0
  6
Continuous
 62
     7
370
    30
100
AcDbLine
 10
221.6098726515993
 20
140.6848773937926
 30
0.0
 11
190.7741438452893
 21
140.6848773937926
 31
0.0
1001
Sigma
1000

  0
LINE
  5
5E7
330
1A
100
AcDbEntity
  8
0
  6
Continuous
 62
     7
370
    30
100
AcDbLine
 10
215.4828559978093
 20
121.6848773937926
 30
0.0
 11
188.4828559978093
 21
121.6848773937926
 31
0.0
1001
Sigma
1000

  0
LINE
  5
5E8
330
1A
100
AcDbEntity
  8
0
  6
Continuous
 62
     7
370
    30
100
AcDbLine
 10
221.4828559978093
 20
141.6848773937926
 30
0.0
 11
190.9824495600193
 21
141.7299553682526
 31
0.0
1001
Sigma
1000

  0
LINE
  5
5E9
330
1A
100
AcDbEntity
  8
0
  6
Continuous
 62
     7
370
    30
100
AcDbLine
 10
221.6098726515993
 20
142.6848773937926
 30
0.0
 11
190.7741438452893
 21
142.6848773937926
 31
0.0
1001
Sigma
1000

  0
LINE
  5
5EA
330
1A
100
AcDbEntity
  8
0
  6
Continuous
 62
     7
370
    30
100
AcDbLine
 10
215.4828559978093
 20
161.6848773937926
 30
0.0
 11
188.4828559978093
 21
161.6848773937926
 31
0.0
1001
Sigma
1000

  0
LINE
  5
5EB
330
1A
100
AcDbEntity
  8
CENTER
  6
CENTER
370
    15
100
AcDbLine
 10
128.4828559977893
 20
141.6848773937926
 30
0.0
 11
248.4828559978113
 21
141.6848773937926
 31
0.0
1001
Sigma
1000

  0
LINE
  5
5EC
330
1A
100
AcDbEntity
  8
0
  6
Continuous
 62
     7
370
    30
100
AcDbLine
 10
133.4828559977893
 20
156.6848773937926
 30
0.0
 11
133.4828559977893
 21
101.6848773937926
 31
0.0
1001
Sigma
1000

  0
LINE
  5
5ED
330
1A
100
AcDbEntity
  8
0
  6
Continuous
 62
     7
370
    30
100
AcDbLine
 10
134.4828559977893
 20
156.6848773937926
 30
0.0
 11
134.4828559977893
 21
102.6848773937926
 31
0.0
1001
Sigma
1000

  0
LINE
  5
5EE
330
1A
100
AcDbEntity
  8
0
  6
Continuous
 62
     7
370
    30
100
AcDbLine
 10
132.4828559977893
 20
151.6848773937926
 30
0.0
 11
132.4828559977893
 21
131.6848773937926
 31
0.0
1001
Sigma
1000

  0
CIRCLE
  5
5EF
330
1A
100
AcDbEntity
  8
0
  6
Continuous
 62
     7
370
    30
100
AcDbCircle
 10
151.4828559977894
 20
141.6848773937926
 30
0.0
 40
4.0
1001
Sigma
1000

  0
LINE
  5
5F0
330
1A
100
AcDbEntity
  8
0
  6
Continuous
 62
     7
370
    30
100
AcDbLine
 10
134.9828559977894
 20
153.6848773937926
 30
0.0
 11
134.9828559977894
 21
129.6848773937926
 31
0.0
1001
Sigma
1000

  0
LINE
  5
5F1
330
1A
100
AcDbEntity
  8
CENTER
  6
CENTER
370
    15
100
AcDbLine
 10
188.4828559978093
 20
96.50562817339263
 30
0.0
 11
188.4828559978093
 21
168.7149274772626
 31
0.0
1001
Sigma
1000

  0
LINE
  5
5F3
330
1A
100
AcDbEntity
  8
0
  6
Continuous
 62
     7
370
    30
100
AcDbLine
 10
188.4828559978093
 20
101.6848773937926
 30
0.0
 11
133.4828559977893
 21
101.6848773937926
 31
0.0
1001
Sigma
1000

  0
LINE
  5
5F4
330
1A
100
AcDbEntity
  8
0
  6
Continuous
 62
     7
370
    30
100
AcDbLine
 10
134.4828559977893
 20
102.6848773937926
 30
0.0
 11
188.4828559978093
 21
102.6848773937926
 31
0.0
1001
Sigma
1000

  0
LINE
  5
5F5
330
1A
100
AcDbEntity
  8
0
  6
Continuous
 62
     7
370
    30
100
AcDbLine
 10
159.4828559978093
 20
121.6848773937926
 30
0.0
 11
160.4828559978093
 21
121.6848773937926
 31
0.0
1001
Sigma
1000

  0
LINE
  5
5F6
330
1A
100
AcDbEntity
  8
0
  6
HIDDEN
 62
     7
370
    30
100
AcDbLine
 10
142.9828559977894
 20
102.6848773937926
 30
0.0
 11
142.9828559977894
 21
101.6848773937926
 31
0.0
1001
Sigma
1000

  0
LINE
  5
5F7
330
1A
100
AcDbEntity
  8
MEASURE
  6
CENTER
 62
   253
370
    15
100
AcDbLine
 10
145.9828559977893
 20
105.9160055318826
 30
0.0
 11
145.9828559977893
 21
97.99147722999265
 31
0.0
1001
Sigma
1000

  0
LINE
  5
5F8
330
1A
100
AcDbEntity
  8
0
  6
HIDDEN
 62
     7
370
    30
100
AcDbLine
 10
148.9828559977892
 20
102.6848773937926
 30
0.0
 11
148.9828559977892
 21
101.6848773937926
 31
0.0
1001
Sigma
1000

  0
LINE
  5
5F9
330
1A
100
AcDbEntity
  8
0
  6
Continuous
 62
     7
370
    30
100
AcDbLine
 10
142.9828559977894
 20
121.6848773937926
 30
0.0
 11
149.4828559977894
 21
121.6848773937926
 31
0.0
1001
Sigma
1000

  0
ARC
  5
5FA
330
1A
100
AcDbEntity
  8
0
  6
Continuous
 62
     7
370
    30
100
AcDbCircle
 10
142.9828559977894
 20
129.6848773937926
 30
0.0
 40
8.0
100
AcDbArc
 50
180.0
 51
270.0
1001
Sigma
1000

  0
LINE
  5
5FB
330
1A
100
AcDbEntity
  8
0
  6
Continuous
 62
     7
370
    30
100
AcDbLine
 10
133.4828559977893
 20
131.6848773937926
 30
0.0
 11
132.4828559977893
 21
131.6848773937926
 31
0.0
1001
Sigma
1000

  0
LINE
  5
5FC
330
1A
100
AcDbEntity
  8
0
  6
Continuous
 62
     7
370
    30
100
AcDbLine
 10
134.9828559977894
 20
129.1848773937926
 30
0.0
 11
134.4828559977893
 21
129.1848773937926
 31
0.0
1001
Sigma
1000

  0
LINE
  5
5FD
330
1A
100
AcDbEntity
  8
0
  6
Continuous
 62
     7
370
    30
100
AcDbLine
 10
154.4828559977894
 20
131.6848773937926
 30
0.0
 11
154.4828559977894
 21
121.6848773937926
 31
0.0
1001
Sigma
1000

  0
LINE
  5
5FE
330
1A
100
AcDbEntity
  8
0
  6
Continuous
 62
     7
370
    30
100
AcDbLine
 10
155.4828559977894
 20
131.6848773937926
 30
0.0
 11
155.4828559977894
 21
121.6848773937926
 31
0.0
1001
Sigma
1000

  0
LINE
  5
5FF
330
1A
100
AcDbEntity
  8
0
  6
Continuous
 62
     7
370
    30
100
AcDbLine
 10
153.4828559977894
 20
131.6848773937926
 30
0.0
 11
153.4828559977894
 21
121.6848773937926
 31
0.0
1001
Sigma
1000

  0
LINE
  5
600
330
1A
100
AcDbEntity
  8
0
  6
Continuous
 62
     7
370
    30
100
AcDbLine
 10
149.4828559977894
 20
131.6848773937926
 30
0.0
 11
149.4828559977894
 21
121.6848773937926
 31
0.0
1001
Sigma
1000

  0
LINE
  5
601
330
1A
100
AcDbEntity
  8
0
  6
Continuous
 62
     7
370
    30
100
AcDbLine
 10
156.4828559977894
 20
131.6848773937926
 30
0.0
 11
156.4828559977894
 21
121.6848773937926
 31
0.0
1001
Sigma
1000

  0
LINE
  5
602
330
1A
100
AcDbEntity
  8
0
  6
Continuous
 62
     7
370
    30
100
AcDbLine
 10
157.4828559977893
 20
131.6848773937926
 30
0.0
 11
157.4828559977893
 21
121.6848773937926
 31
0.0
1001
Sigma
1000

  0
LINE
  5
603
330
1A
100
AcDbEntity
  8
0
  6
Continuous
 62
     7
370
    30
100
AcDbLine
 10
158.4828559978093
 20
131.6848773937926
 30
0.0
 11
158.4828559978093
 21
121.6848773937926
 31
0.0
1001
Sigma
1000

  0
LINE
  5
604
330
1A
100
AcDbEntity
  8
0
  6
Continuous
 62
     7
370
    30
100
AcDbLine
 10
159.4828559978093
 20
131.6848773937926
 30
0.0
 11
159.4828559978093
 21
121.6848773937926
 31
0.0
1001
Sigma
1000

  0
LINE
  5
605
330
1A
100
AcDbEntity
  8
0
  6
Continuous
 62
     7
370
    30
100
AcDbLine
 10
149.4828559977894
 20
122.1848773937926
 30
0.0
 11
153.4828559977894
 21
122.1848773937926
 31
0.0
1001
Sigma
1000

  0
LINE
  5
606
330
1A
100
AcDbEntity
  8
0
  6
Continuous
 62
     7
370
    30
100
AcDbLine
 10
149.4828559977894
 20
121.6848773937926
 30
0.0
 11
149.4828559977894
 21
122.1848773937926
 31
0.0
1001
Sigma
1000

  0
LINE
  5
607
330
1A
100
AcDbEntity
  8
0
  6
Continuous
 62
     7
370
    30
100
AcDbLine
 10
155.4828559977894
 20
121.6848773937926
 30
0.0
 11
156.4828559977894
 21
121.6848773937926
 31
0.0
1001
Sigma
1000

  0
LINE
  5
608
330
1A
100
AcDbEntity
  8
0
  6
Continuous
 62
     7
370
    30
100
AcDbLine
 10
153.4828559977894
 20
121.6848773937926
 30
0.0
 11
154.4828559977894
 21
121.6848773937926
 31
0.0
1001
Sigma
1000

  0
LINE
  5
609
330
1A
100
AcDbEntity
  8
0
  6
Continuous
 62
     7
370
    30
100
AcDbLine
 10
154.4828559977894
 20
122.1848773937926
 30
0.0
 11
155.4828559977894
 21
122.1848773937926
 31
0.0
1001
Sigma
1000

  0
LINE
  5
60A
330
1A
100
AcDbEntity
  8
0
  6
Continuous
 62
     7
370
    30
100
AcDbLine
 10
153.4828559977894
 20
122.1848773937926
 30
0.0
 11
153.4828559977894
 21
121.6848773937926
 31
0.0
1001
Sigma
1000

  0
LINE
  5
60B
330
1A
100
AcDbEntity
  8
0
  6
Continuous
 62
     7
370
    30
100
AcDbLine
 10
157.4828559977893
 20
121.6848773937926
 30
0.0
 11
158.4828559978093
 21
121.6848773937926
 31
0.0
1001
Sigma
1000

  0
LINE
  5
60C
330
1A
100
AcDbEntity
  8
0
  6
Continuous
 62
     7
370
    30
100
AcDbLine
 10
156.4828559977894
 20
122.1848773937926
 30
0.0
 11
157.4828559977893
 21
122.1848773937926
 31
0.0
1001
Sigma
1000

  0
LINE
  5
60D
330
1A
100
AcDbEntity
  8
0
  6
Continuous
 62
     7
370
    30
100
AcDbLine
 10
158.4828559978093
 20
122.1848773937926
 30
0.0
 11
159.4828559978093
 21
122.1848773937926
 31
0.0
1001
Sigma
1000

  0
LINE
  5
60E
330
1A
100
AcDbEntity
  8
0
  6
Continuous
 62
     7
370
    30
100
AcDbLine
 10
153.4828559977894
 20
131.6848773937926
 30
0.0
 11
149.4828559977894
 21
131.6848773937926
 31
0.0
1001
Sigma
1000

  0
LINE
  5
60F
330
1A
100
AcDbEntity
  8
0
  6
Continuous
 62
     7
370
    30
100
AcDbLine
 10
155.4828559977894
 20
131.6848773937926
 30
0.0
 11
154.4828559977894
 21
131.6848773937926
 31
0.0
1001
Sigma
1000

  0
LINE
  5
610
330
1A
100
AcDbEntity
  8
0
  6
Continuous
 62
     7
370
    30
100
AcDbLine
 10
157.4828559977893
 20
131.6848773937926
 30
0.0
 11
156.4828559977894
 21
131.6848773937926
 31
0.0
1001
Sigma
1000

  0
LINE
  5
611
330
1A
100
AcDbEntity
  8
0
  6
Continuous
 62
     7
370
    30
100
AcDbLine
 10
159.4828559978093
 20
131.6848773937926
 30
0.0
 11
158.4828559978093
 21
131.6848773937926
 31
0.0
1001
Sigma
1000

  0
LINE
  5
612
330
1A
100
AcDbEntity
  8
0
  6
HIDDEN
 62
     7
370
    30
100
AcDbLine
 10
185.4828559978093
 20
102.6848773937926
 30
0.0
 11
185.4828559978093
 21
101.6848773937926
 31
0.0
1001
Sigma
1000

  0
LINE
  5
613
330
1A
100
AcDbEntity
  8
0
  6
HIDDEN
 62
     7
370
    30
100
AcDbLine
 10
191.4828559978093
 20
102.6848773937926
 30
0.0
 11
191.4828559978093
 21
101.6848773937926
 31
0.0
1001
Sigma
1000

  0
LINE
  5
614
330
1A
100
AcDbEntity
  8
0
  6
Continuous
 62
     7
370
    30
100
AcDbLine
 10
161.4828559978093
 20
121.6848773937926
 30
0.0
 11
188.4828559978093
 21
121.6848773937926
 31
0.0
1001
Sigma
1000

  0
LINE
  5
615
330
1A
100
AcDbEntity
  8
0
  6
Continuous
 62
     7
370
    30
100
AcDbLine
 10
161.4828559978093
 20
131.6848773937926
 30
0.0
 11
161.4828559978093
 21
121.6848773937926
 31
0.0
1001
Sigma
1000

  0
LINE
  5
616
330
1A
100
AcDbEntity
  8
0
  6
Continuous
 62
     7
370
    30
100
AcDbLine
 10
160.4828559978093
 20
131.6848773937926
 30
0.0
 11
160.4828559978093
 21
121.6848773937926
 31
0.0
1001
Sigma
1000

  0
LINE
  5
617
330
1A
100
AcDbEntity
  8
0
  6
Continuous
 62
     7
370
    30
100
AcDbLine
 10
160.4828559978093
 20
122.1848773937926
 30
0.0
 11
161.4828559978093
 21
122.1848773937926
 31
0.0
1001
Sigma
1000

  0
LINE
  5
618
330
1A
100
AcDbEntity
  8
0
  6
Continuous
 62
     7
370
    30
100
AcDbLine
 10
161.4828559978093
 20
131.6848773937926
 30
0.0
 11
160.4828559978093
 21
131.6848773937926
 31
0.0
1001
Sigma
1000

  0
LINE
  5
619
330
1A
100
AcDbEntity
  8
0
  6
Continuous
 62
     7
370
    30
100
AcDbLine
 10
155.3558393439893
 20
140.6848773937926
 30
0.0
 11
186.1915681503392
 21
140.6848773937926
 31
0.0
1001
Sigma
1000

  0
LINE
  5
61A
330
1A
100
AcDbEntity
  8
0
  6
Continuous
 62
     7
370
    30
100
AcDbLine
 10
155.4828559977894
 20
141.6848773937926
 30
0.0
 11
185.9832624356092
 21
141.7299553682526
 31
0.0
1001
Sigma
1000

  0
LINE
  5
61B
330
1A
100
AcDbEntity
  8
0
  6
Continuous
 62
     7
370
    30
100
AcDbLine
 10
155.3558393439893
 20
142.6848773937926
 30
0.0
 11
186.1915681503392
 21
142.6848773937926
 31
0.0
1001
Sigma
1000

  0
LINE
  5
61C
330
1A
100
AcDbEntity
  8
0
  6
Continuous
 62
     7
370
    30
100
AcDbLine
 10
159.4828559978093
 20
161.6848773937926
 30
0.0
 11
160.4828559978093
 21
161.6848773937926
 31
0.0
1001
Sigma
1000

  0
ARC
  5
61D
330
1A
100
AcDbEntity
  8
0
  6
Continuous
 62
     7
370
    30
100
AcDbCircle
 10
142.9828559977894
 20
153.6848773937926
 30
0.0
 40
8.0
100
AcDbArc
 50
90.0
 51
180.0
1001
Sigma
1000

  0
LINE
  5
61E
330
1A
100
AcDbEntity
  8
0
  6
Continuous
 62
     7
370
    30
100
AcDbLine
 10
154.4828559977894
 20
151.6848773937926
 30
0.0
 11
154.4828559977894
 21
161.6848773937926
 31
0.0
1001
Sigma
1000

  0
LINE
  5
61F
330
1A
100
AcDbEntity
  8
0
  6
Continuous
 62
     7
370
    30
100
AcDbLine
 10
155.4828559977894
 20
151.6848773937926
 30
0.0
 11
155.4828559977894
 21
161.6848773937926
 31
0.0
1001
Sigma
1000

  0
LINE
  5
620
330
1A
100
AcDbEntity
  8
0
  6
Continuous
 62
     7
370
    30
100
AcDbLine
 10
153.4828559977894
 20
151.6848773937926
 30
0.0
 11
153.4828559977894
 21
161.6848773937926
 31
0.0
1001
Sigma
1000

  0
LINE
  5
621
330
1A
100
AcDbEntity
  8
0
  6
Continuous
 62
     7
370
    30
100
AcDbLine
 10
149.4828559977894
 20
151.6848773937926
 30
0.0
 11
149.4828559977894
 21
161.6848773937926
 31
0.0
1001
Sigma
1000

  0
LINE
  5
622
330
1A
100
AcDbEntity
  8
0
  6
Continuous
 62
     7
370
    30
100
AcDbLine
 10
156.4828559977894
 20
151.6848773937926
 30
0.0
 11
156.4828559977894
 21
161.6848773937926
 31
0.0
1001
Sigma
1000

  0
LINE
  5
623
330
1A
100
AcDbEntity
  8
0
  6
Continuous
 62
     7
370
    30
100
AcDbLine
 10
157.4828559977893
 20
151.6848773937926
 30
0.0
 11
157.4828559977893
 21
161.6848773937926
 31
0.0
1001
Sigma
1000

  0
LINE
  5
624
330
1A
100
AcDbEntity
  8
0
  6
Continuous
 62
     7
370
    30
100
AcDbLine
 10
158.4828559978093
 20
151.6848773937926
 30
0.0
 11
158.4828559978093
 21
161.6848773937926
 31
0.0
1001
Sigma
1000

  0
LINE
  5
625
330
1A
100
AcDbEntity
  8
0
  6
Continuous
 62
     7
370
    30
100
AcDbLine
 10
159.4828559978093
 20
151.6848773937926
 30
0.0
 11
159.4828559978093
 21
161.6848773937926
 31
0.0
1001
Sigma
1000

  0
LINE
  5
626
330
1A
100
AcDbEntity
  8
0
  6
Continuous
 62
     7
370
    30
100
AcDbLine
 10
134.9828559977894
 20
140.6848773937926
 30
0.0
 11
147.6098726515893
 21
140.6848773937926
 31
0.0
1001
Sigma
1000

  0
LINE
  5
627
330
1A
100
AcDbEntity
  8
0
  6
Continuous
 62
     7
370
    30
100
AcDbLine
 10
134.9828559977894
 20
141.6848773937926
 30
0.0
 11
147.4828559977894
 21
141.6848773937926
 31
0.0
1001
Sigma
1000

  0
LINE
  5
628
330
1A
100
AcDbEntity
  8
0
  6
Continuous
 62
     7
370
    30
100
AcDbLine
 10
134.9828559977894
 20
142.6848773937926
 30
0.0
 11
147.6098726515893
 21
142.6848773937926
 31
0.0
1001
Sigma
1000

  0
LINE
  5
629
330
1A
100
AcDbEntity
  8
0
  6
Continuous
 62
     7
370
    30
100
AcDbLine
 10
133.4828559977893
 20
151.6848773937926
 30
0.0
 11
132.4828559977893
 21
151.6848773937926
 31
0.0
1001
Sigma
1000

  0
LINE
  5
62A
330
1A
100
AcDbEntity
  8
0
  6
Continuous
 62
     7
370
    30
100
AcDbLine
 10
134.9828559977894
 20
154.1848773937926
 30
0.0
 11
134.4828559977893
 21
154.1848773937926
 31
0.0
1001
Sigma
1000

  0
LINE
  5
62B
330
1A
100
AcDbEntity
  8
0
  6
Continuous
 62
     7
370
    30
100
AcDbLine
 10
134.4828559977893
 20
156.6848773937926
 30
0.0
 11
133.4828559977893
 21
156.6848773937926
 31
0.0
1001
Sigma
1000

  0
CIRCLE
  5
62C
330
1A
100
AcDbEntity
  8
0
  6
Continuous
 62
     7
370
    30
100
AcDbCircle
 10
151.4828559977894
 20
141.6848773937926
 30
0.0
 40
0.5
1001
Sigma
1000

  0
LINE
  5
62D
330
1A
100
AcDbEntity
  8
0
  6
Continuous
 62
     7
370
    30
100
AcDbLine
 10
153.4828559977894
 20
151.6848773937926
 30
0.0
 11
149.4828559977894
 21
151.6848773937926
 31
0.0
1001
Sigma
1000

  0
LINE
  5
62E
330
1A
100
AcDbEntity
  8
0
  6
Continuous
 62
     7
370
    30
100
AcDbLine
 10
155.4828559977894
 20
151.6848773937926
 30
0.0
 11
154.4828559977894
 21
151.6848773937926
 31
0.0
1001
Sigma
1000

  0
LINE
  5
62F
330
1A
100
AcDbEntity
  8
0
  6
Continuous
 62
     7
370
    30
100
AcDbLine
 10
157.4828559977893
 20
151.6848773937926
 30
0.0
 11
156.4828559977894
 21
151.6848773937926
 31
0.0
1001
Sigma
1000

  0
LINE
  5
630
330
1A
100
AcDbEntity
  8
0
  6
Continuous
 62
     7
370
    30
100
AcDbLine
 10
159.4828559978093
 20
151.6848773937926
 30
0.0
 11
158.4828559978093
 21
151.6848773937926
 31
0.0
1001
Sigma
1000

  0
LINE
  5
631
330
1A
100
AcDbEntity
  8
0
  6
Continuous
 62
     7
370
    30
100
AcDbLine
 10
142.9828559977894
 20
161.6848773937926
 30
0.0
 11
149.4828559977894
 21
161.6848773937926
 31
0.0
1001
Sigma
1000

  0
LINE
  5
632
330
1A
100
AcDbEntity
  8
0
  6
Continuous
 62
     7
370
    30
100
AcDbLine
 10
149.4828559977894
 20
161.1848773937926
 30
0.0
 11
153.4828559977894
 21
161.1848773937926
 31
0.0
1001
Sigma
1000

  0
LINE
  5
633
330
1A
100
AcDbEntity
  8
0
  6
Continuous
 62
     7
370
    30
100
AcDbLine
 10
149.4828559977894
 20
161.6848773937926
 30
0.0
 11
149.4828559977894
 21
161.1848773937926
 31
0.0
1001
Sigma
1000

  0
LINE
  5
634
330
1A
100
AcDbEntity
  8
0
  6
Continuous
 62
     7
370
    30
100
AcDbLine
 10
155.4828559977894
 20
161.6848773937926
 30
0.0
 11
156.4828559977894
 21
161.6848773937926
 31
0.0
1001
Sigma
1000

  0
LINE
  5
635
330
1A
100
AcDbEntity
  8
0
  6
Continuous
 62
     7
370
    30
100
AcDbLine
 10
153.4828559977894
 20
161.6848773937926
 30
0.0
 11
154.4828559977894
 21
161.6848773937926
 31
0.0
1001
Sigma
1000

  0
LINE
  5
636
330
1A
100
AcDbEntity
  8
0
  6
Continuous
 62
     7
370
    30
100
AcDbLine
 10
154.4828559977894
 20
161.1848773937926
 30
0.0
 11
155.4828559977894
 21
161.1848773937926
 31
0.0
1001
Sigma
1000

  0
LINE
  5
637
330
1A
100
AcDbEntity
  8
0
  6
Continuous
 62
     7
370
    30
100
AcDbLine
 10
153.4828559977894
 20
161.1848773937926
 30
0.0
 11
153.4828559977894
 21
161.6848773937926
 31
0.0
1001
Sigma
1000

  0
LINE
  5
638
330
1A
100
AcDbEntity
  8
0
  6
Continuous
 62
     7
370
    30
100
AcDbLine
 10
157.4828559977893
 20
161.6848773937926
 30
0.0
 11
158.4828559978093
 21
161.6848773937926
 31
0.0
1001
Sigma
1000

  0
LINE
  5
639
330
1A
100
AcDbEntity
  8
0
  6
Continuous
 62
     7
370
    30
100
AcDbLine
 10
156.4828559977894
 20
161.1848773937926
 30
0.0
 11
157.4828559977893
 21
161.1848773937926
 31
0.0
1001
Sigma
1000

  0
LINE
  5
63A
330
1A
100
AcDbEntity
  8
0
  6
Continuous
 62
     7
370
    30
100
AcDbLine
 10
158.4828559978093
 20
161.1848773937926
 30
0.0
 11
159.4828559978093
 21
161.1848773937926
 31
0.0
1001
Sigma
1000

  0
LINE
  5
63B
330
1A
100
AcDbEntity
  8
0
  6
Continuous
 62
     7
370
    30
100
AcDbLine
 10
161.4828559978093
 20
151.6848773937926
 30
0.0
 11
161.4828559978093
 21
161.6848773937926
 31
0.0
1001
Sigma
1000

  0
LINE
  5
63C
330
1A
100
AcDbEntity
  8
0
  6
Continuous
 62
     7
370
    30
100
AcDbLine
 10
160.4828559978093
 20
151.6848773937926
 30
0.0
 11
160.4828559978093
 21
161.6848773937926
 31
0.0
1001
Sigma
1000

  0
LINE
  5
63D
330
1A
100
AcDbEntity
  8
0
  6
Continuous
 62
     7
370
    30
100
AcDbLine
 10
161.4828559978093
 20
151.6848773937926
 30
0.0
 11
160.4828559978093
 21
151.6848773937926
 31
0.0
1001
Sigma
1000

  0
LINE
  5
63E
330
1A
100
AcDbEntity
  8
0
  6
Continuous
 62
     7
370
    30
100
AcDbLine
 10
186.0003950007593
 20
141.9804909897726
 30
0.0
 11
188.1872424018293
 21
144.1673383908426
 31
0.0
1001
Sigma
1000

  0
LINE
  5
63F
330
1A
100
AcDbEntity
  8
0
  6
Continuous
 62
     7
370
    30
100
AcDbLine
 10
186.0146219110893
 20
141.2876111189126
 30
0.0
 11
188.8801222726893
 21
144.1531114805126
 31
0.0
1001
Sigma
1000

  0
LINE
  5
640
330
1A
100
AcDbEntity
  8
0
  6
Continuous
 62
     7
370
    30
100
AcDbLine
 10
186.1699837998193
 20
140.7358662264526
 30
0.0
 11
189.4318671651493
 21
143.9977495917926
 31
0.0
1001
Sigma
1000

  0
LINE
  5
641
330
1A
100
AcDbEntity
  8
0
  6
Continuous
 62
     7
370
    30
100
AcDbLine
 10
186.4174790273793
 20
140.2762546728326
 30
0.0
 11
189.8914787187693
 21
143.7502543642226
 31
0.0
1001
Sigma
1000

  0
CIRCLE
  5
642
330
1A
100
AcDbEntity
  8
0
  6
Continuous
 62
     7
370
    30
100
AcDbCircle
 10
188.4828559978093
 20
141.6848773937926
 30
0.0
 40
2.5
1001
Sigma
1000

  0
LINE
  5
643
330
1A
100
AcDbEntity
  8
0
  6
Continuous
 62
     7
370
    30
100
AcDbLine
 10
186.7404445980492
 20
139.8921134623226
 30
0.0
 11
190.2756199292893
 21
143.4272887935526
 31
0.0
1001
Sigma
1000

  0
LINE
  5
644
330
1A
100
AcDbEntity
  8
0
  6
Continuous
 62
     7
370
    30
100
AcDbLine
 10
187.1348651072893
 20
139.5794271903726
 30
0.0
 11
190.5883062012293
 21
143.0328682843126
 31
0.0
1001
Sigma
1000

  0
LINE
  5
645
330
1A
100
AcDbEntity
  8
0
  6
Continuous
 62
     7
370
    30
100
AcDbLine
 10
187.6061761680292
 20
139.3436314699226
 30
0.0
 11
190.8241019216793
 21
142.5615572235726
 31
0.0
1001
Sigma
1000

  0
LINE
  5
646
330
1A
100
AcDbEntity
  8
0
  6
Continuous
 62
     7
370
    30
100
AcDbLine
 10
188.1737160088693
 20
139.2040645295826
 30
0.0
 11
190.9636688620193
 21
141.9940173827326
 31
0.0
1001
Sigma
1000

  0
LINE
  5
647
330
1A
100
AcDbEntity
  8
0
  6
Continuous
 62
     7
370
    30
100
AcDbLine
 10
186.4429814443393
 20
143.1301842145426
 30
0.0
 11
187.0375491770693
 21
143.7247519472626
 31
0.0
1001
Sigma
1000

  0
LINE
  5
648
330
1A
100
AcDbEntity
  8
0
  6
Continuous
 62
     7
370
    30
100
AcDbLine
 10
188.8960114851693
 20
139.2192532246926
 30
0.0
 11
190.9484801669193
 21
141.2717219064326
 31
0.0
1001
Sigma
1000

  0
LINE
  5
649
330
1A
100
AcDbEntity
  8
0
  6
Continuous
 62
     7
370
    30
100
AcDbLine
 10
161.4828559978093
 20
161.6848773937926
 30
0.0
 11
188.4828559978093
 21
161.6848773937926
 31
0.0
1001
Sigma
1000

  0
LINE
  5
64A
330
1A
100
AcDbEntity
  8
0
  6
Continuous
 62
     7
370
    30
100
AcDbLine
 10
160.4828559978093
 20
161.1848773937926
 30
0.0
 11
161.4828559978093
 21
161.1848773937926
 31
0.0
1001
Sigma
1000

  0
LINE
  5
64B
330
1A
100
AcDbEntity
  8
0
  6
Continuous
 62
     7
370
    30
100
AcDbLine
 10
243.4828559978093
 20
156.6848773937926
 30
0.0
 11
243.4828559978093
 21
101.6848773937926
 31
0.0
1001
Sigma
1000

  0
LINE
  5
64C
330
1A
100
AcDbEntity
  8
0
  6
Continuous
 62
     7
370
    30
100
AcDbLine
 10
242.4828559978093
 20
156.6848773937926
 30
0.0
 11
242.4828559978093
 21
102.6848773937926
 31
0.0
1001
Sigma
1000

  0
LINE
  5
64D
330
1A
100
AcDbEntity
  8
0
  6
Continuous
 62
     7
370
    30
100
AcDbLine
 10
244.4828559978093
 20
151.6848773937926
 30
0.0
 11
244.4828559978093
 21
131.6848773937926
 31
0.0
1001
Sigma
1000

  0
CIRCLE
  5
64E
330
1A
100
AcDbEntity
  8
0
  6
Continuous
 62
     7
370
    30
100
AcDbCircle
 10
225.4828559978093
 20
141.6848773937926
 30
0.0
 40
4.0
1001
Sigma
1000

  0
LINE
  5
64F
330
1A
100
AcDbEntity
  8
0
  6
Continuous
 62
     7
370
    30
100
AcDbLine
 10
241.9828559978093
 20
153.6848773937926
 30
0.0
 11
241.9828559978093
 21
129.6848773937926
 31
0.0
1001
Sigma
1000

  0
LINE
  5
650
330
1A
100
AcDbEntity
  8
0
  6
Continuous
 62
     7
370
    30
100
AcDbLine
 10
223.4828559978093
 20
131.6848773937926
 30
0.0
 11
227.4828559978093
 21
131.6848773937926
 31
0.0
1001
Sigma
1000

  0
LINE
  5
651
330
1A
100
AcDbEntity
  8
0
  6
Continuous
 62
     7
370
    30
100
AcDbLine
 10
227.4828559978093
 20
122.1848773937926
 30
0.0
 11
223.4828559978093
 21
122.1848773937926
 31
0.0
1001
Sigma
1000

  0
LINE
  5
652
330
1A
100
AcDbEntity
  8
0
  6
Continuous
 62
     7
370
    30
100
AcDbLine
 10
215.4828559978093
 20
131.6848773937926
 30
0.0
 11
215.4828559978093
 21
121.6848773937926
 31
0.0
1001
Sigma
1000

  0
LINE
  5
653
330
1A
100
AcDbEntity
  8
0
  6
Continuous
 62
     7
370
    30
100
AcDbLine
 10
216.4828559978093
 20
131.6848773937926
 30
0.0
 11
216.4828559978093
 21
121.6848773937926
 31
0.0
1001
Sigma
1000

  0
LINE
  5
654
330
1A
100
AcDbEntity
  8
0
  6
Continuous
 62
     7
370
    30
100
AcDbLine
 10
222.4828559978093
 20
131.6848773937926
 30
0.0
 11
222.4828559978093
 21
121.6848773937926
 31
0.0
1001
Sigma
1000

  0
LINE
  5
655
330
1A
100
AcDbEntity
  8
0
  6
Continuous
 62
     7
370
    30
100
AcDbLine
 10
221.4828559978093
 20
131.6848773937926
 30
0.0
 11
221.4828559978093
 21
121.6848773937926
 31
0.0
1001
Sigma
1000

  0
LINE
  5
656
330
1A
100
AcDbEntity
  8
0
  6
Continuous
 62
     7
370
    30
100
AcDbLine
 10
223.4828559978093
 20
131.6848773937926
 30
0.0
 11
223.4828559978093
 21
121.6848773937926
 31
0.0
1001
Sigma
1000

  0
LINE
  5
657
330
1A
100
AcDbEntity
  8
0
  6
Continuous
 62
     7
370
    30
100
AcDbLine
 10
220.4828559978093
 20
131.6848773937926
 30
0.0
 11
220.4828559978093
 21
121.6848773937926
 31
0.0
1001
Sigma
1000

  0
LINE
  5
658
330
1A
100
AcDbEntity
  8
0
  6
Continuous
 62
     7
370
    30
100
AcDbLine
 10
219.4828559978093
 20
131.6848773937926
 30
0.0
 11
219.4828559978093
 21
121.6848773937926
 31
0.0
1001
Sigma
1000

  0
LINE
  5
659
330
1A
100
AcDbEntity
  8
0
  6
Continuous
 62
     7
370
    30
100
AcDbLine
 10
218.4828559978093
 20
131.6848773937926
 30
0.0
 11
218.4828559978093
 21
121.6848773937926
 31
0.0
1001
Sigma
1000

  0
LINE
  5
65A
330
1A
100
AcDbEntity
  8
0
  6
Continuous
 62
     7
370
    30
100
AcDbLine
 10
217.4828559978093
 20
131.6848773937926
 30
0.0
 11
217.4828559978093
 21
121.6848773937926
 31
0.0
1001
Sigma
1000

  0
LINE
  5
65B
330
1A
100
AcDbEntity
  8
0
  6
Continuous
 62
     7
370
    30
100
AcDbLine
 10
217.4828559978093
 20
121.6848773937926
 30
0.0
 11
216.4828559978093
 21
121.6848773937926
 31
0.0
1001
Sigma
1000

  0
LINE
  5
65C
330
1A
100
AcDbEntity
  8
0
  6
Continuous
 62
     7
370
    30
100
AcDbLine
 10
216.4828559978093
 20
122.1848773937926
 30
0.0
 11
215.4828559978093
 21
122.1848773937926
 31
0.0
1001
Sigma
1000

  0
LINE
  5
65D
330
1A
100
AcDbEntity
  8
0
  6
Continuous
 62
     7
370
    30
100
AcDbLine
 10
221.4828559978093
 20
121.6848773937926
 30
0.0
 11
220.4828559978093
 21
121.6848773937926
 31
0.0
1001
Sigma
1000

  0
LINE
  5
65E
330
1A
100
AcDbEntity
  8
0
  6
Continuous
 62
     7
370
    30
100
AcDbLine
 10
219.4828559978093
 20
121.6848773937926
 30
0.0
 11
218.4828559978093
 21
121.6848773937926
 31
0.0
1001
Sigma
1000

  0
LINE
  5
65F
330
1A
100
AcDbEntity
  8
0
  6
Continuous
 62
     7
370
    30
100
AcDbLine
 10
220.4828559978093
 20
122.1848773937926
 30
0.0
 11
219.4828559978093
 21
122.1848773937926
 31
0.0
1001
Sigma
1000

  0
LINE
  5
660
330
1A
100
AcDbEntity
  8
0
  6
Continuous
 62
     7
370
    30
100
AcDbLine
 10
218.4828559978093
 20
122.1848773937926
 30
0.0
 11
217.4828559978093
 21
122.1848773937926
 31
0.0
1001
Sigma
1000

  0
LINE
  5
661
330
1A
100
AcDbEntity
  8
0
  6
Continuous
 62
     7
370
    30
100
AcDbLine
 10
223.4828559978093
 20
121.6848773937926
 30
0.0
 11
222.4828559978093
 21
121.6848773937926
 31
0.0
1001
Sigma
1000

  0
LINE
  5
662
330
1A
100
AcDbEntity
  8
0
  6
Continuous
 62
     7
370
    30
100
AcDbLine
 10
222.4828559978093
 20
122.1848773937926
 30
0.0
 11
221.4828559978093
 21
122.1848773937926
 31
0.0
1001
Sigma
1000

  0
LINE
  5
663
330
1A
100
AcDbEntity
  8
0
  6
Continuous
 62
     7
370
    30
100
AcDbLine
 10
223.4828559978093
 20
122.1848773937926
 30
0.0
 11
223.4828559978093
 21
121.6848773937926
 31
0.0
1001
Sigma
1000

  0
LINE
  5
664
330
1A
100
AcDbEntity
  8
0
  6
Continuous
 62
     7
370
    30
100
AcDbLine
 10
215.4828559978093
 20
131.6848773937926
 30
0.0
 11
216.4828559978093
 21
131.6848773937926
 31
0.0
1001
Sigma
1000

  0
LINE
  5
665
330
1A
100
AcDbEntity
  8
0
  6
Continuous
 62
     7
370
    30
100
AcDbLine
 10
219.4828559978093
 20
131.6848773937926
 30
0.0
 11
220.4828559978093
 21
131.6848773937926
 31
0.0
1001
Sigma
1000

  0
LINE
  5
666
330
1A
100
AcDbEntity
  8
0
  6
Continuous
 62
     7
370
    30
100
AcDbLine
 10
217.4828559978093
 20
131.6848773937926
 30
0.0
 11
218.4828559978093
 21
131.6848773937926
 31
0.0
1001
Sigma
1000

  0
LINE
  5
667
330
1A
100
AcDbEntity
  8
0
  6
Continuous
 62
     7
370
    30
100
AcDbLine
 10
221.4828559978093
 20
131.6848773937926
 30
0.0
 11
222.4828559978093
 21
131.6848773937926
 31
0.0
1001
Sigma
1000

  0
LINE
  5
66B
330
1A
100
AcDbEntity
  8
MEASURE
  6
CENTER
 62
   253
370
    15
100
AcDbLine
 10
230.9828559978093
 20
105.9160055318826
 30
0.0
 11
230.9828559978093
 21
97.99147722999265
 31
0.0
1001
Sigma
1000

  0
LINE
  5
66C
330
1A
100
AcDbEntity
  8
0
  6
HIDDEN
 62
     7
370
    30
100
AcDbLine
 10
227.9828559978093
 20
102.6848773937926
 30
0.0
 11
227.9828559978093
 21
101.6848773937926
 31
0.0
1001
Sigma
1000

  0
ARC
  5
66E
330
1A
100
AcDbEntity
  8
0
  6
Continuous
 62
     7
370
    30
100
AcDbCircle
 10
233.9828559978093
 20
129.6848773937926
 30
0.0
 40
8.0
100
AcDbArc
 50
270.0
 51
0.0
1001
Sigma
1000

  0
LINE
  5
66F
330
1A
100
AcDbEntity
  8
0
  6
Continuous
 62
     7
370
    30
100
AcDbLine
 10
227.4828559978093
 20
131.6848773937926
 30
0.0
 11
227.4828559978093
 21
121.6848773937926
 31
0.0
1001
Sigma
1000

  0
LINE
  5
670
330
1A
100
AcDbEntity
  8
0
  6
Continuous
 62
     7
370
    30
100
AcDbLine
 10
233.9828559978093
 20
121.6848773937926
 30
0.0
 11
227.4828559978093
 21
121.6848773937926
 31
0.0
1001
Sigma
1000

  0
LINE
  5
671
330
1A
100
AcDbEntity
  8
0
  6
Continuous
 62
     7
370
    30
100
AcDbLine
 10
227.4828559978093
 20
121.6848773937926
 30
0.0
 11
227.4828559978093
 21
122.1848773937926
 31
0.0
1001
Sigma
1000

  0
LINE
  5
672
330
1A
100
AcDbEntity
  8
0
  6
Continuous
 62
     7
370
    30
100
AcDbLine
 10
243.4828559978093
 20
131.6848773937926
 30
0.0
 11
244.4828559978093
 21
131.6848773937926
 31
0.0
1001
Sigma
1000

  0
LINE
  5
673
330
1A
100
AcDbEntity
  8
0
  6
Continuous
 62
     7
370
    30
100
AcDbLine
 10
241.9828559978093
 20
129.1848773937926
 30
0.0
 11
242.4828559978093
 21
129.1848773937926
 31
0.0
1001
Sigma
1000

  0
CIRCLE
  5
674
330
1A
100
AcDbEntity
  8
0
  6
Continuous
 62
     7
370
    30
100
AcDbCircle
 10
225.4828559978093
 20
141.6848773937926
 30
0.0
 40
0.5
1001
Sigma
1000

  0
LINE
  5
675
330
1A
100
AcDbEntity
  8
0
  6
Continuous
 62
     7
370
    30
100
AcDbLine
 10
223.4828559978093
 20
151.6848773937926
 30
0.0
 11
227.4828559978093
 21
151.6848773937926
 31
0.0
1001
Sigma
1000

  0
LINE
  5
676
330
1A
100
AcDbEntity
  8
0
  6
Continuous
 62
     7
370
    30
100
AcDbLine
 10
227.4828559978093
 20
161.1848773937926
 30
0.0
 11
223.4828559978093
 21
161.1848773937926
 31
0.0
1001
Sigma
1000

  0
LINE
  5
677
330
1A
100
AcDbEntity
  8
0
  6
Continuous
 62
     7
370
    30
100
AcDbLine
 10
215.4828559978093
 20
151.6848773937926
 30
0.0
 11
215.4828559978093
 21
161.6848773937926
 31
0.0
1001
Sigma
1000

  0
LINE
  5
678
330
1A
100
AcDbEntity
  8
0
  6
Continuous
 62
     7
370
    30
100
AcDbLine
 10
216.4828559978093
 20
151.6848773937926
 30
0.0
 11
216.4828559978093
 21
161.6848773937926
 31
0.0
1001
Sigma
1000

  0
LINE
  5
679
330
1A
100
AcDbEntity
  8
0
  6
Continuous
 62
     7
370
    30
100
AcDbLine
 10
222.4828559978093
 20
151.6848773937926
 30
0.0
 11
222.4828559978093
 21
161.6848773937926
 31
0.0
1001
Sigma
1000

  0
LINE
  5
67A
330
1A
100
AcDbEntity
  8
0
  6
Continuous
 62
     7
370
    30
100
AcDbLine
 10
221.4828559978093
 20
151.6848773937926
 30
0.0
 11
221.4828559978093
 21
161.6848773937926
 31
0.0
1001
Sigma
1000

  0
LINE
  5
67B
330
1A
100
AcDbEntity
  8
0
  6
Continuous
 62
     7
370
    30
100
AcDbLine
 10
223.4828559978093
 20
151.6848773937926
 30
0.0
 11
223.4828559978093
 21
161.6848773937926
 31
0.0
1001
Sigma
1000

  0
LINE
  5
67C
330
1A
100
AcDbEntity
  8
0
  6
Continuous
 62
     7
370
    30
100
AcDbLine
 10
220.4828559978093
 20
151.6848773937926
 30
0.0
 11
220.4828559978093
 21
161.6848773937926
 31
0.0
1001
Sigma
1000

  0
LINE
  5
67D
330
1A
100
AcDbEntity
  8
0
  6
Continuous
 62
     7
370
    30
100
AcDbLine
 10
219.4828559978093
 20
151.6848773937926
 30
0.0
 11
219.4828559978093
 21
161.6848773937926
 31
0.0
1001
Sigma
1000

  0
LINE
  5
67E
330
1A
100
AcDbEntity
  8
0
  6
Continuous
 62
     7
370
    30
100
AcDbLine
 10
218.4828559978093
 20
151.6848773937926
 30
0.0
 11
218.4828559978093
 21
161.6848773937926
 31
0.0
1001
Sigma
1000

  0
LINE
  5
67F
330
1A
100
AcDbEntity
  8
0
  6
Continuous
 62
     7
370
    30
100
AcDbLine
 10
217.4828559978093
 20
151.6848773937926
 30
0.0
 11
217.4828559978093
 21
161.6848773937926
 31
0.0
1001
Sigma
1000

  0
LINE
  5
680
330
1A
100
AcDbEntity
  8
0
  6
Continuous
 62
     7
370
    30
100
AcDbLine
 10
215.4828559978093
 20
151.6848773937926
 30
0.0
 11
216.4828559978093
 21
151.6848773937926
 31
0.0
1001
Sigma
1000

  0
LINE
  5
681
330
1A
100
AcDbEntity
  8
0
  6
Continuous
 62
     7
370
    30
100
AcDbLine
 10
219.4828559978093
 20
151.6848773937926
 30
0.0
 11
220.4828559978093
 21
151.6848773937926
 31
0.0
1001
Sigma
1000

  0
LINE
  5
682
330
1A
100
AcDbEntity
  8
0
  6
Continuous
 62
     7
370
    30
100
AcDbLine
 10
217.4828559978093
 20
151.6848773937926
 30
0.0
 11
218.4828559978093
 21
151.6848773937926
 31
0.0
1001
Sigma
1000

  0
LINE
  5
683
330
1A
100
AcDbEntity
  8
0
  6
Continuous
 62
     7
370
    30
100
AcDbLine
 10
221.4828559978093
 20
151.6848773937926
 30
0.0
 11
222.4828559978093
 21
151.6848773937926
 31
0.0
1001
Sigma
1000

  0
LINE
  5
684
330
1A
100
AcDbEntity
  8
0
  6
Continuous
 62
     7
370
    30
100
AcDbLine
 10
217.4828559978093
 20
161.6848773937926
 30
0.0
 11
216.4828559978093
 21
161.6848773937926
 31
0.0
1001
Sigma
1000

  0
LINE
  5
685
330
1A
100
AcDbEntity
  8
0
  6
Continuous
 62
     7
370
    30
100
AcDbLine
 10
216.4828559978093
 20
161.1848773937926
 30
0.0
 11
215.4828559978093
 21
161.1848773937926
 31
0.0
1001
Sigma
1000

  0
LINE
  5
686
330
1A
100
AcDbEntity
  8
0
  6
Continuous
 62
     7
370
    30
100
AcDbLine
 10
221.4828559978093
 20
161.6848773937926
 30
0.0
 11
220.4828559978093
 21
161.6848773937926
 31
0.0
1001
Sigma
1000

  0
LINE
  5
687
330
1A
100
AcDbEntity
  8
0
  6
Continuous
 62
     7
370
    30
100
AcDbLine
 10
219.4828559978093
 20
161.6848773937926
 30
0.0
 11
218.4828559978093
 21
161.6848773937926
 31
0.0
1001
Sigma
1000

  0
LINE
  5
688
330
1A
100
AcDbEntity
  8
0
  6
Continuous
 62
     7
370
    30
100
AcDbLine
 10
220.4828559978093
 20
161.1848773937926
 30
0.0
 11
219.4828559978093
 21
161.1848773937926
 31
0.0
1001
Sigma
1000

  0
LINE
  5
689
330
1A
100
AcDbEntity
  8
0
  6
Continuous
 62
     7
370
    30
100
AcDbLine
 10
218.4828559978093
 20
161.1848773937926
 30
0.0
 11
217.4828559978093
 21
161.1848773937926
 31
0.0
1001
Sigma
1000

  0
LINE
  5
68A
330
1A
100
AcDbEntity
  8
0
  6
Continuous
 62
     7
370
    30
100
AcDbLine
 10
223.4828559978093
 20
161.6848773937926
 30
0.0
 11
222.4828559978093
 21
161.6848773937926
 31
0.0
1001
Sigma
1000

  0
LINE
  5
68B
330
1A
100
AcDbEntity
  8
0
  6
Continuous
 62
     7
370
    30
100
AcDbLine
 10
222.4828559978093
 20
161.1848773937926
 30
0.0
 11
221.4828559978093
 21
161.1848773937926
 31
0.0
1001
Sigma
1000

  0
LINE
  5
68C
330
1A
100
AcDbEntity
  8
0
  6
Continuous
 62
     7
370
    30
100
AcDbLine
 10
223.4828559978093
 20
161.1848773937926
 30
0.0
 11
223.4828559978093
 21
161.6848773937926
 31
0.0
1001
Sigma
1000

  0
ARC
  5
68D
330
1A
100
AcDbEntity
  8
0
  6
Continuous
 62
     7
370
    30
100
AcDbCircle
 10
233.9828559978093
 20
153.6848773937926
 30
0.0
 40
8.0
100
AcDbArc
 50
0.0
 51
90.0
1001
Sigma
1000

  0
LINE
  5
68E
330
1A
100
AcDbEntity
  8
0
  6
Continuous
 62
     7
370
    30
100
AcDbLine
 10
227.4828559978093
 20
151.6848773937926
 30
0.0
 11
227.4828559978093
 21
161.6848773937926
 31
0.0
1001
Sigma
1000

  0
LINE
  5
68F
330
1A
100
AcDbEntity
  8
0
  6
Continuous
 62
     7
370
    30
100
AcDbLine
 10
241.9828559978093
 20
140.6848773937926
 30
0.0
 11
229.3558393440193
 21
140.6848773937926
 31
0.0
1001
Sigma
1000

  0
LINE
  5
690
330
1A
100
AcDbEntity
  8
0
  6
Continuous
 62
     7
370
    30
100
AcDbLine
 10
241.9828559978093
 20
141.6848773937926
 30
0.0
 11
229.4828559978093
 21
141.6848773937926
 31
0.0
1001
Sigma
1000

  0
LINE
  5
691
330
1A
100
AcDbEntity
  8
0
  6
Continuous
 62
     7
370
    30
100
AcDbLine
 10
241.9828559978093
 20
142.6848773937926
 30
0.0
 11
229.3558393440193
 21
142.6848773937926
 31
0.0
1001
Sigma
1000

  0
LINE
  5
692
330
1A
100
AcDbEntity
  8
0
  6
Continuous
 62
     7
370
    30
100
AcDbLine
 10
243.4828559978093
 20
151.6848773937926
 30
0.0
 11
244.4828559978093
 21
151.6848773937926
 31
0.0
1001
Sigma
1000

  0
LINE
  5
693
330
1A
100
AcDbEntity
  8
0
  6
Continuous
 62
     7
370
    30
100
AcDbLine
 10
241.9828559978093
 20
154.1848773937926
 30
0.0
 11
242.4828559978093
 21
154.1848773937926
 31
0.0
1001
Sigma
1000

  0
LINE
  5
694
330
1A
100
AcDbEntity
  8
0
  6
Continuous
 62
     7
370
    30
100
AcDbLine
 10
242.4828559978093
 20
156.6848773937926
 30
0.0
 11
243.4828559978093
 21
156.6848773937926
 31
0.0
1001
Sigma
1000

  0
LINE
  5
695
330
1A
100
AcDbEntity
  8
0
  6
Continuous
 62
     7
370
    30
100
AcDbLine
 10
233.9828559978093
 20
161.6848773937926
 30
0.0
 11
227.4828559978093
 21
161.6848773937926
 31
0.0
1001
Sigma
1000

  0
LINE
  5
696
330
1A
100
AcDbEntity
  8
0
  6
Continuous
 62
     7
370
    30
100
AcDbLine
 10
227.4828559978093
 20
161.6848773937926
 30
0.0
 11
227.4828559978093
 21
161.1848773937926
 31
0.0
1001
Sigma
1000

  0
LINE
  5
697
330
1A
100
AcDbEntity
  8
CENTER
  6
CENTER
370
    15
100
AcDbLine
 10
188.4828559978093
 20
204.4144266425397
 30
0.0
 11
188.4828559978093
 21
316.6848773937926
 31
0.0
1001
Sigma
1000

  0
LINE
  5
698
330
1A
100
AcDbEntity
  8
0
  6
Continuous
 62
     7
370
    30
100
AcDbLine
 10
215.4828559978093
 20
256.6848773937926
 30
0.0
 11
215.4828559978093
 21
302.6848773937925
 31
0.0
1001
Sigma
1000

  0
LINE
  5
699
330
1A
100
AcDbEntity
  8
0
  6
Continuous
 62
     7
370
    30
100
AcDbLine
 10
216.4828559978093
 20
256.6848773937926
 30
0.0
 11
216.4828559978093
 21
302.6848773937925
 31
0.0
1001
Sigma
1000

  0
LINE
  5
69A
330
1A
100
AcDbEntity
  8
0
  6
Continuous
 62
     7
370
    30
100
AcDbLine
 10
222.4828559978093
 20
256.6848773937926
 30
0.0
 11
222.4828559978093
 21
302.6848773937925
 31
0.0
1001
Sigma
1000

  0
LINE
  5
69B
330
1A
100
AcDbEntity
  8
0
  6
Continuous
 62
     7
370
    30
100
AcDbLine
 10
221.4828559978093
 20
256.6848773937926
 30
0.0
 11
221.4828559978093
 21
302.6848773937925
 31
0.0
1001
Sigma
1000

  0
LINE
  5
69C
330
1A
100
AcDbEntity
  8
0
  6
Continuous
 62
     7
370
    30
100
AcDbLine
 10
223.4828559978093
 20
256.6848773937926
 30
0.0
 11
223.4828559978093
 21
302.6848773937925
 31
0.0
1001
Sigma
1000

  0
LINE
  5
69D
330
1A
100
AcDbEntity
  8
0
  6
Continuous
 62
     7
370
    30
100
AcDbLine
 10
227.4828559978093
 20
256.6848773937926
 30
0.0
 11
227.4828559978093
 21
302.6848773937925
 31
0.0
1001
Sigma
1000

  0
LINE
  5
69E
330
1A
100
AcDbEntity
  8
0
  6
Continuous
 62
     7
370
    30
100
AcDbLine
 10
220.4828559978093
 20
256.6848773937926
 30
0.0
 11
220.4828559978093
 21
302.6848773937925
 31
0.0
1001
Sigma
1000

  0
LINE
  5
69F
330
1A
100
AcDbEntity
  8
0
  6
Continuous
 62
     7
370
    30
100
AcDbLine
 10
219.4828559978093
 20
256.6848773937926
 30
0.0
 11
219.4828559978093
 21
302.6848773937925
 31
0.0
1001
Sigma
1000

  0
LINE
  5
6A0
330
1A
100
AcDbEntity
  8
0
  6
Continuous
 62
     7
370
    30
100
AcDbLine
 10
218.4828559978093
 20
256.6848773937926
 30
0.0
 11
218.4828559978093
 21
302.6848773937925
 31
0.0
1001
Sigma
1000

  0
LINE
  5
6A1
330
1A
100
AcDbEntity
  8
0
  6
Continuous
 62
     7
370
    30
100
AcDbLine
 10
217.4828559978093
 20
256.6848773937926
 30
0.0
 11
217.4828559978093
 21
302.6848773937925
 31
0.0
1001
Sigma
1000

  0
LINE
  5
6A2
330
1A
100
AcDbEntity
  8
0
  6
Continuous
 62
     7
370
    30
100
AcDbLine
 10
161.4828559978093
 20
256.6848773937926
 30
0.0
 11
161.4828559978093
 21
302.6848773937925
 31
0.0
1001
Sigma
1000

  0
LINE
  5
6A3
330
1A
100
AcDbEntity
  8
0
  6
Continuous
 62
     7
370
    30
100
AcDbLine
 10
160.4828559978093
 20
256.6848773937926
 30
0.0
 11
160.4828559978093
 21
302.6848773937925
 31
0.0
1001
Sigma
1000

  0
LINE
  5
6A4
330
1A
100
AcDbEntity
  8
0
  6
Continuous
 62
     7
370
    30
100
AcDbLine
 10
154.4828559977894
 20
256.6848773937926
 30
0.0
 11
154.4828559977894
 21
302.6848773937925
 31
0.0
1001
Sigma
1000

  0
LINE
  5
6A5
330
1A
100
AcDbEntity
  8
0
  6
Continuous
 62
     7
370
    30
100
AcDbLine
 10
155.4828559977894
 20
256.6848773937926
 30
0.0
 11
155.4828559977894
 21
302.6848773937925
 31
0.0
1001
Sigma
1000

  0
LINE
  5
6A6
330
1A
100
AcDbEntity
  8
0
  6
Continuous
 62
     7
370
    30
100
AcDbLine
 10
153.4828559977894
 20
256.6848773937926
 30
0.0
 11
153.4828559977894
 21
302.6848773937925
 31
0.0
1001
Sigma
1000

  0
LINE
  5
6A7
330
1A
100
AcDbEntity
  8
0
  6
Continuous
 62
     7
370
    30
100
AcDbLine
 10
149.4828559977894
 20
256.6848773937926
 30
0.0
 11
149.4828559977894
 21
302.6848773937925
 31
0.0
1001
Sigma
1000

  0
LINE
  5
6A8
330
1A
100
AcDbEntity
  8
0
  6
Continuous
 62
     7
370
    30
100
AcDbLine
 10
156.4828559977894
 20
256.6848773937926
 30
0.0
 11
156.4828559977894
 21
302.6848773937925
 31
0.0
1001
Sigma
1000

  0
LINE
  5
6A9
330
1A
100
AcDbEntity
  8
0
  6
Continuous
 62
     7
370
    30
100
AcDbLine
 10
157.4828559977893
 20
256.6848773937926
 30
0.0
 11
157.4828559977893
 21
302.6848773937925
 31
0.0
1001
Sigma
1000

  0
LINE
  5
6AA
330
1A
100
AcDbEntity
  8
0
  6
Continuous
 62
     7
370
    30
100
AcDbLine
 10
158.4828559978093
 20
256.6848773937926
 30
0.0
 11
158.4828559978093
 21
302.6848773937925
 31
0.0
1001
Sigma
1000

  0
LINE
  5
6AB
330
1A
100
AcDbEntity
  8
0
  6
Continuous
 62
     7
370
    30
100
AcDbLine
 10
159.4828559978093
 20
256.6848773937926
 30
0.0
 11
159.4828559978093
 21
302.6848773937925
 31
0.0
1001
Sigma
1000

  0
LINE
  5
6AC
330
1A
100
AcDbEntity
  8
0
  6
Continuous
 62
     7
370
    30
100
AcDbLine
 10
134.9828559977894
 20
213.6848773937927
 30
0.0
 11
134.9828559977894
 21
299.6848773937925
 31
0.0
1001
Sigma
1000

  0
LINE
  5
6AD
330
1A
100
AcDbEntity
  8
0
  6
Continuous
 62
     7
370
    30
100
AcDbLine
 10
241.9828559978093
 20
213.6848773937927
 30
0.0
 11
241.9828559978093
 21
299.6848773937925
 31
0.0
1001
Sigma
1000

  0
LINE
  5
6AE
330
1A
100
AcDbEntity
  8
0
  6
Continuous
 62
     7
370
    30
100
AcDbLine
 10
215.4828559978093
 20
210.6848773937916
 30
0.0
 11
188.4828559978093
 21
210.6848773937916
 31
0.0
1001
Sigma
1000

  0
LINE
  5
6AF
330
1A
100
AcDbEntity
  8
CENTER
  6
CENTER
370
    15
100
AcDbLine
 10
128.4828559977893
 20
256.6848773937926
 30
0.0
 11
248.4828559978123
 21
256.6848773937926
 31
0.0
1001
Sigma
1000

  0
LINE
  5
6B0
330
1A
100
AcDbEntity
  8
0
  6
Continuous
 62
     7
370
    30
100
AcDbLine
 10
161.4828559978093
 20
256.6848773937916
 30
0.0
 11
161.4828559978093
 21
210.6848773937916
 31
0.0
1001
Sigma
1000

  0
LINE
  5
6B1
330
1A
100
AcDbEntity
  8
0
  6
Continuous
 62
     7
370
    30
100
AcDbLine
 10
160.4828559978093
 20
256.6848773937916
 30
0.0
 11
160.4828559978093
 21
210.6848773937916
 31
0.0
1001
Sigma
1000

  0
LINE
  5
6B2
330
1A
100
AcDbEntity
  8
0
  6
Continuous
 62
     7
370
    30
100
AcDbLine
 10
154.4828559977894
 20
256.6848773937916
 30
0.0
 11
154.4828559977894
 21
210.6848773937916
 31
0.0
1001
Sigma
1000

  0
LINE
  5
6B3
330
1A
100
AcDbEntity
  8
0
  6
Continuous
 62
     7
370
    30
100
AcDbLine
 10
155.4828559977894
 20
256.6848773937916
 30
0.0
 11
155.4828559977894
 21
210.6848773937916
 31
0.0
1001
Sigma
1000

  0
LINE
  5
6B4
330
1A
100
AcDbEntity
  8
0
  6
Continuous
 62
     7
370
    30
100
AcDbLine
 10
153.4828559977894
 20
256.6848773937916
 30
0.0
 11
153.4828559977894
 21
210.6848773937916
 31
0.0
1001
Sigma
1000

  0
LINE
  5
6B5
330
1A
100
AcDbEntity
  8
0
  6
Continuous
 62
     7
370
    30
100
AcDbLine
 10
149.4828559977894
 20
256.6848773937916
 30
0.0
 11
149.4828559977894
 21
210.6848773937916
 31
0.0
1001
Sigma
1000

  0
LINE
  5
6B6
330
1A
100
AcDbEntity
  8
0
  6
Continuous
 62
     7
370
    30
100
AcDbLine
 10
156.4828559977894
 20
256.6848773937916
 30
0.0
 11
156.4828559977894
 21
210.6848773937916
 31
0.0
1001
Sigma
1000

  0
LINE
  5
6B7
330
1A
100
AcDbEntity
  8
0
  6
Continuous
 62
     7
370
    30
100
AcDbLine
 10
157.4828559977893
 20
256.6848773937916
 30
0.0
 11
157.4828559977893
 21
210.6848773937916
 31
0.0
1001
Sigma
1000

  0
LINE
  5
6B8
330
1A
100
AcDbEntity
  8
0
  6
Continuous
 62
     7
370
    30
100
AcDbLine
 10
158.4828559978093
 20
256.6848773937916
 30
0.0
 11
158.4828559978093
 21
210.6848773937916
 31
0.0
1001
Sigma
1000

  0
LINE
  5
6B9
330
1A
100
AcDbEntity
  8
0
  6
Continuous
 62
     7
370
    30
100
AcDbLine
 10
159.4828559978093
 20
256.6848773937916
 30
0.0
 11
159.4828559978093
 21
210.6848773937916
 31
0.0
1001
Sigma
1000

  0
LINE
  5
6BA
330
1A
100
AcDbEntity
  8
0
  6
Continuous
 62
     7
370
    30
100
AcDbLine
 10
159.4828559978093
 20
210.6848773937916
 30
0.0
 11
160.4828559978093
 21
210.6848773937916
 31
0.0
1001
Sigma
1000

  0
LINE
  5
6BB
330
1A
100
AcDbEntity
  8
0
  6
Continuous
 62
     7
370
    30
100
AcDbLine
 10
137.9828559977894
 20
210.6848773937926
 30
0.0
 11
149.4828559977894
 21
210.6848773937916
 31
0.0
1001
Sigma
1000

  0
ARC
  5
6BC
330
1A
100
AcDbEntity
  8
0
  6
Continuous
 62
     7
370
    30
100
AcDbCircle
 10
137.9828559977894
 20
213.6848773937927
 30
0.0
 40
3.0
100
AcDbArc
 50
180.0
 51
270.0
1001
Sigma
1000

  0
LINE
  5
6BD
330
1A
100
AcDbEntity
  8
0
  6
Continuous
 62
     7
370
    30
100
AcDbLine
 10
149.4828559977894
 20
211.1848773937926
 30
0.0
 11
153.4828559977894
 21
211.1848773937926
 31
0.0
1001
Sigma
1000

  0
LINE
  5
6BE
330
1A
100
AcDbEntity
  8
0
  6
Continuous
 62
     7
370
    30
100
AcDbLine
 10
149.4828559977894
 20
210.6848773937926
 30
0.0
 11
149.4828559977894
 21
211.1848773937926
 31
0.0
1001
Sigma
1000

  0
LINE
  5
6BF
330
1A
100
AcDbEntity
  8
0
  6
Continuous
 62
     7
370
    30
100
AcDbLine
 10
155.4828559977894
 20
210.6848773937916
 30
0.0
 11
156.4828559977894
 21
210.6848773937916
 31
0.0
1001
Sigma
1000

  0
LINE
  5
6C0
330
1A
100
AcDbEntity
  8
0
  6
Continuous
 62
     7
370
    30
100
AcDbLine
 10
153.4828559977894
 20
210.6848773937926
 30
0.0
 11
154.4828559977894
 21
210.6848773937916
 31
0.0
1001
Sigma
1000

  0
LINE
  5
6C1
330
1A
100
AcDbEntity
  8
0
  6
Continuous
 62
     7
370
    30
100
AcDbLine
 10
154.4828559977894
 20
211.1848773937926
 30
0.0
 11
155.4828559977894
 21
211.1848773937926
 31
0.0
1001
Sigma
1000

  0
LINE
  5
6C2
330
1A
100
AcDbEntity
  8
0
  6
Continuous
 62
     7
370
    30
100
AcDbLine
 10
153.4828559977894
 20
211.1848773937926
 30
0.0
 11
153.4828559977894
 21
210.6848773937926
 31
0.0
1001
Sigma
1000

  0
LINE
  5
6C3
330
1A
100
AcDbEntity
  8
0
  6
Continuous
 62
     7
370
    30
100
AcDbLine
 10
157.4828559977893
 20
210.6848773937916
 30
0.0
 11
158.4828559978093
 21
210.6848773937916
 31
0.0
1001
Sigma
1000

  0
LINE
  5
6C4
330
1A
100
AcDbEntity
  8
0
  6
Continuous
 62
     7
370
    30
100
AcDbLine
 10
156.4828559977894
 20
211.1848773937926
 30
0.0
 11
157.4828559977893
 21
211.1848773937926
 31
0.0
1001
Sigma
1000

  0
LINE
  5
6C5
330
1A
100
AcDbEntity
  8
0
  6
Continuous
 62
     7
370
    30
100
AcDbLine
 10
158.4828559978093
 20
211.1848773937926
 30
0.0
 11
159.4828559978093
 21
211.1848773937926
 31
0.0
1001
Sigma
1000

  0
LINE
  5
6C6
330
1A
100
AcDbEntity
  8
0
  6
Continuous
 62
     7
370
    30
100
AcDbLine
 10
161.4828559978093
 20
210.6848773937916
 30
0.0
 11
188.4828559978093
 21
210.6848773937916
 31
0.0
1001
Sigma
1000

  0
LINE
  5
6C7
330
1A
100
AcDbEntity
  8
0
  6
Continuous
 62
     7
370
    30
100
AcDbLine
 10
160.4828559978093
 20
211.1848773937926
 30
0.0
 11
161.4828559978093
 21
211.1848773937926
 31
0.0
1001
Sigma
1000

  0
ARC
  5
6C8
330
1A
100
AcDbEntity
  8
0
  6
Continuous
 62
     7
370
    30
100
AcDbCircle
 10
188.4828559978093
 20
211.3098773937926
 30
0.0
 40
1.625
100
AcDbArc
 50
202.6198649480401
 51
337.3801350519598
1001
Sigma
1000

  0
LINE
  5
6C9
330
1A
100
AcDbEntity
  8
0
  6
Continuous
 62
     7
370
    30
100
AcDbLine
 10
134.4828559977893
 20
236.6848773937926
 30
0.0
 11
134.4828559977893
 21
256.6848773937926
 31
0.0
1001
Sigma
1000

  0
LINE
  5
6CA
330
1A
100
AcDbEntity
  8
0
  6
Continuous
 62
     7
370
    30
100
AcDbLine
 10
133.4828559977893
 20
236.6848773937926
 30
0.0
 11
133.4828559977893
 21
256.6848773937926
 31
0.0
1001
Sigma
1000

  0
LINE
  5
6CB
330
1A
100
AcDbEntity
  8
0
  6
Continuous
 62
     7
370
    30
100
AcDbLine
 10
132.4828559977893
 20
246.6848773937926
 30
0.0
 11
132.4828559977893
 21
256.6848773937926
 31
0.0
1001
Sigma
1000

  0
LINE
  5
6CC
330
1A
100
AcDbEntity
  8
0
  6
Continuous
 62
     7
370
    30
100
AcDbLine
 10
133.4828559977893
 20
236.6848773937926
 30
0.0
 11
134.9828559977894
 21
236.6848773937926
 31
0.0
1001
Sigma
1000

  0
LINE
  5
6CD
330
1A
100
AcDbEntity
  8
0
  6
Continuous
 62
     7
370
    30
100
AcDbLine
 10
133.4828559977893
 20
246.6848773937926
 30
0.0
 11
132.4828559977893
 21
246.6848773937926
 31
0.0
1001
Sigma
1000

  0
LINE
  5
6CE
330
1A
100
AcDbEntity
  8
0
  6
Continuous
 62
     7
370
    30
100
AcDbLine
 10
134.9828559977894
 20
244.1848773937926
 30
0.0
 11
134.4828559977893
 21
244.1848773937926
 31
0.0
1001
Sigma
1000

  0
LINE
  5
6CF
330
1A
100
AcDbEntity
  8
0
  6
Continuous
 62
     7
370
    30
100
AcDbLine
 10
134.4828559977893
 20
276.6848773937927
 30
0.0
 11
134.4828559977893
 21
256.6848773937926
 31
0.0
1001
Sigma
1000

  0
LINE
  5
6D0
330
1A
100
AcDbEntity
  8
0
  6
Continuous
 62
     7
370
    30
100
AcDbLine
 10
133.4828559977893
 20
276.6848773937927
 30
0.0
 11
133.4828559977893
 21
256.6848773937926
 31
0.0
1001
Sigma
1000

  0
LINE
  5
6D1
330
1A
100
AcDbEntity
  8
0
  6
Continuous
 62
     7
370
    30
100
AcDbLine
 10
132.4828559977893
 20
266.6848773937926
 30
0.0
 11
132.4828559977893
 21
256.6848773937926
 31
0.0
1001
Sigma
1000

  0
LINE
  5
6D2
330
1A
100
AcDbEntity
  8
0
  6
Continuous
 62
     7
370
    30
100
AcDbLine
 10
133.4828559977893
 20
266.6848773937926
 30
0.0
 11
132.4828559977893
 21
266.6848773937926
 31
0.0
1001
Sigma
1000

  0
LINE
  5
6D3
330
1A
100
AcDbEntity
  8
0
  6
Continuous
 62
     7
370
    30
100
AcDbLine
 10
134.9828559977894
 20
269.1848773937926
 30
0.0
 11
134.4828559977893
 21
269.1848773937926
 31
0.0
1001
Sigma
1000

  0
LINE
  5
6D4
330
1A
100
AcDbEntity
  8
0
  6
Continuous
 62
     7
370
    30
100
AcDbLine
 10
133.4828559977893
 20
276.6848773937927
 30
0.0
 11
134.9828559977894
 21
276.6848773937927
 31
0.0
1001
Sigma
1000

  0
LINE
  5
6D5
330
1A
100
AcDbEntity
  8
0
  6
Continuous
 62
     7
370
    30
100
AcDbLine
 10
215.4828559978093
 20
256.6848773937916
 30
0.0
 11
215.4828559978093
 21
210.6848773937916
 31
0.0
1001
Sigma
1000

  0
LINE
  5
6D6
330
1A
100
AcDbEntity
  8
0
  6
Continuous
 62
     7
370
    30
100
AcDbLine
 10
216.4828559978093
 20
256.6848773937916
 30
0.0
 11
216.4828559978093
 21
210.6848773937916
 31
0.0
1001
Sigma
1000

  0
LINE
  5
6D7
330
1A
100
AcDbEntity
  8
0
  6
Continuous
 62
     7
370
    30
100
AcDbLine
 10
222.4828559978093
 20
256.6848773937916
 30
0.0
 11
222.4828559978093
 21
210.6848773937916
 31
0.0
1001
Sigma
1000

  0
LINE
  5
6D8
330
1A
100
AcDbEntity
  8
0
  6
Continuous
 62
     7
370
    30
100
AcDbLine
 10
221.4828559978093
 20
256.6848773937916
 30
0.0
 11
221.4828559978093
 21
210.6848773937916
 31
0.0
1001
Sigma
1000

  0
LINE
  5
6D9
330
1A
100
AcDbEntity
  8
0
  6
Continuous
 62
     7
370
    30
100
AcDbLine
 10
223.4828559978093
 20
256.6848773937916
 30
0.0
 11
223.4828559978093
 21
210.6848773937916
 31
0.0
1001
Sigma
1000

  0
LINE
  5
6DA
330
1A
100
AcDbEntity
  8
0
  6
Continuous
 62
     7
370
    30
100
AcDbLine
 10
227.4828559978093
 20
256.6848773937916
 30
0.0
 11
227.4828559978093
 21
210.6848773937916
 31
0.0
1001
Sigma
1000

  0
LINE
  5
6DB
330
1A
100
AcDbEntity
  8
0
  6
Continuous
 62
     7
370
    30
100
AcDbLine
 10
220.4828559978093
 20
256.6848773937916
 30
0.0
 11
220.4828559978093
 21
210.6848773937916
 31
0.0
1001
Sigma
1000

  0
LINE
  5
6DC
330
1A
100
AcDbEntity
  8
0
  6
Continuous
 62
     7
370
    30
100
AcDbLine
 10
219.4828559978093
 20
256.6848773937916
 30
0.0
 11
219.4828559978093
 21
210.6848773937916
 31
0.0
1001
Sigma
1000

  0
LINE
  5
6DD
330
1A
100
AcDbEntity
  8
0
  6
Continuous
 62
     7
370
    30
100
AcDbLine
 10
218.4828559978093
 20
256.6848773937916
 30
0.0
 11
218.4828559978093
 21
210.6848773937916
 31
0.0
1001
Sigma
1000

  0
LINE
  5
6DE
330
1A
100
AcDbEntity
  8
0
  6
Continuous
 62
     7
370
    30
100
AcDbLine
 10
217.4828559978093
 20
256.6848773937916
 30
0.0
 11
217.4828559978093
 21
210.6848773937916
 31
0.0
1001
Sigma
1000

  0
LINE
  5
6DF
330
1A
100
AcDbEntity
  8
0
  6
Continuous
 62
     7
370
    30
100
AcDbLine
 10
227.4828559978093
 20
211.1848773937926
 30
0.0
 11
223.4828559978093
 21
211.1848773937926
 31
0.0
1001
Sigma
1000

  0
LINE
  5
6E0
330
1A
100
AcDbEntity
  8
0
  6
Continuous
 62
     7
370
    30
100
AcDbLine
 10
217.4828559978093
 20
210.6848773937916
 30
0.0
 11
216.4828559978093
 21
210.6848773937916
 31
0.0
1001
Sigma
1000

  0
LINE
  5
6E1
330
1A
100
AcDbEntity
  8
0
  6
Continuous
 62
     7
370
    30
100
AcDbLine
 10
216.4828559978093
 20
211.1848773937926
 30
0.0
 11
215.4828559978093
 21
211.1848773937926
 31
0.0
1001
Sigma
1000

  0
LINE
  5
6E2
330
1A
100
AcDbEntity
  8
0
  6
Continuous
 62
     7
370
    30
100
AcDbLine
 10
221.4828559978093
 20
210.6848773937916
 30
0.0
 11
220.4828559978093
 21
210.6848773937916
 31
0.0
1001
Sigma
1000

  0
LINE
  5
6E3
330
1A
100
AcDbEntity
  8
0
  6
Continuous
 62
     7
370
    30
100
AcDbLine
 10
219.4828559978093
 20
210.6848773937916
 30
0.0
 11
218.4828559978093
 21
210.6848773937916
 31
0.0
1001
Sigma
1000

  0
LINE
  5
6E4
330
1A
100
AcDbEntity
  8
0
  6
Continuous
 62
     7
370
    30
100
AcDbLine
 10
220.4828559978093
 20
211.1848773937926
 30
0.0
 11
219.4828559978093
 21
211.1848773937926
 31
0.0
1001
Sigma
1000

  0
LINE
  5
6E5
330
1A
100
AcDbEntity
  8
0
  6
Continuous
 62
     7
370
    30
100
AcDbLine
 10
218.4828559978093
 20
211.1848773937926
 30
0.0
 11
217.4828559978093
 21
211.1848773937926
 31
0.0
1001
Sigma
1000

  0
LINE
  5
6E6
330
1A
100
AcDbEntity
  8
0
  6
Continuous
 62
     7
370
    30
100
AcDbLine
 10
223.4828559978093
 20
210.6848773937926
 30
0.0
 11
222.4828559978093
 21
210.6848773937916
 31
0.0
1001
Sigma
1000

  0
LINE
  5
6E7
330
1A
100
AcDbEntity
  8
0
  6
Continuous
 62
     7
370
    30
100
AcDbLine
 10
222.4828559978093
 20
211.1848773937926
 30
0.0
 11
221.4828559978093
 21
211.1848773937926
 31
0.0
1001
Sigma
1000

  0
LINE
  5
6E8
330
1A
100
AcDbEntity
  8
0
  6
Continuous
 62
     7
370
    30
100
AcDbLine
 10
223.4828559978093
 20
211.1848773937926
 30
0.0
 11
223.4828559978093
 21
210.6848773937926
 31
0.0
1001
Sigma
1000

  0
ARC
  5
6E9
330
1A
100
AcDbEntity
  8
0
  6
Continuous
 62
     7
370
    30
100
AcDbCircle
 10
238.9828559978093
 20
213.6848773937927
 30
0.0
 40
3.0
100
AcDbArc
 50
270.0
 51
0.0
1001
Sigma
1000

  0
LINE
  5
6EA
330
1A
100
AcDbEntity
  8
0
  6
Continuous
 62
     7
370
    30
100
AcDbLine
 10
238.9828559978093
 20
210.6848773937926
 30
0.0
 11
227.4828559978093
 21
210.6848773937916
 31
0.0
1001
Sigma
1000

  0
LINE
  5
6EB
330
1A
100
AcDbEntity
  8
0
  6
Continuous
 62
     7
370
    30
100
AcDbLine
 10
227.4828559978093
 20
210.6848773937926
 30
0.0
 11
227.4828559978093
 21
211.1848773937926
 31
0.0
1001
Sigma
1000

  0
LINE
  5
6EC
330
1A
100
AcDbEntity
  8
0
  6
Continuous
 62
     7
370
    30
100
AcDbLine
 10
242.4828559978093
 20
236.6848773937926
 30
0.0
 11
242.4828559978093
 21
256.6848773937926
 31
0.0
1001
Sigma
1000

  0
LINE
  5
6ED
330
1A
100
AcDbEntity
  8
0
  6
Continuous
 62
     7
370
    30
100
AcDbLine
 10
243.4828559978093
 20
236.6848773937926
 30
0.0
 11
243.4828559978093
 21
256.6848773937926
 31
0.0
1001
Sigma
1000

  0
LINE
  5
6EE
330
1A
100
AcDbEntity
  8
0
  6
Continuous
 62
     7
370
    30
100
AcDbLine
 10
244.4828559978093
 20
246.6848773937926
 30
0.0
 11
244.4828559978093
 21
256.6848773937926
 31
0.0
1001
Sigma
1000

  0
LINE
  5
6EF
330
1A
100
AcDbEntity
  8
0
  6
Continuous
 62
     7
370
    30
100
AcDbLine
 10
243.4828559978093
 20
236.6848773937926
 30
0.0
 11
241.9828559978093
 21
236.6848773937926
 31
0.0
1001
Sigma
1000

  0
LINE
  5
6F0
330
1A
100
AcDbEntity
  8
0
  6
Continuous
 62
     7
370
    30
100
AcDbLine
 10
243.4828559978093
 20
246.6848773937926
 30
0.0
 11
244.4828559978093
 21
246.6848773937926
 31
0.0
1001
Sigma
1000

  0
LINE
  5
6F1
330
1A
100
AcDbEntity
  8
0
  6
Continuous
 62
     7
370
    30
100
AcDbLine
 10
241.9828559978093
 20
244.1848773937926
 30
0.0
 11
242.4828559978093
 21
244.1848773937926
 31
0.0
1001
Sigma
1000

  0
LINE
  5
6F2
330
1A
100
AcDbEntity
  8
0
  6
Continuous
 62
     7
370
    30
100
AcDbLine
 10
242.4828559978093
 20
276.6848773937927
 30
0.0
 11
242.4828559978093
 21
256.6848773937926
 31
0.0
1001
Sigma
1000

  0
LINE
  5
6F3
330
1A
100
AcDbEntity
  8
0
  6
Continuous
 62
     7
370
    30
100
AcDbLine
 10
243.4828559978093
 20
276.6848773937927
 30
0.0
 11
243.4828559978093
 21
256.6848773937926
 31
0.0
1001
Sigma
1000

  0
LINE
  5
6F4
330
1A
100
AcDbEntity
  8
0
  6
Continuous
 62
     7
370
    30
100
AcDbLine
 10
244.4828559978093
 20
266.6848773937926
 30
0.0
 11
244.4828559978093
 21
256.6848773937926
 31
0.0
1001
Sigma
1000

  0
LINE
  5
6F5
330
1A
100
AcDbEntity
  8
0
  6
Continuous
 62
     7
370
    30
100
AcDbLine
 10
243.4828559978093
 20
266.6848773937926
 30
0.0
 11
244.4828559978093
 21
266.6848773937926
 31
0.0
1001
Sigma
1000

  0
LINE
  5
6F6
330
1A
100
AcDbEntity
  8
0
  6
Continuous
 62
     7
370
    30
100
AcDbLine
 10
241.9828559978093
 20
269.1848773937926
 30
0.0
 11
242.4828559978093
 21
269.1848773937926
 31
0.0
1001
Sigma
1000

  0
LINE
  5
6F7
330
1A
100
AcDbEntity
  8
0
  6
Continuous
 62
     7
370
    30
100
AcDbLine
 10
243.4828559978093
 20
276.6848773937927
 30
0.0
 11
241.9828559978093
 21
276.6848773937927
 31
0.0
1001
Sigma
1000

  0
LINE
  5
6F8
330
1A
100
AcDbEntity
  8
0
  6
Continuous
 62
     7
370
    30
100
AcDbLine
 10
215.4828559978093
 20
302.6848773937925
 30
0.0
 11
188.4828559978093
 21
302.6848773937925
 31
0.0
1001
Sigma
1000

  0
LINE
  5
6F9
330
1A
100
AcDbEntity
  8
0
  6
Continuous
 62
     7
370
    30
100
AcDbLine
 10
159.4828559978093
 20
302.6848773937925
 30
0.0
 11
160.4828559978093
 21
302.6848773937925
 31
0.0
1001
Sigma
1000

  0
ARC
  5
6FA
330
1A
100
AcDbEntity
  8
0
  6
Continuous
 62
     7
370
    30
100
AcDbCircle
 10
137.9828559977894
 20
299.6848773937925
 30
0.0
 40
3.0
100
AcDbArc
 50
90.0
 51
180.0
1001
Sigma
1000

  0
LINE
  5
6FB
330
1A
100
AcDbEntity
  8
0
  6
Continuous
 62
     7
370
    30
100
AcDbLine
 10
137.9828559977894
 20
302.6848773937925
 30
0.0
 11
149.4828559977894
 21
302.6848773937925
 31
0.0
1001
Sigma
1000

  0
LINE
  5
6FC
330
1A
100
AcDbEntity
  8
0
  6
Continuous
 62
     7
370
    30
100
AcDbLine
 10
149.4828559977894
 20
302.1848773937926
 30
0.0
 11
153.4828559977894
 21
302.1848773937926
 31
0.0
1001
Sigma
1000

  0
LINE
  5
6FD
330
1A
100
AcDbEntity
  8
0
  6
Continuous
 62
     7
370
    30
100
AcDbLine
 10
149.4828559977894
 20
302.6848773937925
 30
0.0
 11
149.4828559977894
 21
302.1848773937926
 31
0.0
1001
Sigma
1000

  0
LINE
  5
6FE
330
1A
100
AcDbEntity
  8
0
  6
Continuous
 62
     7
370
    30
100
AcDbLine
 10
155.4828559977894
 20
302.6848773937925
 30
0.0
 11
156.4828559977894
 21
302.6848773937925
 31
0.0
1001
Sigma
1000

  0
LINE
  5
6FF
330
1A
100
AcDbEntity
  8
0
  6
Continuous
 62
     7
370
    30
100
AcDbLine
 10
153.4828559977894
 20
302.6848773937925
 30
0.0
 11
154.4828559977894
 21
302.6848773937925
 31
0.0
1001
Sigma
1000

  0
LINE
  5
700
330
1A
100
AcDbEntity
  8
0
  6
Continuous
 62
     7
370
    30
100
AcDbLine
 10
154.4828559977894
 20
302.1848773937926
 30
0.0
 11
155.4828559977894
 21
302.1848773937926
 31
0.0
1001
Sigma
1000

  0
LINE
  5
701
330
1A
100
AcDbEntity
  8
0
  6
Continuous
 62
     7
370
    30
100
AcDbLine
 10
153.4828559977894
 20
302.1848773937926
 30
0.0
 11
153.4828559977894
 21
302.6848773937925
 31
0.0
1001
Sigma
1000

  0
LINE
  5
702
330
1A
100
AcDbEntity
  8
0
  6
Continuous
 62
     7
370
    30
100
AcDbLine
 10
157.4828559977893
 20
302.6848773937925
 30
0.0
 11
158.4828559978093
 21
302.6848773937925
 31
0.0
1001
Sigma
1000

  0
LINE
  5
703
330
1A
100
AcDbEntity
  8
0
  6
Continuous
 62
     7
370
    30
100
AcDbLine
 10
156.4828559977894
 20
302.1848773937926
 30
0.0
 11
157.4828559977893
 21
302.1848773937926
 31
0.0
1001
Sigma
1000

  0
LINE
  5
704
330
1A
100
AcDbEntity
  8
0
  6
Continuous
 62
     7
370
    30
100
AcDbLine
 10
158.4828559978093
 20
302.1848773937926
 30
0.0
 11
159.4828559978093
 21
302.1848773937926
 31
0.0
1001
Sigma
1000

  0
LINE
  5
705
330
1A
100
AcDbEntity
  8
0
  6
Continuous
 62
     7
370
    30
100
AcDbLine
 10
161.4828559978093
 20
302.6848773937925
 30
0.0
 11
188.4828559978093
 21
302.6848773937925
 31
0.0
1001
Sigma
1000

  0
LINE
  5
706
330
1A
100
AcDbEntity
  8
0
  6
Continuous
 62
     7
370
    30
100
AcDbLine
 10
160.4828559978093
 20
302.1848773937926
 30
0.0
 11
161.4828559978093
 21
302.1848773937926
 31
0.0
1001
Sigma
1000

  0
LINE
  5
707
330
1A
100
AcDbEntity
  8
0
  6
Continuous
 62
     7
370
    30
100
AcDbLine
 10
227.4828559978093
 20
302.1848773937926
 30
0.0
 11
223.4828559978093
 21
302.1848773937926
 31
0.0
1001
Sigma
1000

  0
LINE
  5
708
330
1A
100
AcDbEntity
  8
0
  6
Continuous
 62
     7
370
    30
100
AcDbLine
 10
217.4828559978093
 20
302.6848773937925
 30
0.0
 11
216.4828559978093
 21
302.6848773937925
 31
0.0
1001
Sigma
1000

  0
LINE
  5
709
330
1A
100
AcDbEntity
  8
0
  6
Continuous
 62
     7
370
    30
100
AcDbLine
 10
216.4828559978093
 20
302.1848773937926
 30
0.0
 11
215.4828559978093
 21
302.1848773937926
 31
0.0
1001
Sigma
1000

  0
LINE
  5
70A
330
1A
100
AcDbEntity
  8
0
  6
Continuous
 62
     7
370
    30
100
AcDbLine
 10
221.4828559978093
 20
302.6848773937925
 30
0.0
 11
220.4828559978093
 21
302.6848773937925
 31
0.0
1001
Sigma
1000

  0
LINE
  5
70B
330
1A
100
AcDbEntity
  8
0
  6
Continuous
 62
     7
370
    30
100
AcDbLine
 10
219.4828559978093
 20
302.6848773937925
 30
0.0
 11
218.4828559978093
 21
302.6848773937925
 31
0.0
1001
Sigma
1000

  0
LINE
  5
70C
330
1A
100
AcDbEntity
  8
0
  6
Continuous
 62
     7
370
    30
100
AcDbLine
 10
220.4828559978093
 20
302.1848773937926
 30
0.0
 11
219.4828559978093
 21
302.1848773937926
 31
0.0
1001
Sigma
1000

  0
LINE
  5
70D
330
1A
100
AcDbEntity
  8
0
  6
Continuous
 62
     7
370
    30
100
AcDbLine
 10
218.4828559978093
 20
302.1848773937926
 30
0.0
 11
217.4828559978093
 21
302.1848773937926
 31
0.0
1001
Sigma
1000

  0
LINE
  5
70E
330
1A
100
AcDbEntity
  8
0
  6
Continuous
 62
     7
370
    30
100
AcDbLine
 10
223.4828559978093
 20
302.6848773937925
 30
0.0
 11
222.4828559978093
 21
302.6848773937925
 31
0.0
1001
Sigma
1000

  0
LINE
  5
70F
330
1A
100
AcDbEntity
  8
0
  6
Continuous
 62
     7
370
    30
100
AcDbLine
 10
222.4828559978093
 20
302.1848773937926
 30
0.0
 11
221.4828559978093
 21
302.1848773937926
 31
0.0
1001
Sigma
1000

  0
LINE
  5
710
330
1A
100
AcDbEntity
  8
0
  6
Continuous
 62
     7
370
    30
100
AcDbLine
 10
223.4828559978093
 20
302.1848773937926
 30
0.0
 11
223.4828559978093
 21
302.6848773937925
 31
0.0
1001
Sigma
1000

  0
ARC
  5
711
330
1A
100
AcDbEntity
  8
0
  6
Continuous
 62
     7
370
    30
100
AcDbCircle
 10
238.9828559978093
 20
299.6848773937925
 30
0.0
 40
3.0
100
AcDbArc
 50
0.0
 51
90.0
1001
Sigma
1000

  0
LINE
  5
712
330
1A
100
AcDbEntity
  8
0
  6
Continuous
 62
     7
370
    30
100
AcDbLine
 10
238.9828559978093
 20
302.6848773937925
 30
0.0
 11
227.4828559978093
 21
302.6848773937925
 31
0.0
1001
Sigma
1000

  0
LINE
  5
713
330
1A
100
AcDbEntity
  8
0
  6
Continuous
 62
     7
370
    30
100
AcDbLine
 10
227.4828559978093
 20
302.6848773937925
 30
0.0
 11
227.4828559978093
 21
302.1848773937926
 31
0.0
1001
Sigma
1000

  0
LINE
  5
718
330
1A
100
AcDbEntity
  8
0
  6
HIDDEN
 62
     7
370
    30
100
AcDbLine
 10
353.4828559978123
 20
121.6848773937926
 30
0.0
 11
393.4828559978093
 21
121.6848773937926
 31
0.0
1001
Sigma
1000

  0
LINE
  5
719
330
1A
100
AcDbEntity
  8
0
  6
HIDDEN
 62
     7
370
    30
100
AcDbLine
 10
353.4828559978123
 20
102.6848773937926
 30
0.0
 11
393.4828559978093
 21
102.6848773937926
 31
0.0
1001
Sigma
1000

  0
ARC
  5
71A
330
1A
100
AcDbEntity
  8
0
  6
Continuous
 62
     7
370
    30
100
AcDbCircle
 10
383.4828559978092
 20
146.6848773937926
 30
0.0
 40
10.0
100
AcDbArc
 50
0.0
 51
90.0
1001
Sigma
1000

  0
LINE
  5
71B
330
1A
100
AcDbEntity
  8
0
  6
Continuous
 62
     7
370
    30
100
AcDbLine
 10
353.4828559978123
 20
101.6848773937926
 30
0.0
 11
393.4828559978093
 21
101.6848773937926
 31
0.0
1001
Sigma
1000

  0
LINE
  5
71C
330
1A
100
AcDbEntity
  8
CENTER
  6
CENTER
370
    15
100
AcDbLine
 10
313.4828559978123
 20
141.6848773937926
 30
0.0
 11
433.4828559978092
 21
141.6848773937926
 31
0.0
1001
Sigma
1000

  0
LINE
  5
71D
330
1A
100
AcDbEntity
  8
0
  6
Continuous
 62
     7
370
    30
100
AcDbLine
 10
344.4828559978123
 20
161.6848773937926
 30
0.0
 11
411.4828559978092
 21
161.6848773937926
 31
0.0
1001
Sigma
1000

  0
ARC
  5
721
330
1A
100
AcDbEntity
  8
0
  6
Continuous
 62
     7
370
    30
100
AcDbCircle
 10
344.4828559978123
 20
138.6848773937926
 30
0.0
 40
17.0
100
AcDbArc
 50
180.0
 51
270.0
1001
Sigma
1000

  0
LINE
  5
722
330
1A
100
AcDbEntity
  8
0
  6
Continuous
 62
     7
370
    30
100
AcDbLine
 10
353.4828559978123
 20
146.6848773937926
 30
0.0
 11
353.4828559978123
 21
101.6848773937926
 31
0.0
1001
Sigma
1000

  0
CIRCLE
  5
723
330
1A
100
AcDbEntity
  8
0
  6
Continuous
 62
     7
370
    30
100
AcDbCircle
 10
373.4828559978093
 20
141.6848773937926
 30
0.0
 40
10.0
1001
Sigma
1000

  0
LINE
  5
724
330
1A
100
AcDbEntity
  8
CENTER
  6
CENTER
370
    15
100
AcDbLine
 10
373.4828559978093
 20
168.7149274772626
 30
0.0
 11
373.4828559978093
 21
96.50562817339263
 31
0.0
1001
Sigma
1000

  0
LINE
  5
727
330
1A
100
AcDbEntity
  8
0
  6
Continuous
 62
     7
370
    30
100
AcDbLine
 10
344.4828559978123
 20
121.6848773937926
 30
0.0
 11
353.4828559978123
 21
121.6848773937926
 31
0.0
1001
Sigma
1000

  0
LINE
  5
728
330
1A
100
AcDbEntity
  8
0
  6
HIDDEN
 62
     7
370
    30
100
AcDbLine
 10
370.4828559978093
 20
102.6848773937926
 30
0.0
 11
370.4828559978093
 21
101.6848773937926
 31
0.0
1001
Sigma
1000

  0
LINE
  5
729
330
1A
100
AcDbEntity
  8
0
  6
HIDDEN
 62
     7
370
    30
100
AcDbLine
 10
376.4828559978092
 20
102.6848773937926
 30
0.0
 11
376.4828559978092
 21
101.6848773937926
 31
0.0
1001
Sigma
1000

  0
ARC
  5
72A
330
1A
100
AcDbEntity
  8
0
  6
Continuous
 62
     7
370
    30
100
AcDbCircle
 10
363.4828559978093
 20
146.6848773937926
 30
0.0
 40
10.0
100
AcDbArc
 50
90.0
 51
180.0
1001
Sigma
1000

  0
ARC
  5
72B
330
1A
100
AcDbEntity
  8
0
  6
Continuous
 62
     7
370
    30
100
AcDbCircle
 10
344.4828559978123
 20
144.6848773937926
 30
0.0
 40
17.0
100
AcDbArc
 50
90.0
 51
180.0
1001
Sigma
1000

  0
LINE
  5
72C
330
1A
100
AcDbEntity
  8
0
  6
Continuous
 62
     7
370
    30
100
AcDbLine
 10
327.4828559978123
 20
140.6848773937926
 30
0.0
 11
353.4828559978123
 21
140.6848773937926
 31
0.0
1001
Sigma
1000

  0
LINE
  5
72D
330
1A
100
AcDbEntity
  8
0
  6
Continuous
 62
     7
370
    30
100
AcDbLine
 10
327.4828559978123
 20
141.6848773937926
 30
0.0
 11
353.4828559978123
 21
141.6848773937926
 31
0.0
1001
Sigma
1000

  0
LINE
  5
72E
330
1A
100
AcDbEntity
  8
0
  6
Continuous
 62
     7
370
    30
100
AcDbLine
 10
327.4828559978123
 20
142.6848773937926
 30
0.0
 11
353.4828559978123
 21
142.6848773937926
 31
0.0
1001
Sigma
1000

  0
LINE
  5
72F
330
1A
100
AcDbEntity
  8
0
  6
Continuous
 62
     7
370
    30
100
AcDbLine
 10
327.4828559978123
 20
142.6848773937926
 30
0.0
 11
327.4828559978123
 21
144.6848773937926
 31
0.0
1001
Sigma
1000

  0
LINE
  5
730
330
1A
100
AcDbEntity
  8
0
  6
Continuous
 62
     7
370
    30
100
AcDbLine
 10
327.4828559978123
 20
141.6848773937926
 30
0.0
 11
326.4828559978123
 21
141.6848773937926
 31
0.0
1001
Sigma
1000

  0
LINE
  5
731
330
1A
100
AcDbEntity
  8
0
  6
Continuous
 62
     7
370
    30
100
AcDbLine
 10
326.4828559978123
 20
140.6848773937926
 30
0.0
 11
327.4828559978123
 21
140.6848773937926
 31
0.0
1001
Sigma
1000

  0
LINE
  5
732
330
1A
100
AcDbEntity
  8
0
  6
Continuous
 62
     7
370
    30
100
AcDbLine
 10
326.4828559978123
 20
142.6848773937926
 30
0.0
 11
326.4828559978123
 21
140.6848773937926
 31
0.0
1001
Sigma
1000

  0
LINE
  5
733
330
1A
100
AcDbEntity
  8
0
  6
Continuous
 62
     7
370
    30
100
AcDbLine
 10
327.4828559978123
 20
142.6848773937926
 30
0.0
 11
326.4828559978123
 21
142.6848773937926
 31
0.0
1001
Sigma
1000

  0
LINE
  5
734
330
1A
100
AcDbEntity
  8
0
  6
Continuous
 62
     7
370
    30
100
AcDbLine
 10
327.4828559978123
 20
138.6848773937926
 30
0.0
 11
327.4828559978123
 21
140.6848773937926
 31
0.0
1001
Sigma
1000

  0
LINE
  5
737
330
1A
100
AcDbEntity
  8
0
  6
Continuous
 62
     7
370
    30
100
AcDbLine
 10
368.4828559978093
 20
140.6848773937926
 30
0.0
 11
378.4828559978091
 21
140.6848773937926
 31
0.0
1001
Sigma
1000

  0
LINE
  5
738
330
1A
100
AcDbEntity
  8
0
  6
Continuous
 62
     7
370
    30
100
AcDbLine
 10
368.4828559978093
 20
142.6848773937926
 30
0.0
 11
378.4828559978091
 21
142.6848773937926
 31
0.0
1001
Sigma
1000

  0
LINE
  5
739
330
1A
100
AcDbEntity
  8
0
  6
Continuous
 62
     7
370
    30
100
AcDbLine
 10
363.4828559978093
 20
156.6848773937926
 30
0.0
 11
383.4828559978092
 21
156.6848773937926
 31
0.0
1001
Sigma
1000

  0
LINE
  5
73C
330
1A
100
AcDbEntity
  8
0
  6
Continuous
 62
     7
370
    30
100
AcDbLine
 10
393.4828559978093
 20
146.6848773937926
 30
0.0
 11
393.4828559978093
 21
101.6848773937926
 31
0.0
1001
Sigma
1000

  0
LINE
  5
73D
330
1A
100
AcDbEntity
  8
0
  6
Continuous
 62
     7
370
    30
100
AcDbLine
 10
393.4828559978093
 20
121.6848773937926
 30
0.0
 11
411.4828559978092
 21
121.6848773937926
 31
0.0
1001
Sigma
1000

  0
LINE
  5
742
330
1A
100
AcDbEntity
  8
0
  6
Continuous
 62
     7
370
    30
100
AcDbLine
 10
419.4828559978092
 20
140.6848773937926
 30
0.0
 11
393.4828559978093
 21
140.6848773937926
 31
0.0
1001
Sigma
1000

  0
LINE
  5
743
330
1A
100
AcDbEntity
  8
0
  6
Continuous
 62
     7
370
    30
100
AcDbLine
 10
419.4828559978092
 20
141.6848773937926
 30
0.0
 11
393.4828559978093
 21
141.6848773937926
 31
0.0
1001
Sigma
1000

  0
LINE
  5
744
330
1A
100
AcDbEntity
  8
0
  6
Continuous
 62
     7
370
    30
100
AcDbLine
 10
419.4828559978092
 20
142.6848773937926
 30
0.0
 11
393.4828559978093
 21
142.6848773937926
 31
0.0
1001
Sigma
1000

  0
LINE
  5
745
330
1A
100
AcDbEntity
  8
0
  6
Continuous
 62
     7
370
    30
100
AcDbLine
 10
419.4828559978092
 20
142.6848773937926
 30
0.0
 11
419.4828559978092
 21
153.6848773937926
 31
0.0
1001
Sigma
1000

  0
LINE
  5
746
330
1A
100
AcDbEntity
  8
0
  6
Continuous
 62
     7
370
    30
100
AcDbLine
 10
419.4828559978092
 20
141.6848773937926
 30
0.0
 11
420.4828559978093
 21
141.6848773937926
 31
0.0
1001
Sigma
1000

  0
LINE
  5
747
330
1A
100
AcDbEntity
  8
0
  6
Continuous
 62
     7
370
    30
100
AcDbLine
 10
420.4828559978093
 20
140.6848773937926
 30
0.0
 11
419.4828559978092
 21
140.6848773937926
 31
0.0
1001
Sigma
1000

  0
LINE
  5
748
330
1A
100
AcDbEntity
  8
0
  6
Continuous
 62
     7
370
    30
100
AcDbLine
 10
420.4828559978093
 20
142.6848773937926
 30
0.0
 11
420.4828559978093
 21
140.6848773937926
 31
0.0
1001
Sigma
1000

  0
LINE
  5
749
330
1A
100
AcDbEntity
  8
0
  6
Continuous
 62
     7
370
    30
100
AcDbLine
 10
419.4828559978092
 20
142.6848773937926
 30
0.0
 11
420.4828559978093
 21
142.6848773937926
 31
0.0
1001
Sigma
1000

  0
LINE
  5
74A
330
1A
100
AcDbEntity
  8
0
  6
Continuous
 62
     7
370
    30
100
AcDbLine
 10
419.4828559978092
 20
138.6848773937926
 30
0.0
 11
419.4828559978092
 21
140.6848773937926
 31
0.0
1001
Sigma
1000

  0
LINE
  5
74B
330
1A
100
AcDbEntity
  8
0
  6
Continuous
 62
     7
370
    30
100
AcDbLine
 10
419.4828559978092
 20
129.6848773937926
 30
0.0
 11
419.4828559978092
 21
140.6848773937926
 31
0.0
1001
Sigma
1000

  0
DIMENSION
  5
86A
330
1A
100
AcDbEntity
  8
MEASURE
100
AcDbDimension
280
     0
  2
*D1
 10
265.5481943758666
 20
210.6848773937926
 30
0.0
 11
263.2981943758665
 21
256.6848773937926
 31
0.0
 70
    32
 71
     5
 42
91.99999999999988
 73
     0
 74
     0
 75
     0
  3
AD-STANDARD
100
AcDbAlignedDimension
 13
238.9828559978093
 23
302.6848773937925
 33
0.0
 14
238.9828559978093
 24
210.6848773937926
 34
0.0
 50
90.0
100
AcDbRotatedDimension
  0
DIMENSION
  5
877
330
1A
100
AcDbEntity
  8
MEASURE
100
AcDbDimension
280
     0
  2
*D2
 10
244.4828559978093
 20
177.9219528180927
 30
0.0
 11
188.4828559977993
 21
180.1719528180927
 31
0.0
 70
    32
 71
     5
 42
112.00000000002
 73
     0
 74
     0
 75
     0
  3
AD-STANDARD
100
AcDbAlignedDimension
 13
132.4828559977893
 23
151.6848773937926
 33
0.0
 14
244.4828559978093
 24
151.6848773937926
 34
0.0
100
AcDbRotatedDimension
  0
DIMENSION
  5
884
330
1A
100
AcDbEntity
  8
MEASURE
100
AcDbDimension
280
     0
  2
*D3
 10
188.4828559978093
 20
93.12414509772263
 30
0.0
 11
167.2328559977993
 21
95.37414509772263
 31
0.0
 70
    32
 71
     5
 42
42.50000000002001
 73
     0
 74
     0
 75
     0
  3
AD-STANDARD
100
AcDbAlignedDimension
 13
145.9828559977893
 23
105.9160055318826
 33
0.0
 14
188.4828559978093
 24
105.9160055318826
 34
0.0
100
AcDbRotatedDimension
  0
DIMENSION
  5
891
330
1A
100
AcDbEntity
  8
MEASURE
100
AcDbDimension
280
     0
  2
*D4
 10
230.9828559978093
 20
93.12414509772263
 30
0.0
 11
209.7328559978093
 21
95.37414509772263
 31
0.0
 70
    32
 71
     5
 42
42.5
 73
     0
 74
     0
 75
     0
  3
AD-STANDARD
100
AcDbAlignedDimension
 13
188.4828559978093
 23
105.9160055318826
 33
0.0
 14
230.9828559978093
 24
105.9160055318826
 34
0.0
100
AcDbRotatedDimension
1001
ACAD
1000
DSTYLE
1002
{
1070
   279
1070
     1
1002
}
  0
DIMENSION
  5
89E
330
1A
100
AcDbEntity
  8
MEASURE
100
AcDbDimension
280
     0
  2
*D5
 10
230.9828559978093
 20
81.00894580530473
 30
0.0
 11
188.4828559977993
 21
83.25894580530473
 31
0.0
 70
    32
 71
     5
 42
85.00000000002001
 73
     0
 74
     0
 75
     0
  3
AD-STANDARD
100
AcDbAlignedDimension
 13
145.9828559977893
 23
104.9160055318826
 33
0.0
 14
230.9828559978093
 24
105.9160055318826
 34
0.0
100
AcDbRotatedDimension
  0
LEADER
  5
8AB
330
1A
100
AcDbEntity
  8
MEASURE
100
AcDbLeader
  3
AD-STANDARD
 73
     0
 74
     0
 40
3.5
 41
11.36
 76
     3
 10
230.9828559978093
 20
102.6848773937926
 30
0.0
 10
250.0935378430236
 20
126.1128084290868
 30
0.0
 10
252.6103355590626
 20
126.1128084290868
 30
0.0
340
8AC
1001
ACAD
1000
DSTYLE
1002
{
1070
   147
1040
0.5
1070
    77
1070
     1
1002
}
  0
MTEXT
  5
8AC
102
{ACAD_REACTORS
330
8AB
102
}
330
1A
100
AcDbEntity
  8
MEASURE
 62
     2
100
AcDbMText
 10
253.1103355590626
 20
126.6128084290868
 30
0.0
 40
3.5
 41
0.0
 46
0.0
 71
     7
 72
     1
  1
\A1;3-φ6
  7
AD-STANDARD
 73
     1
 44
1.0
  0
DIMENSION
  5
8AD
330
1A
100
AcDbEntity
  8
MEASURE
100
AcDbDimension
280
     0
  2
*D6
 10
291.626572666587
 20
121.6848773937926
 30
0.0
 11
289.376572666587
 21
141.6848773937926
 31
0.0
 70
    32
 71
     5
 42
40.00000000000004
 73
     0
 74
     0
 75
     0
  3
AD-STANDARD
100
AcDbAlignedDimension
 13
344.4828559978123
 23
161.6848773937926
 33
0.0
 14
344.4828559978123
 24
121.6848773937926
 34
0.0
 50
90.0
100
AcDbRotatedDimension
  0
DIMENSION
  5
8BA
330
1A
100
AcDbEntity
  8
MEASURE
100
AcDbDimension
280
     0
  2
*D7
 10
311.5380795034476
 20
101.6848773937926
 30
0.0
 11
309.2880795034475
 21
121.6848773937927
 31
0.0
 70
    32
 71
     5
 42
40.00000000000001
 73
     0
 74
     0
 75
     0
  3
AD-STANDARD
100
AcDbAlignedDimension
 13
326.4828559978123
 23
141.6848773937926
 33
0.0
 14
353.4828559978123
 24
101.6848773937926
 34
0.0
 50
90.0
100
AcDbRotatedDimension
  0
DIMENSION
  5
8C7
330
1A
100
AcDbEntity
  8
MEASURE
100
AcDbDimension
280
     0
  2
*D8
 10
373.4828559978093
 20
90.55416945003985
 30
0.0
 11
363.4828559978108
 21
92.80416945003985
 31
0.0
 70
    32
 71
     5
 42
19.99999999999699
 73
     0
 74
     0
 75
     0
  3
AD-STANDARD
100
AcDbAlignedDimension
 13
353.4828559978123
 23
101.6848773937926
 33
0.0
 14
373.4828559978093
 24
96.50562817339263
 34
0.0
100
AcDbRotatedDimension
  0
DIMENSION
  5
8D4
330
1A
100
AcDbEntity
  8
MEASURE
100
AcDbDimension
280
     0
  2
*D9
 10
393.4828559978093
 20
90.55416945003985
 30
0.0
 11
383.4828559978093
 21
92.80416945003985
 31
0.0
 70
    32
 71
     5
 42
20.0
 73
     0
 74
     0
 75
     0
  3
AD-STANDARD
100
AcDbAlignedDimension
 13
373.4828559978093
 23
96.50562817339263
 33
0.0
 14
393.4828559978093
 24
101.6848773937926
 34
0.0
100
AcDbRotatedDimension
1001
ACAD
1000
DSTYLE
1002
{
1070
   279
1070
     1
1002
}
  0
DIMENSION
  5
8FE
330
1A
100
AcDbEntity
  8
MEASURE
100
AcDbDimension
280
     0
  2
*D10
 10
241.9828559978093
 20
196.2618351330286
 30
0.0
 11
188.4828559977993
 21
198.5118351330286
 31
0.0
 70
    32
 71
     5
 42
107.0000000000199
 73
     0
 74
     0
 75
     0
  3
AD-STANDARD
100
AcDbAlignedDimension
 13
134.9828559977894
 23
213.6848773937927
 33
0.0
 14
241.9828559978093
 24
213.6848773937927
 34
0.0
100
AcDbRotatedDimension
  0
ARC
  5
9B8
330
1A
100
AcDbEntity
  8
0
  6
Continuous
 62
     7
370
    30
100
AcDbCircle
 10
411.4828559978092
 20
153.6848773937926
 30
0.0
 40
8.0
100
AcDbArc
 50
0.0
 51
90.0
  0
ARC
  5
9B9
330
1A
100
AcDbEntity
  8
0
  6
Continuous
 62
     7
370
    30
100
AcDbCircle
 10
411.4828559978092
 20
129.6848773937926
 30
0.0
 40
8.0
100
AcDbArc
 50
270.0
 51
0.0
  0
ARC
  5
B03
330
1A
100
AcDbEntity
  8
0
100
AcDbCircle
 10
210.4828559978093
 20
250.6848773937925
 30
0.0
 40
3.0
100
AcDbArc
 50
270.0
 51
0.0
  0
ARC
  5
B04
330
1A
100
AcDbEntity
  8
0
100
AcDbCircle
 10
210.4828559978093
 20
279.6848773937925
 30
0.0
 40
3.0
100
AcDbArc
 50
0.0
 51
90.0
  0
HATCH
  5
B05
330
1A
100
AcDbEntity
  8
0
 62
     3
100
AcDbHatch
 10
0.0
 20
0.0
 30
0.0
210
0.0
220
0.0
230
1.0
  2
SOLID
 70
     1
 71
     1
 91
        3
 92
        7
 72
     1
 73
     1
 93
       28
 10
194.6796271717444
 20
277.1833748111063
 42
0.0
 10
189.2249075676507
 20
277.1833748111063
 42
0.0
 10
189.2249075676506
 20
276.0434913532313
 42
0.0
 10
190.3041461905256
 20
276.0434913532313
 42
0.0
 10
190.3041461905256
 20
274.3200924357001
 42
0.0
 10
187.2296061844006
 20
277.1833748111063
 42
0.0
 10
180.7667600499632
 20
277.1833748111063
 42
0.0
 10
180.7667600499632
 20
276.0434913532313
 42
0.0
 10
181.3691265456819
 20
276.0434913532313
 42
0.0
 10
178.3071250291507
 20
272.3247608516689
 42
0.0
 10
177.587646818682
 20
272.3247608516688
 42
0.0
 10
177.587646818682
 20
271.1848773937938
 42
0.0
 10
181.4862592968382
 20
271.1848773937938
 42
0.0
 10
181.4862592968382
 20
272.3247608516689
 42
0.0
 10
180.7667600499632
 20
272.3247608516689
 42
0.0
 10
181.3858593197757
 20
273.0442426445751
 42
0.0
 10
183.5861343634632
 20
273.0442426445751
 42
0.0
 10
183.5861343634632
 20
272.3247608516689
 42
0.0
 10
182.8666604852444
 20
272.3247608516689
 42
0.0
 10
182.8666604852444
 20
271.1848773937938
 42
0.0
 10
186.7066911125256
 20
271.1848773937938
 42
0.0
 10
186.7066911125256
 20
272.3247608516688
 42
0.0
 10
185.9830475686507
 20
272.3247608516688
 42
0.0
 10
185.9830475686507
 20
275.7193231655439
 42
0.0
 10
189.6306644780569
 20
272.3247608516689
 42
0.0
 10
189.2249075676506
 20
272.3247608516688
 42
0.0
 10
189.2249075676507
 20
271.1848773937938
 42
0.0
 10
194.6796271717444
 20
271.1848773937938
 42
1.0
 97
       28
330
B1A
330
B1B
330
B1C
330
B1E
330
B1F
330
B2F
330
B2E
330
B2D
330
B2C
330
B2B
330
B0B
330
B0F
330
B0A
330
B2A
330
B29
330
B28
330
B24
330
B21
330
B08
330
B0E
330
B09
330
B22
330
B23
330
B20
330
B1D
330
B07
330
B0D
330
B06
 92
       22
 72
     1
 73
     1
 93
        6
 10
192.7010299864006
 20
276.0434913532313
 42
0.0
 10
194.2105073351785
 20
276.0434913532313
 42
-0.3652357781324489
 10
195.111299815285
 20
275.3134422062103
 42
-0.0949582691137136
 10
195.111299815285
 20
273.0548099986898
 42
-0.3652357781325281
 10
194.2105073351783
 20
272.3247608516689
 42
0.0
 10
192.7010299864006
 20
272.3247608516689
 42
0.0
 97
        6
330
B18
330
B15
330
B14
330
B16
330
B17
330
B19
 92
       22
 72
     0
 73
     1
 93
        3
 10
183.5861343634629
 20
274.1841261024501
 10
182.3228420988382
 20
274.1841261024501
 10
183.5861343634632
 20
275.7193231655438
 97
        3
330
B27
330
B26
330
B25
 75
     0
 76
     1
 47
0.0526292633608189
 98
        3
 10
189.6755036311738
 20
273.8949930010642
 10
189.6755036311738
 20
273.8949930010642
 10
189.6755036311738
 20
273.8949930010642
450
        0
451
        0
460
0.0
461
0.0
452
        0
462
0.0
453
        0
470

  0
ARC
  5
B06
102
{ACAD_REACTORS
330
B05
102
}
330
1A
100
AcDbEntity
  8
0
  6
Continuous
 62
     3
100
AcDbCircle
 10
194.6796271717444
 20
274.1841261024501
 30
0.0
 40
2.999248708656239
100
AcDbArc
 50
270.0
 51
90.0
  0
LINE
  5
B07
102
{ACAD_REACTORS
330
B05
102
}
330
1A
100
AcDbEntity
  8
0
  6
Continuous
 62
     3
100
AcDbLine
 10
189.2249075676506
 20
272.3247608516689
 30
0.0
 11
189.2249075676506
 21
271.1848773937938
 31
0.0
  0
LINE
  5
B08
102
{ACAD_REACTORS
330
B05
102
}
330
1A
100
AcDbEntity
  8
0
  6
Continuous
 62
     3
100
AcDbLine
 10
182.8666604852444
 20
272.3247608516689
 30
0.0
 11
182.8666604852444
 21
271.1848773937938
 31
0.0
  0
LINE
  5
B09
102
{ACAD_REACTORS
330
B05
102
}
330
1A
100
AcDbEntity
  8
0
  6
Continuous
 62
     3
100
AcDbLine
 10
186.7066911125256
 20
271.1848773937938
 30
0.0
 11
186.7066911125256
 21
272.3247608516689
 31
0.0
  0
LINE
  5
B0A
102
{ACAD_REACTORS
330
B05
102
}
330
1A
100
AcDbEntity
  8
0
  6
Continuous
 62
     3
100
AcDbLine
 10
181.4862592968382
 20
271.1848773937938
 30
0.0
 11
181.4862592968382
 21
272.3247608516689
 31
0.0
  0
LINE
  5
B0B
102
{ACAD_REACTORS
330
B05
102
}
330
1A
100
AcDbEntity
  8
0
  6
Continuous
 62
     3
100
AcDbLine
 10
177.587646818682
 20
272.3247608516689
 30
0.0
 11
177.587646818682
 21
271.1848773937938
 31
0.0
  0
LINE
  5
B0C
330
1A
100
AcDbEntity
  8
0
100
AcDbLine
 10
163.4828559978093
 20
279.6848773937925
 30
0.0
 11
163.4828559978093
 21
250.6848773937925
 31
0.0
  0
LINE
  5
B0D
102
{ACAD_REACTORS
330
B05
102
}
330
1A
100
AcDbEntity
  8
0
  6
Continuous
 62
     3
100
AcDbLine
 10
189.2249075676506
 20
271.1848773937938
 30
0.0
 11
194.6796271717444
 21
271.1848773937938
 31
0.0
  0
LINE
  5
B0E
102
{ACAD_REACTORS
330
B05
102
}
330
1A
100
AcDbEntity
  8
0
  6
Continuous
 62
     3
100
AcDbLine
 10
182.8666604852444
 20
271.1848773937938
 30
0.0
 11
186.7066911125256
 21
271.1848773937938
 31
0.0
  0
LINE
  5
B0F
102
{ACAD_REACTORS
330
B05
102
}
330
1A
100
AcDbEntity
  8
0
  6
Continuous
 62
     3
100
AcDbLine
 10
177.587646818682
 20
271.1848773937938
 30
0.0
 11
181.4862592968382
 21
271.1848773937938
 31
0.0
  0
ARC
  5
B12
330
1A
100
AcDbEntity
  8
0
100
AcDbCircle
 10
166.4828559978093
 20
250.6848773937925
 30
0.0
 40
3.0
100
AcDbArc
 50
180.0
 51
270.0
  0
LINE
  5
B13
330
1A
100
AcDbEntity
  8
0
100
AcDbLine
 10
166.4828559978093
 20
247.6848773937925
 30
0.0
 11
210.4828559978093
 21
247.6848773937925
 31
0.0
  0
ARC
  5
B14
102
{ACAD_REACTORS
330
B05
102
}
330
1A
100
AcDbEntity
  8
0
 62
     3
100
AcDbCircle
 10
189.2185377177803
 20
274.1841261024501
 30
0.0
 40
6.0
100
AcDbArc
 50
349.1511142571893
 51
10.84888574281067
  0
ARC
  5
B15
102
{ACAD_REACTORS
330
B05
102
}
330
1A
100
AcDbEntity
  8
0
  6
Continuous
 62
     3
100
AcDbCircle
 10
194.2278527269319
 20
275.1441343320438
 30
0.0
 40
0.8995242710312449
100
AcDbArc
 50
10.84154989999758
 51
90.0
  0
ARC
  5
B16
102
{ACAD_REACTORS
330
B05
102
}
330
1A
100
AcDbEntity
  8
0
  6
Continuous
 62
     3
100
AcDbCircle
 10
194.2278527269319
 20
273.2241178728563
 30
0.0
 40
0.8995242710312449
100
AcDbArc
 50
270.0
 51
349.1583861999996
  0
LINE
  5
B17
102
{ACAD_REACTORS
330
B05
102
}
330
1A
100
AcDbEntity
  8
0
  6
Continuous
 62
     3
100
AcDbLine
 10
194.2278527269319
 20
272.3247608516689
 30
0.0
 11
192.7010299864006
 21
272.3247608516689
 31
0.0
  0
LINE
  5
B18
102
{ACAD_REACTORS
330
B05
102
}
330
1A
100
AcDbEntity
  8
0
  6
Continuous
 62
     3
100
AcDbLine
 10
192.7010299864006
 20
276.0434913532313
 30
0.0
 11
194.2278527269319
 21
276.0434913532313
 31
0.0
  0
LINE
  5
B19
102
{ACAD_REACTORS
330
B05
102
}
330
1A
100
AcDbEntity
  8
0
  6
Continuous
 62
     3
100
AcDbLine
 10
192.7010299864006
 20
272.3247608516689
 30
0.0
 11
192.7010299864006
 21
276.0434913532313
 31
0.0
  0
LINE
  5
B1A
102
{ACAD_REACTORS
330
B05
102
}
330
1A
100
AcDbEntity
  8
0
  6
Continuous
 62
     3
100
AcDbLine
 10
194.6796271717444
 20
277.1833748111063
 30
0.0
 11
189.2249075676506
 21
277.1833748111063
 31
0.0
  0
LINE
  5
B1B
102
{ACAD_REACTORS
330
B05
102
}
330
1A
100
AcDbEntity
  8
0
  6
Continuous
 62
     3
100
AcDbLine
 10
189.2249075676506
 20
277.1833748111063
 30
0.0
 11
189.2249075676506
 21
276.0434913532313
 31
0.0
  0
LINE
  5
B1C
102
{ACAD_REACTORS
330
B05
102
}
330
1A
100
AcDbEntity
  8
0
  6
Continuous
 62
     3
100
AcDbLine
 10
189.2249075676506
 20
276.0434913532313
 30
0.0
 11
190.3041461905256
 21
276.0434913532313
 31
0.0
  0
LINE
  5
B1D
102
{ACAD_REACTORS
330
B05
102
}
330
1A
100
AcDbEntity
  8
0
  6
Continuous
 62
     3
100
AcDbLine
 10
189.6306644780569
 20
272.3247608516689
 30
0.0
 11
189.2249075676506
 21
272.3247608516689
 31
0.0
  0
LINE
  5
B1E
102
{ACAD_REACTORS
330
B05
102
}
330
1A
100
AcDbEntity
  8
0
  6
Continuous
 62
     3
100
AcDbLine
 10
190.3041461905256
 20
276.0434913532313
 30
0.0
 11
190.3041461905256
 21
274.3200924357001
 31
0.0
  0
LINE
  5
B1F
102
{ACAD_REACTORS
330
B05
102
}
330
1A
100
AcDbEntity
  8
0
  6
Continuous
 62
     3
100
AcDbLine
 10
187.2296061844006
 20
277.1833748111063
 30
0.0
 11
190.3041461905256
 21
274.3200924357001
 31
0.0
  0
LINE
  5
B20
102
{ACAD_REACTORS
330
B05
102
}
330
1A
100
AcDbEntity
  8
0
  6
Continuous
 62
     3
100
AcDbLine
 10
189.6306644780569
 20
272.3247608516689
 30
0.0
 11
185.9830475686507
 21
275.7193231655438
 31
0.0
  0
LINE
  5
B21
102
{ACAD_REACTORS
330
B05
102
}
330
1A
100
AcDbEntity
  8
0
  6
Continuous
 62
     3
100
AcDbLine
 10
183.5861343634632
 20
272.3247608516689
 30
0.0
 11
182.8666604852444
 21
272.3247608516689
 31
0.0
  0
LINE
  5
B22
102
{ACAD_REACTORS
330
B05
102
}
330
1A
100
AcDbEntity
  8
0
  6
Continuous
 62
     3
100
AcDbLine
 10
186.7066911125256
 20
272.3247608516689
 30
0.0
 11
185.9830475686507
 21
272.3247608516689
 31
0.0
  0
LINE
  5
B23
102
{ACAD_REACTORS
330
B05
102
}
330
1A
100
AcDbEntity
  8
0
  6
Continuous
 62
     3
100
AcDbLine
 10
185.9830475686507
 20
272.3247608516689
 30
0.0
 11
185.9830475686507
 21
275.7193231655438
 31
0.0
  0
LINE
  5
B24
102
{ACAD_REACTORS
330
B05
102
}
330
1A
100
AcDbEntity
  8
0
  6
Continuous
 62
     3
100
AcDbLine
 10
183.5861343634632
 20
273.0442426445751
 30
0.0
 11
183.5861343634632
 21
272.3247608516689
 31
0.0
  0
LINE
  5
B25
102
{ACAD_REACTORS
330
B05
102
}
330
1A
100
AcDbEntity
  8
0
  6
Continuous
 62
     3
100
AcDbLine
 10
183.5861343634632
 20
274.1841261024501
 30
0.0
 11
183.5861343634632
 21
275.7193231655438
 31
0.0
  0
LINE
  5
B26
102
{ACAD_REACTORS
330
B05
102
}
330
1A
100
AcDbEntity
  8
0
  6
Continuous
 62
     3
100
AcDbLine
 10
182.3228420988382
 20
274.1841261024501
 30
0.0
 11
183.5861343634632
 21
275.7193231655438
 31
0.0
  0
LINE
  5
B27
102
{ACAD_REACTORS
330
B05
102
}
330
1A
100
AcDbEntity
  8
0
  6
Continuous
 62
     3
100
AcDbLine
 10
183.5861343634632
 20
274.1841261024501
 30
0.0
 11
182.3228420988382
 21
274.1841261024501
 31
0.0
  0
LINE
  5
B28
102
{ACAD_REACTORS
330
B05
102
}
330
1A
100
AcDbEntity
  8
0
  6
Continuous
 62
     3
100
AcDbLine
 10
181.3858593197757
 20
273.0442426445751
 30
0.0
 11
183.5861343634632
 21
273.0442426445751
 31
0.0
  0
LINE
  5
B29
102
{ACAD_REACTORS
330
B05
102
}
330
1A
100
AcDbEntity
  8
0
  6
Continuous
 62
     3
100
AcDbLine
 10
180.7667600499632
 20
272.3247608516689
 30
0.0
 11
181.3858593197757
 21
273.0442426445751
 31
0.0
  0
LINE
  5
B2A
102
{ACAD_REACTORS
330
B05
102
}
330
1A
100
AcDbEntity
  8
0
  6
Continuous
 62
     3
100
AcDbLine
 10
181.4862592968382
 20
272.3247608516689
 30
0.0
 11
180.7667600499632
 21
272.3247608516689
 31
0.0
  0
LINE
  5
B2B
102
{ACAD_REACTORS
330
B05
102
}
330
1A
100
AcDbEntity
  8
0
  6
Continuous
 62
     3
100
AcDbLine
 10
178.3071250291507
 20
272.3247608516689
 30
0.0
 11
177.587646818682
 21
272.3247608516689
 31
0.0
  0
LINE
  5
B2C
102
{ACAD_REACTORS
330
B05
102
}
330
1A
100
AcDbEntity
  8
0
  6
Continuous
 62
     3
100
AcDbLine
 10
181.3691265456819
 20
276.0434913532313
 30
0.0
 11
178.3071250291507
 21
272.3247608516689
 31
0.0
  0
LINE
  5
B2D
102
{ACAD_REACTORS
330
B05
102
}
330
1A
100
AcDbEntity
  8
0
  6
Continuous
 62
     3
100
AcDbLine
 10
180.7667600499632
 20
276.0434913532313
 30
0.0
 11
181.3691265456819
 21
276.0434913532313
 31
0.0
  0
LINE
  5
B2E
102
{ACAD_REACTORS
330
B05
102
}
330
1A
100
AcDbEntity
  8
0
  6
Continuous
 62
     3
100
AcDbLine
 10
180.7667600499632
 20
277.1833748111063
 30
0.0
 11
180.7667600499632
 21
276.0434913532313
 31
0.0
  0
LINE
  5
B2F
102
{ACAD_REACTORS
330
B05
102
}
330
1A
100
AcDbEntity
  8
0
  6
Continuous
 62
     3
100
AcDbLine
 10
180.7667600499632
 20
277.1833748111063
 30
0.0
 11
187.2296061844006
 21
277.1833748111063
 31
0.0
  0
ARC
  5
B30
330
1A
100
AcDbEntity
  8
0
100
AcDbCircle
 10
166.4828559978093
 20
279.6848773937925
 30
0.0
 40
3.0
100
AcDbArc
 50
90.0
 51
180.0
  0
LINE
  5
B31
330
1A
100
AcDbEntity
  8
0
100
AcDbLine
 10
166.4828559978093
 20
282.6848773937925
 30
0.0
 11
210.4828559978093
 21
282.6848773937925
 31
0.0
  0
LINE
  5
B32
330
1A
100
AcDbEntity
  8
0
100
AcDbLine
 10
213.4828559978092
 20
279.6848773937925
 30
0.0
 11
213.4828559978093
 21
250.6848773937925
 31
0.0
  0
TEXT
  5
B35
330
1A
100
AcDbEntity
  8
0
100
AcDbText
 10
180.2874088855462
 20
258.7988792608776
 30
0.0
 40
5.0
  1
AD
 41
0.8
  7
AD-STANDARD
100
AcDbText
  0
TEXT
  5
B36
330
1A
100
AcDbEntity
  8
0
100
AcDbText
 10
188.4778850760224
 20
258.7988792608776
 30
0.0
 40
5.0
  1
1683
 41
0.8
  7
AD-STANDARD
100
AcDbText
  0
TEXT
  5
B37
330
1A
100
AcDbEntity
  8
0
100
AcDbText
 10
172.9092071928564
 20
252.3152800334901
 30
0.0
 40
3.5
  1
Static Eliminator
 41
0.8
  7
AD-STANDARD
100
AcDbText
  0
SPLINE
  5
B38
330
1A
100
AcDbEntity
  8
0
100
AcDbSpline
210
0.0
220
0.0
230
1.0
 70
     8
 71
     3
 72
    22
 73
    18
 74
     0
 42
0.0000000001
 43
0.0000000001
 40
3.141592653589793
 40
3.141592653589793
 40
3.141592653589793
 40
3.141592653589793
 40
3.489183380810532
 40
3.489183380810532
 40
3.924354223384285
 40
3.924354223384285
 40
4.359525065958038
 40
4.359525065958038
 40
4.794695908531791
 40
4.794695908531791
 40
5.229866751105545
 40
5.229866751105545
 40
5.665037593679298
 40
5.665037593679298
 40
6.100208436253051
 40
6.100208436253051
 40
6.283185307179586
 40
6.283185307179586
 40
6.283185307179586
 40
6.283185307179586
 10
177.5981685154924
 20
267.9973773937925
 30
0.0
 10
177.6835144529797
 20
267.9973773937925
 30
0.0
 10
177.7689599300165
 20
268.0143140071443
 30
0.0
 10
177.954130782185
 20
268.0909854460665
 30
0.0
 10
178.0520962381155
 20
268.1609471899753
 30
0.0
 10
178.2176703085144
 20
268.3491794885823
 30
0.0
 10
178.2847771451335
 20
268.4674314404619
 30
0.0
 10
178.3694044915002
 20
268.7300513086395
 30
0.0
 10
178.3867104018722
 20
268.8740632006321
 30
0.0
 10
178.3663431267454
 20
269.1562302074672
 30
0.0
 10
178.328715078099
 20
269.2940019164177
 30
0.0
 10
178.2092625878258
 20
269.5338348718756
 30
0.0
 10
178.1277776233612
 20
269.635604629676
 30
0.0
 10
177.9420937993615
 20
269.7865106930548
 30
0.0
 10
177.8383576137702
 20
269.8358912471023
 30
0.0
 10
177.688027669302
 20
269.8676833070297
 30
0.0
 10
177.6430958721932
 20
269.8723773937925
 30
0.0
 10
177.5981685154924
 20
269.8723773937925
 30
0.0
  0
ELLIPSE
  5
B39
330
1A
100
AcDbEntity
  8
0
100
AcDbEllipse
 10
177.5981685154924
 20
268.9348773937926
 30
0.0
 11
0.0
 21
1.25
 31
0.0
210
0.0
220
0.0
230
1.0
 40
0.875
 41
3.141592653589793
 42
6.283185307179586
  0
CIRCLE
  5
B3A
330
1A
100
AcDbEntity
  8
0
100
AcDbCircle
 10
202.0883765654511
 20
268.6465168461918
 30
0.0
 40
0.6319344972910799
  0
ARC
  5
B3B
330
1A
100
AcDbEntity
  8
0
100
AcDbCircle
 10
202.0883765654513
 20
268.646516846192
 30
0.0
 40
0.9616394523993356
100
AcDbArc
 50
48.91766685954866
 51
311.0823331404513
  0
LWPOLYLINE
  5
B3C
330
1A
100
AcDbEntity
  8
0
100
AcDbPolyline
 90
        8
 70
     1
 43
0.0
 10
192.245462487488
 20
269.5942873040094
 10
191.8768411414175
 20
269.5942873040094
 10
192.5992190949304
 20
267.9846789194298
 10
192.1126788797125
 20
267.0115984889937
 10
192.4813002257828
 20
267.0115984889937
 10
193.6902183945137
 20
269.5942873040094
 10
193.3215970484429
 20
269.5942873040094
 10
192.7835297679655
 20
268.3533002655002
  0
ARC
  5
B3D
330
1A
100
AcDbEntity
  8
0
100
AcDbCircle
 10
189.5099146175129
 20
268.6465168461918
 30
0.0
 40
0.9616394523994692
100
AcDbArc
 50
48.91766685955786
 51
311.0823331404422
  0
CIRCLE
  5
B3E
330
1A
100
AcDbEntity
  8
0
100
AcDbCircle
 10
189.5099146175129
 20
268.6465168461918
 30
0.0
 40
0.6319344972910799
  0
LWPOLYLINE
  5
B3F
330
1A
100
AcDbEntity
  8
0
100
AcDbPolyline
 90
       11
 70
     1
 43
0.0
 10
192.0984648539528
 20
268.8590796771144
 42
0.5981229011273204
 10
190.9107943378848
 20
269.4759011674825
 10
190.9107943378848
 20
269.6009158261077
 10
190.5810893827765
 20
269.6009158261077
 10
190.5810893827765
 20
267.6848773937925
 10
190.9107943378848
 20
267.6848773937925
 10
190.9107943378848
 20
268.8590796771136
 42
-0.9620834393330049
 10
191.7687598988445
 20
268.8590796771136
 10
191.7687598988445
 20
267.6848773937925
 10
192.0984648539528
 20
267.6848773937925
 10
192.0984648539528
 20
268.8590796771136
  0
LWPOLYLINE
  5
B40
330
1A
100
AcDbEntity
  8
0
100
AcDbPolyline
 90
        6
 70
     0
 43
0.0
 10
190.1418491148039
 20
269.3713680223268
 10
190.1418491148039
 20
269.608156298591
 10
190.4715540699125
 20
269.608156298591
 10
190.4715540699125
 20
267.6848773937925
 10
190.1418491148039
 20
267.6848773937925
 10
190.1418491148039
 20
267.9216656700561
  0
LWPOLYLINE
  5
B41
330
1A
100
AcDbEntity
  8
0
100
AcDbPolyline
 90
        8
 70
     1
 43
0.0
 10
198.8970157694217
 20
270.1027137312542
 10
198.8970157694217
 20
267.6848773937925
 10
199.2267207245303
 20
267.6848773937925
 10
199.2267207245303
 20
269.2363223769967
 10
199.5014748537875
 20
269.2363223769967
 10
199.5014748537875
 20
269.5660273321049
 10
199.2267207245303
 20
269.5660273321049
 10
199.2267207245303
 20
270.1027137312542
  0
LWPOLYLINE
  5
B42
330
1A
100
AcDbEntity
  8
0
100
AcDbPolyline
 90
        4
 70
     1
 43
0.0
 10
198.4577755014496
 20
269.7180579502946
 10
198.787480456558
 20
269.7180579502946
 10
198.787480456558
 20
270.1027137312542
 10
198.4577755014496
 20
270.1027137312542
  0
LWPOLYLINE
  5
B43
330
1A
100
AcDbEntity
  8
0
100
AcDbPolyline
 90
        4
 70
     1
 43
0.0
 10
198.4577755014496
 20
267.6848773937925
 10
198.787480456558
 20
267.6848773937925
 10
198.787480456558
 20
269.5660273321049
 10
198.4577755014496
 20
269.5660273321049
  0
LWPOLYLINE
  5
B44
330
1A
100
AcDbEntity
  8
0
100
AcDbPolyline
 90
        5
 70
     1
 43
0.0
 10
200.1209535322502
 20
268.0975719711119
 10
201.2403701290922
 20
269.1812803525713
 42
2.446265232689076
 10
200.9906422343603
 20
267.8573456922359
 10
200.9906422343603
 20
268.3344561426557
 42
-0.4171356481491449
 10
200.1236122924089
 20
268.1001459196103
 42
0.7567647718867534
  0
LWPOLYLINE
  5
B45
330
1A
100
AcDbEntity
  8
0
100
AcDbPolyline
 90
        2
 70
     1
 43
0.0
 10
200.7708389309545
 20
269.1856233768918
 10
199.8916257173322
 20
268.3344561426557
 42
-0.7745677080393075
  0
LWPOLYLINE
  5
B46
330
1A
100
AcDbEntity
  8
0
100
AcDbPolyline
 90
        6
 70
     1
 43
0.0
 10
194.4725584412869
 20
270.1027137312542
 10
194.0879026603272
 20
270.1027137312542
 10
194.0879026603272
 20
267.6848773937925
 10
195.2418700032064
 20
267.6848773937925
 10
195.2418700032064
 20
268.0695331747521
 10
194.4725584412869
 20
268.0695331747521
  0
LWPOLYLINE
  5
B47
330
1A
100
AcDbEntity
  8
0
100
AcDbPolyline
 90
        7
 70
     1
 43
0.0
 10
193.2190953624826
 20
267.453497625462
 42
0.4142135623730951
 10
193.6037511434421
 20
267.8381534064218
 10
193.6037511434421
 20
268.2228091873818
 10
193.2190953624826
 20
268.2228091873818
 10
193.2190953624826
 20
267.8381534064218
 10
193.4388986658879
 20
267.8381534064218
 42
-0.4142135623730951
 10
193.2190953624826
 20
267.6183501030162
  0
LWPOLYLINE
  5
B48
330
1A
100
AcDbEntity
  8
0
100
AcDbPolyline
 90
        4
 70
     1
 43
0.0
 10
195.2966376596384
 20
267.6848773937925
 10
195.6263426147467
 20
267.6848773937925
 10
195.6263426147467
 20
269.5660273321049
 10
195.2966376596384
 20
269.5660273321049
  0
LWPOLYLINE
  5
B49
330
1A
100
AcDbEntity
  8
0
100
AcDbPolyline
 90
        4
 70
     1
 43
0.0
 10
195.2966376596384
 20
269.7180579502946
 10
195.6263426147467
 20
269.7180579502946
 10
195.6263426147467
 20
270.1027137312542
 10
195.2966376596384
 20
270.1027137312542
  0
LWPOLYLINE
  5
B4A
330
1A
100
AcDbEntity
  8
0
100
AcDbPolyline
 90
       15
 70
     1
 43
0.0
 10
197.2069115356525
 20
268.866320149597
 42
-1.015693343506284
 10
198.0185352334774
 20
268.866320149597
 10
198.0185352334774
 20
267.6848773937925
 10
198.3482401885857
 20
267.6848773937925
 10
198.3482401885857
 20
268.8663201495979
 42
0.7101663011726091
 10
197.0420590580983
 20
269.3325933686931
 42
0.3909231774050784
 10
196.065582882719
 20
269.4831416399662
 10
196.065582882719
 20
269.5660273321049
 10
195.7358779276107
 20
269.5660273321049
 10
195.7358779276107
 20
267.6848773937925
 10
196.065582882719
 20
267.6848773937925
 10
196.065582882719
 20
268.866320149597
 42
-1.015693343506284
 10
196.8772065805439
 20
268.866320149597
 10
196.8772065805439
 20
267.6848773937925
 10
197.2069115356525
 20
267.6848773937925
  0
LINE
  5
B4B
330
1A
100
AcDbEntity
  8
0
100
AcDbLine
 10
202.7203110627424
 20
267.9216656700568
 30
0.0
 11
202.7203110627424
 21
267.6848773937925
 31
0.0
  0
LINE
  5
B4C
330
1A
100
AcDbEntity
  8
0
100
AcDbLine
 10
202.7203110627424
 20
267.6848773937925
 30
0.0
 11
203.0500160178505
 21
267.6848773937925
 31
0.0
  0
LINE
  5
B4D
330
1A
100
AcDbEntity
  8
0
100
AcDbLine
 10
203.0500160178505
 20
267.6848773937925
 30
0.0
 11
203.0500160178505
 21
270.1848773937925
 31
0.0
  0
LINE
  5
B4E
330
1A
100
AcDbEntity
  8
0
100
AcDbLine
 10
202.7203110627424
 20
270.1848773937925
 30
0.0
 11
202.7203110627424
 21
269.3713680223271
 31
0.0
  0
LINE
  5
B4F
330
1A
100
AcDbEntity
  8
0
100
AcDbLine
 10
202.7203110627424
 20
270.1848773937925
 30
0.0
 11
203.0500160178505
 21
270.1848773937925
 31
0.0
  0
LWPOLYLINE
  5
B50
330
1A
100
AcDbEntity
  8
0
100
AcDbPolyline
 90
        4
 70
     1
 43
0.0
 10
181.8257769702826
 20
269.5118610652321
 10
181.3647018746846
 20
269.5118610652321
 42
2.622479028665055
 10
181.3647018746846
 20
268.357893722353
 10
181.8257769702826
 20
268.357893722353
 42
-4.088258596477844
  0
LWPOLYLINE
  5
B51
330
1A
100
AcDbEntity
  8
0
100
AcDbPolyline
 90
        4
 70
   128
 43
0.0
 10
177.5981685154924
 20
269.8723773937925
 10
176.9731685154924
 20
269.8723773937925
 10
176.9731685154924
 20
267.9973773937925
 10
177.5981685154924
 20
267.9973773937925
  0
LWPOLYLINE
  5
B52
330
1A
100
AcDbEntity
  8
0
100
AcDbPolyline
 90
        5
 70
     1
 43
0.0
 10
174.7616693640213
 20
268.6809711437925
 10
175.0200435154924
 20
268.9088357271258
 10
175.2784176669635
 20
268.6809711437925
 10
175.5372459346769
 20
268.4527060675782
 10
175.3426278486508
 20
268.1677134049036
 42
-1.132898215643032
  0
LWPOLYLINE
  5
B53
330
1A
100
AcDbEntity
  8
0
100
AcDbPolyline
 90
        3
 70
     1
 43
0.0
 10
175.175068006375
 20
269.4622211437925
 10
175.0200435154924
 20
269.3255023937926
 10
174.8650190246098
 20
269.4622211437925
 42
-2.645751311064666
  0
LWPOLYLINE
  5
B54
330
1A
100
AcDbEntity
  8
0
100
AcDbPolyline
 90
       14
 70
     1
 43
0.0
 10
175.951007870025
 20
268.5044690066065
 10
176.6145811360001
 20
267.9192523937925
 10
176.4078818148231
 20
267.6848773937925
 10
175.7734222410662
 20
268.2444181434876
 10
175.6006953151777
 20
267.9914822137923
 42
-1.132898215643147
 10
174.5549700428443
 20
268.9153461437925
 10
174.5549700428443
 20
268.9153461437925
 10
174.7838157198616
 20
269.1171690604591
 10
174.6583197034328
 20
269.2278461437926
 42
-2.645751311064609
 10
175.381767327552
 20
269.2278461437926
 10
175.2562713111232
 20
269.1171690604591
 10
175.7148315636358
 20
268.7127569306967
 10
176.0799174935741
 20
269.2473773937925
 10
176.4583311360001
 20
269.2473773937925
  0
LWPOLYLINE
  5
B55
330
1A
100
AcDbEntity
  8
0
100
AcDbPolyline
 90
        4
 70
   128
 43
0.0
 10
177.5981685154924
 20
270.1848773937925
 10
176.6606685154924
 20
270.1848773937925
 10
176.6606685154924
 20
267.6848773937925
 10
177.5981685154924
 20
267.6848773937925
  0
LWPOLYLINE
  5
B56
330
1A
100
AcDbEntity
  8
0
100
AcDbPolyline
 90
        3
 70
     1
 43
0.0
 10
173.3794185154924
 20
269.7446225268947
 10
172.9649955223546
 20
268.6223773937925
 10
173.7938415086304
 20
268.6223773937925
  0
ARC
  5
B57
330
1A
100
AcDbEntity
  8
0
100
AcDbCircle
 10
175.0200435154924
 20
268.3880023937925
 30
0.0
 40
0.703125
100
AcDbArc
 50
48.59037789073025
 51
51.05755873102246
  0
LWPOLYLINE
  5
B58
330
1A
100
AcDbEntity
  8
0
100
AcDbPolyline
 90
        8
 70
     1
 43
0.0
 10
172.8495954359245
 20
268.3098773937925
 10
172.6187952630648
 20
267.6848773937925
 10
172.2856685154924
 20
267.6848773937925
 10
173.2088692069323
 20
270.1848773937925
 10
173.5499678240527
 20
270.1848773937925
 10
174.4731685154924
 20
267.6848773937925
 10
174.1400417679203
 20
267.6848773937925
 10
173.9092415950603
 20
268.3098773937925
  0
LWPOLYLINE
  5
B59
330
1A
100
AcDbEntity
  8
0
100
AcDbPolyline
 90
       15
 70
     1
 43
0.0
 10
185.2898743615453
 20
268.866320149597
 42
-1.015693343506284
 10
186.1014980593704
 20
268.866320149597
 10
186.1014980593704
 20
267.6848773937925
 10
186.4312030144787
 20
267.6848773937925
 10
186.4312030144787
 20
268.8663201495979
 42
0.7101663011726091
 10
185.1250218839911
 20
269.3325933686931
 42
0.3909231774050784
 10
184.148545708612
 20
269.4831416399662
 10
184.148545708612
 20
269.5660273321049
 10
183.8188407535037
 20
269.5660273321049
 10
183.8188407535037
 20
267.6848773937925
 10
184.148545708612
 20
267.6848773937925
 10
184.148545708612
 20
268.866320149597
 42
-1.015693343506284
 10
184.9601694064369
 20
268.866320149597
 10
184.9601694064369
 20
267.6848773937925
 10
185.2898743615453
 20
267.6848773937925
  0
CIRCLE
  5
B5A
330
1A
100
AcDbEntity
  8
0
100
AcDbCircle
 10
182.8077455578379
 20
268.6465168461918
 30
0.0
 40
0.9616394523994692
  0
CIRCLE
  5
B5B
330
1A
100
AcDbEntity
  8
0
100
AcDbCircle
 10
182.8077455578379
 20
268.6465168461918
 30
0.0
 40
0.6319344972910799
  0
LWPOLYLINE
  5
B5C
330
1A
100
AcDbEntity
  8
0
100
AcDbPolyline
 90
        6
 70
     1
 43
0.0
 10
186.8704432824508
 20
267.9077966754748
 42
2.1984843263788
 10
186.8704432824508
 20
269.3574990277451
 10
186.8704432824508
 20
269.5942873040094
 10
186.5407383273424
 20
269.5942873040094
 10
186.5407383273424
 20
267.1764509665479
 10
186.8704432824508
 20
267.1764509665479
  0
CIRCLE
  5
B5D
330
1A
100
AcDbEntity
  8
0
100
AcDbCircle
 10
187.502377779742
 20
268.6465168461918
 30
0.0
 40
0.6319344972910799
  0
DIMENSION
  5
B9F
330
1A
100
AcDbEntity
  8
MEASURE
100
AcDbDimension
280
     0
  2
*D17
 10
274.7159878971602
 20
101.6848773937926
 30
0.0
 11
272.4659878971602
 21
131.6848773937926
 31
0.0
 70
    32
 71
     5
 42
59.99999999999999
 73
     0
 74
     0
 75
     0
  3
AD-STANDARD
100
AcDbAlignedDimension
 13
233.9828559978093
 23
161.6848773937926
 33
0.0
 14
243.4828559978093
 24
101.6848773937926
 34
0.0
 50
90.0
100
AcDbRotatedDimension
  0
VIEWPORT
  5
22
330
17
100
AcDbEntity
 67
     1
  8
0
100
AcDbViewport
 10
228.9107370809664
 20
131.734146810681
 30
0.0
 40
565.8170035051745
 41
397.678685019357
 68
     1
 69
     1
 12
228.9107370809664
 22
131.734146810681
 13
0.0
 23
0.0
 14
1.0
 24
1.0
 15
10.0
 25
10.0
 16
0.0
 26
0.0
 36
1.0
 17
0.0
 27
0.0
 37
0.0
 42
50.0
 43
0.0
 44
0.0
 45
397.678685019357
 50
0.0
 51
0.0
 72
   100
 90
    32768
  1

281
     0
 71
     1
 74
     0
110
0.0
120
0.0
130
0.0
111
1.0
121
0.0
131
0.0
112
0.0
122
1.0
132
0.0
 79
     0
146
0.0
170
     0
 61
     5
348
A50
292
     1
282
     1
141
0.0
142
0.0
 63
   250
421
  3355443
  0
VIEWPORT
  5
399
330
17
100
AcDbEntity
 67
     1
  8
0
100
AcDbViewport
 10
212.5
 20
149.4999999999999
 30
0.0
 40
385.0
 41
264.9999999999999
 68
     2
 69
     2
 12
273.4657203818987
 22
192.1851980275167
 13
0.0
 23
0.0
 14
168.0
 24
168.0
 15
0.0
 25
0.0
 16
0.0
 26
0.0
 36
1.0
 17
0.0
 27
0.0
 37
0.0
 42
50.0
 43
0.0
 44
0.0
 45
265.0000009797419
 50
0.0
 51
0.0
 72
   100
 90
    36864
  1

281
     0
 71
     1
 74
     0
110
0.0
120
0.0
130
0.0
111
1.0
121
0.0
131
0.0
112
0.0
122
1.0
132
0.0
 79
     0
146
0.0
170
     0
 61
     5
348
A50
292
     1
282
     1
141
0.0
142
0.0
 63
   250
421
  3355443
  0
ENDSEC
  0
SECTION
  2
OBJECTS
  0
DICTIONARY
  5
C
330
0
100
AcDbDictionary
281
     1
  3
ACAD_CIP_PREVIOUS_PRODUCT_INFO
350
A88
  3
ACAD_COLOR
350
A63
  3
ACAD_DETAILVIEWSTYLE
350
A7C
  3
ACAD_GROUP
350
D
  3
ACAD_LAYOUT
350
2C2
  3
ACAD_MATERIAL
350
A31
  3
ACAD_MLEADERSTYLE
350
A78
  3
ACAD_MLINESTYLE
350
E
  3
ACAD_PLOTSETTINGS
350
2C3
  3
ACAD_PLOTSTYLENAME
350
2C0
  3
ACAD_SCALELIST
350
A66
  3
ACAD_SECTIONVIEWSTYLE
350
A7A
  3
ACAD_TABLESTYLE
350
A64
  3
ACAD_VISUALSTYLE
350
A4A
  3
AcadDim
350
2CE
  3
ACDB_RECOMPOSE_DATA
350
BBC
  3
AcDbVariableDictionary
350
B76
  3
CONTENTDICTIONARY
350
234
  0
DICTIONARY
  5
AEE
330
2
100
AcDbDictionary
280
     1
281
     1
  3
ACAD_LAYERSTATES
360
AEF
  0
DICTIONARY
  5
A89
330
F
100
AcDbDictionary
280
     1
281
     1
  3
ADSK_XREC_LAYER_RECONCILED
360
A8A
  0
DICTIONARY
  5
A8D
330
71
100
AcDbDictionary
280
     1
281
     1
  3
ADSK_XREC_LAYER_RECONCILED
360
A8E
  0
DICTIONARY
  5
A91
330
74
100
AcDbDictionary
280
     1
281
     1
  3
ADSK_XREC_LAYER_RECONCILED
360
A92
  0
DICTIONARY
  5
B33
330
1A
100
AcDbDictionary
280
     1
281
     1
  3
ACAD_SORTENTS
360
B34
  0
XRECORD
  5
A88
102
{ACAD_REACTORS
330
C
102
}
330
C
100
AcDbXrecord
280
     1
300
ACDLT
300
2013
300
ACDLT_F_S
  0
DICTIONARY
  5
A63
102
{ACAD_REACTORS
330
C
102
}
330
C
100
AcDbDictionary
281
     1
  0
DICTIONARY
  5
A7C
102
{ACAD_REACTORS
330
C
102
}
330
C
100
AcDbDictionary
281
     1
  3
Metric50
350
A7D
  0
DICTIONARY
  5
D
102
{ACAD_REACTORS
330
C
102
}
330
C
100
AcDbDictionary
281
     1
  0
DICTIONARY
  5
2C2
102
{ACAD_REACTORS
330
C
102
}
330
C
100
AcDbDictionary
281
     1
  3
Model
350
2C4
  3
ﾚｲｱｳﾄ1
350
2C5
  0
DICTIONARY
  5
A31
102
{ACAD_REACTORS
330
C
102
}
330
C
100
AcDbDictionary
281
     1
  3
ByBlock
350
A3A
  3
ByLayer
350
A32
  3
Global
350
A42
  0
DICTIONARY
  5
A78
102
{ACAD_REACTORS
330
C
102
}
330
C
100
AcDbDictionary
281
     1
  3
Standard
350
A79
  0
DICTIONARY
  5
E
102
{ACAD_REACTORS
330
C
102
}
330
C
100
AcDbDictionary
281
     1
  3
STANDARD
350
13
  0
DICTIONARY
  5
2C3
102
{ACAD_REACTORS
330
C
102
}
330
C
100
AcDbDictionary
281
     1
  3
A3form
350
2DD
  0
ACDBDICTIONARYWDFLT
  5
2C0
102
{ACAD_REACTORS
330
C
102
}
330
C
100
AcDbDictionary
281
     1
  3
Normal
350
2C1
100
AcDbDictionaryWithDefault
340
2C1
  0
DICTIONARY
  5
A66
102
{ACAD_REACTORS
330
C
102
}
330
C
100
AcDbDictionary
281
     1
  3
A0
350
A67
  3
A1
350
A68
  3
A2
350
A69
  3
A3
350
A6A
  3
A4
350
A6B
  3
A5
350
A6C
  3
A6
350
A6D
  3
A7
350
A6E
  3
A8
350
A6F
  3
A9
350
A70
  3
B0
350
A71
  3
B1
350
A72
  3
B2
350
A73
  3
B3
350
A74
  3
B4
350
A75
  3
B5
350
A76
  3
B6
350
A77
  0
DICTIONARY
  5
A7A
102
{ACAD_REACTORS
330
C
102
}
330
C
100
AcDbDictionary
281
     1
  3
Metric50
350
A7B
  0
DICTIONARY
  5
A64
102
{ACAD_REACTORS
330
C
102
}
330
C
100
AcDbDictionary
281
     1
  3
Standard
350
A65
  0
DICTIONARY
  5
A4A
102
{ACAD_REACTORS
330
C
102
}
330
C
100
AcDbDictionary
281
     1
  3
2dWireframe
350
A50
  3
Basic
350
A4F
  3
Brighten
350
A56
  3
ColorChange
350
A5A
  3
Conceptual
350
A53
  3
Dim
350
A55
  3
EdgeColorOff
350
A62
  3
Facepattern
350
A59
  3
Flat
350
A4B
  3
FlatWithEdges
350
A4C
  3
Gouraud
350
A4D
  3
GouraudWithEdges
350
A4E
  3
Hidden
350
A52
  3
JitterOff
350
A60
  3
Linepattern
350
A58
  3
OverhangOff
350
A61
  3
Realistic
350
A54
  3
Shaded
350
A5F
  3
Shaded with edges
350
A5E
  3
Shades of Gray
350
A5B
  3
Sketchy
350
A5C
  3
Thicken
350
A57
  3
Wireframe
350
A51
  3
X-Ray
350
A5D
  0
XRECORD
  5
2CE
102
{ACAD_REACTORS
330
C
102
}
330
C
100
AcDbXrecord
280
     1
 90
   990106
  3

 60
     0
 61
     0
 62
     4
 63
     4
 64
     1
 65
     0
 66
     0
 67
     3
 68
     1
 69
     0
 70
     0
 71
     0
 72
     0
 40
0.0
170
     2
340
8AC
  0
XRECORD
  5
BBC
102
{ACAD_REACTORS
330
C
102
}
330
C
100
AcDbXrecord
280
     1
 90
        1
330
A65
  0
DICTIONARY
  5
B76
102
{ACAD_REACTORS
330
C
102
}
330
C
100
AcDbDictionary
281
     1
  3
CANNOSCALE
350
B7C
  3
CMLEADERSTYLE
350
B78
  3
CTABLESTYLE
350
B77
  3
CVIEWDETAILSTYLE
350
B79
  3
CVIEWSECTIONSTYLE
350
B7A
  3
LAYEREVAL
350
B7E
  3
LAYERNOTIFY
350
B7F
  3
LIGHTINGUNITS
350
B7D
  3
MSLTSCALE
350
B7B
  0
DICTIONARY
  5
234
102
{ACAD_REACTORS
330
C
102
}
330
C
100
AcDbDictionary
281
     1
  0
DICTIONARY
  5
AEF
102
{ACAD_REACTORS
330
AEE
102
}
330
AEE
100
AcDbDictionary
281
     1
  0
XRECORD
  5
A8A
102
{ACAD_REACTORS
330
A89
102
}
330
A89
100
AcDbXrecord
280
     1
290
     1
  0
XRECORD
  5
A8E
102
{ACAD_REACTORS
330
A8D
102
}
330
A8D
100
AcDbXrecord
280
     1
290
     1
  0
XRECORD
  5
A92
102
{ACAD_REACTORS
330
A91
102
}
330
A91
100
AcDbXrecord
280
     1
290
     1
  0
SORTENTSTABLE
  5
B34
102
{ACAD_REACTORS
330
B33
102
}
330
B33
100
AcDbSortentsTable
330
1A
331
730
  5
730
331
74A
  5
74A
331
B0A
  5
B2E
331
B1B
  5
B42
331
6DB
  5
6DB
331
6C1
  5
6C1
331
6B0
  5
6B0
331
69F
  5
69F
331
68E
  5
68E
331
67D
  5
67D
331
66C
  5
66C
331
65B
  5
65B
331
652
  5
652
331
641
  5
641
331
630
  5
630
331
B2C
  5
B53
331
6EC
  5
6EC
331
B3D
  5
B04
331
6FD
  5
6FD
331
B4E
  5
B17
331
70E
  5
70E
331
61F
  5
61F
331
60E
  5
60E
331
5FD
  5
5FD
331
5EC
  5
5EC
331
731
  5
731
331
742
  5
742
331
74B
  5
74B
331
B0B
  5
B2F
331
B1C
  5
B43
331
6DC
  5
6DC
331
6C2
  5
6C2
331
6B1
  5
6B1
331
6A0
  5
6A0
331
68F
  5
68F
331
67E
  5
67E
331
65C
  5
65C
331
653
  5
653
331
642
  5
642
331
631
  5
631
331
620
  5
620
331
B2D
  5
B54
331
6ED
  5
6ED
331
B3E
  5
B05
331
6FE
  5
6FE
331
B4F
  5
B18
331
70F
  5
70F
331
60F
  5
60F
331
5FE
  5
5FE
331
5ED
  5
5ED
331
B50
  5
B19
331
710
  5
710
331
721
  5
721
331
732
  5
732
331
743
  5
743
331
8BA
  5
8BA
331
B0C
  5
B30
331
8D4
  5
8D4
331
B1D
  5
B44
331
6DD
  5
6DD
331
6C3
  5
6C3
331
6B2
  5
6B2
331
6A1
  5
6A1
331
690
  5
690
331
67F
  5
67F
331
66E
  5
66E
331
65D
  5
65D
331
654
  5
654
331
643
  5
643
331
632
  5
632
331
621
  5
621
331
610
  5
610
331
B2E
  5
B55
331
6EE
  5
6EE
331
B3F
  5
B06
331
6FF
  5
6FF
331
5FF
  5
5FF
331
5EE
  5
5EE
331
B40
  5
B07
331
700
  5
700
331
B51
  5
B1A
331
711
  5
711
331
722
  5
722
331
733
  5
733
331
744
  5
744
331
877
  5
877
331
6C4
  5
6C4
331
6B3
  5
6B3
331
6A2
  5
6A2
331
691
  5
691
331
680
  5
680
331
66F
  5
66F
331
65E
  5
65E
331
655
  5
655
331
644
  5
644
331
633
  5
633
331
622
  5
622
331
611
  5
611
331
600
  5
600
331
B0D
  5
B31
331
B1E
  5
B45
331
6DE
  5
6DE
331
B2F
  5
B56
331
6EF
  5
6EF
331
5EF
  5
5EF
331
3AD
  5
3AD
331
B30
  5
B57
331
6F0
  5
6F0
331
B41
  5
B08
331
701
  5
701
331
B52
  5
B1B
331
712
  5
712
331
723
  5
723
331
734
  5
734
331
745
  5
745
331
8AB
  5
8AB
331
B0E
  5
B32
331
B1F
  5
B46
331
6DF
  5
6DF
331
6C5
  5
6C5
331
6B4
  5
6B4
331
6A3
  5
6A3
331
692
  5
692
331
681
  5
681
331
670
  5
670
331
65F
  5
65F
331
656
  5
656
331
645
  5
645
331
634
  5
634
331
623
  5
623
331
612
  5
612
331
601
  5
601
331
5F0
  5
5F0
331
B20
  5
B47
331
6E0
  5
6E0
331
B31
  5
B58
331
6F1
  5
6F1
331
B42
  5
B09
331
702
  5
702
331
B53
  5
B1C
331
713
  5
713
331
724
  5
724
331
746
  5
746
331
8AC
  5
8AC
331
B0F
  5
B35
331
6C6
  5
6C6
331
6B5
  5
6B5
331
6A4
  5
6A4
331
693
  5
693
331
682
  5
682
331
671
  5
671
331
660
  5
660
331
657
  5
657
331
646
  5
646
331
635
  5
635
331
624
  5
624
331
613
  5
613
331
602
  5
602
331
5F1
  5
5F1
331
B58
  5
B21
331
B21
  5
B48
331
B32
  5
B59
331
6F2
  5
6F2
331
6E1
  5
6E1
331
6D0
  5
6D0
331
B43
  5
B0A
331
703
  5
703
331
B54
  5
B1D
331
747
  5
747
331
8AD
  5
8AD
331
6C7
  5
6C7
331
6B6
  5
6B6
331
6A5
  5
6A5
331
694
  5
694
331
683
  5
683
331
672
  5
672
331
661
  5
661
331
647
  5
647
331
636
  5
636
331
625
  5
625
331
614
  5
614
331
603
  5
603
331
B59
  5
B22
331
B22
  5
B49
331
6E2
  5
6E2
331
6D1
  5
6D1
331
6C8
  5
6C8
331
6F3
  5
6F3
331
B44
  5
B0B
331
704
  5
704
331
B55
  5
B1E
331
737
  5
737
331
86A
  5
86A
331
6B7
  5
6B7
331
6A6
  5
6A6
331
695
  5
695
331
684
  5
684
331
673
  5
673
331
662
  5
662
331
648
  5
648
331
637
  5
637
331
626
  5
626
331
615
  5
615
331
604
  5
604
331
5F3
  5
5F3
331
B12
  5
B39
331
B5A
  5
B23
331
B23
  5
B4A
331
6E3
  5
6E3
331
6D2
  5
6D2
331
6C9
  5
6C9
331
6B8
  5
6B8
331
6F4
  5
6F4
331
B45
  5
B0E
331
705
  5
705
331
B56
  5
B1F
331
727
  5
727
331
738
  5
738
331
89E
  5
89E
331
6A7
  5
6A7
331
696
  5
696
331
685
  5
685
331
674
  5
674
331
663
  5
663
331
649
  5
649
331
638
  5
638
331
627
  5
627
331
616
  5
616
331
605
  5
605
331
5F4
  5
5F4
331
B13
  5
B3A
331
B5B
  5
B24
331
6D3
  5
6D3
331
6CA
  5
6CA
331
6B9
  5
6B9
331
6A8
  5
6A8
331
B24
  5
B4B
331
6E4
  5
6E4
331
B35
  5
B37
331
6F5
  5
6F5
331
B46
  5
B0F
331
706
  5
706
331
B57
  5
B20
331
728
  5
728
331
739
  5
739
331
697
  5
697
331
686
  5
686
331
675
  5
675
331
664
  5
664
331
64A
  5
64A
331
639
  5
639
331
628
  5
628
331
617
  5
617
331
606
  5
606
331
5F5
  5
5F5
331
5E4
  5
5E4
331
B03
  5
B27
331
B14
  5
B3B
331
B5C
  5
B25
331
6D4
  5
6D4
331
6CB
  5
6CB
331
6BA
  5
6BA
331
6A9
  5
6A9
331
698
  5
698
331
B25
  5
B4C
331
6E5
  5
6E5
331
B36
  5
B38
331
8FE
  5
8FE
331
6F6
  5
6F6
331
B47
  5
B10
331
707
  5
707
331
718
  5
718
331
729
  5
729
331
687
  5
687
331
676
  5
676
331
665
  5
665
331
64B
  5
64B
331
63A
  5
63A
331
629
  5
629
331
618
  5
618
331
607
  5
607
331
5F6
  5
5F6
331
5E5
  5
5E5
331
B04
  5
B28
331
B15
  5
B3C
331
B5D
  5
B26
331
6D5
  5
6D5
331
6CC
  5
6CC
331
6BB
  5
6BB
331
6AA
  5
6AA
331
699
  5
699
331
688
  5
688
331
B26
  5
B4D
331
6E6
  5
6E6
331
B37
  5
B36
331
6F7
  5
6F7
331
B48
  5
B11
331
708
  5
708
331
719
  5
719
331
72A
  5
72A
331
677
  5
677
331
666
  5
666
331
64C
  5
64C
331
63B
  5
63B
331
62A
  5
62A
331
619
  5
619
331
608
  5
608
331
5F7
  5
5F7
331
5E6
  5
5E6
331
9B8
  5
B5A
331
891
  5
891
331
B05
  5
B29
331
B16
  5
B3D
331
6D6
  5
6D6
331
6CD
  5
6CD
331
6BC
  5
6BC
331
6AB
  5
6AB
331
69A
  5
69A
331
689
  5
689
331
678
  5
678
331
B27
  5
B4E
331
6E7
  5
6E7
331
B38
  5
9B9
331
6F8
  5
6F8
331
B49
  5
B12
331
709
  5
709
331
71A
  5
71A
331
72B
  5
72B
331
73C
  5
73C
331
667
  5
667
331
64D
  5
64D
331
63C
  5
63C
331
62B
  5
62B
331
61A
  5
61A
331
609
  5
609
331
5F8
  5
5F8
331
5E7
  5
5E7
331
9B9
  5
B5B
331
B06
  5
B2A
331
B17
  5
B3E
331
6D7
  5
6D7
331
6CE
  5
6CE
331
6BD
  5
6BD
331
6AC
  5
6AC
331
69B
  5
69B
331
68A
  5
68A
331
679
  5
679
331
B28
  5
B4F
331
6E8
  5
6E8
331
B39
  5
9C6
331
6F9
  5
6F9
331
B4A
  5
B13
331
70A
  5
70A
331
71B
  5
71B
331
72C
  5
72C
331
73D
  5
73D
331
64E
  5
64E
331
63D
  5
63D
331
62C
  5
62C
331
61B
  5
61B
331
60A
  5
60A
331
5F9
  5
5F9
331
5E8
  5
5E8
331
B07
  5
B2B
331
B18
  5
B3F
331
6D8
  5
6D8
331
6CF
  5
6CF
331
6BE
  5
6BE
331
6AD
  5
6AD
331
69C
  5
69C
331
68B
  5
68B
331
67A
  5
67A
331
658
  5
658
331
B29
  5
B50
331
6E9
  5
6E9
331
B3A
  5
9D3
331
6FA
  5
6FA
331
B4B
  5
B14
331
70B
  5
70B
331
71C
  5
71C
331
72D
  5
72D
331
64F
  5
64F
331
63E
  5
63E
331
62D
  5
62D
331
61C
  5
61C
331
60B
  5
60B
331
5FA
  5
5FA
331
5E9
  5
5E9
331
748
  5
748
331
B08
  5
B2C
331
8C7
  5
8C7
331
B19
  5
B40
331
6D9
  5
6D9
331
6BF
  5
6BF
331
6AE
  5
6AE
331
69D
  5
69D
331
68C
  5
68C
331
67B
  5
67B
331
659
  5
659
331
650
  5
650
331
B2A
  5
B51
331
6EA
  5
6EA
331
B3B
  5
B02
331
6FB
  5
6FB
331
B4C
  5
B15
331
70C
  5
70C
331
71D
  5
71D
331
72E
  5
72E
331
63F
  5
63F
331
62E
  5
62E
331
61D
  5
61D
331
60C
  5
60C
331
5FB
  5
5FB
331
5EA
  5
5EA
331
749
  5
749
331
884
  5
884
331
B09
  5
B2D
331
B1A
  5
B41
331
6DA
  5
6DA
331
6C0
  5
6C0
331
6AF
  5
6AF
331
69E
  5
69E
331
68D
  5
68D
331
67C
  5
67C
331
66B
  5
66B
331
65A
  5
65A
331
651
  5
651
331
640
  5
640
331
B2B
  5
B52
331
6EB
  5
6EB
331
B3C
  5
B03
331
6FC
  5
6FC
331
B4D
  5
B16
331
70D
  5
70D
331
72F
  5
72F
331
62F
  5
62F
331
61E
  5
61E
331
60D
  5
60D
331
5FC
  5
5FC
331
5EB
  5
5EB
  0
ACDBDETAILVIEWSTYLE
  5
A7D
102
{ACAD_REACTORS
330
A7C
102
}
330
A7C
100
AcDbModelDocViewStyle
 70
     0
  3
Metric50
290
     1
100
AcDbDetailViewStyle
 70
     0
 71
     0
 90
        3
 71
     1
340
10
 62
   256
 40
5.0
340
0
 62
   256
 40
5.0
300

 40
0.0
280
     1
 71
     2
340
16
 90
       25
 62
   256
 71
     3
340
10
 62
   256
 40
5.0
 90
        0
 40
15.0
 90
        1
300
%<\AcVar ViewDetailId>% (%<\AcVar ViewScale \f "%sn">%)
 71
     4
340
16
 90
       25
 62
   256
340
16
 90
       25
 62
   256
280
     0
  0
LAYOUT
  5
2C4
102
{ACAD_REACTORS
330
2C2
102
}
330
2C2
100
AcDbPlotSettings
  1

  2
Laser Wind 2080W
  4

  6

 40
0.0
 41
0.0
 42
0.0
 43
0.0
 44
0.0
 45
0.0
 46
0.0
 47
0.0
 48
0.0
 49
0.0
140
0.0
141
0.0
142
1.0
143
1.0
 70
  1712
 72
     0
 73
     0
 74
     0
  7

 75
     0
147
1.0
 76
     0
 77
     2
 78
   300
148
0.0
149
0.0
100
AcDbLayout
  1
Model
 70
     1
 71
     0
 10
0.0
 20
0.0
 11
12.0
 21
9.0
 12
0.0
 22
0.0
 32
0.0
 14
0.0
 24
0.0
 34
0.0
 15
0.0
 25
0.0
 35
0.0
146
0.0
 13
0.0
 23
0.0
 33
0.0
 16
1.0
 26
0.0
 36
0.0
 17
0.0
 27
1.0
 37
0.0
 76
     0
330
1A
  0
LAYOUT
  5
2C5
102
{ACAD_REACTORS
330
2C2
102
}
330
2C2
100
AcDbPlotSettings
  1

  2
\\Adj-dv01-sv1\Canon LBP5700 LIPS
  4
A3
  6

 40
5.873749732971191
 41
5.873747825622558
 42
5.873748779296875
 43
5.873748779296875
 44
296.9259948730469
 45
419.9466552734374
 46
5.9
 47
9.009999999999999
 48
0.0
 49
0.0
140
0.0
141
0.0
142
1.0
143
1.0
 70
   692
 72
     1
 73
     1
 74
     1
  7
aclt.ctb
 75
    16
147
1.0
 76
     0
 77
     2
 78
   300
148
-14.9883313044736
149
-8.779223561501453
100
AcDbLayout
  1
ﾚｲｱｳﾄ1
 70
     1
 71
     1
 10
0.1045825251767294
 20
-2.994526171469738
 11
420.0512377986142
 21
293.9314687015772
 12
0.0
 22
0.0
 32
0.0
 14
20.0
 24
17.0
 34
0.0
 15
405.0
 25
281.9999999999999
 35
0.0
146
0.0
 13
0.0
 23
0.0
 33
0.0
 16
1.0
 26
0.0
 36
0.0
 17
0.0
 27
1.0
 37
0.0
 76
     0
330
17
331
22
  0
MATERIAL
  5
A3A
102
{ACAD_XDICTIONARY
360
A3B
102
}
102
{ACAD_REACTORS
330
A31
102
}
330
A31
100
AcDbMaterial
  1
ByBlock
 72
     0
 43
0.0208333333333333
 43
0.0
 43
0.0
 43
0.0
 43
0.0
 43
0.0208333333333333
 43
0.0
 43
0.0
 43
0.0
 43
0.0
 43
1.0
 43
0.0
 43
0.0
 43
0.0
 43
0.0
 43
1.0
 77
     0
 47
0.0208333333333333
 47
0.0
 47
0.0
 47
0.0
 47
0.0
 47
0.0208333333333333
 47
0.0
 47
0.0
 47
0.0
 47
0.0
 47
1.0
 47
0.0
 47
0.0
 47
0.0
 47
0.0
 47
1.0
171
     0
 49
0.0208333333333333
 49
0.0
 49
0.0
 49
0.0
 49
0.0
 49
0.0208333333333333
 49
0.0
 49
0.0
 49
0.0
 49
0.0
 49
1.0
 49
0.0
 49
0.0
 49
0.0
 49
0.0
 49
1.0
175
     0
142
0.0208333333333333
142
0.0
142
0.0
142
0.0
142
0.0
142
0.0208333333333333
142
0.0
142
0.0
142
0.0
142
0.0
142
1.0
142
0.0
142
0.0
142
0.0
142
0.0
142
1.0
179
     0
144
0.0208333333333333
144
0.0
144
0.0
144
0.0
144
0.0
144
0.0208333333333333
144
0.0
144
0.0
144
0.0
144
0.0
144
1.0
144
0.0
144
0.0
144
0.0
144
0.0
144
1.0
147
0.0208333333333333
147
0.0
147
0.0
147
0.0
147
0.0
147
0.0208333333333333
147
0.0
147
0.0
147
0.0
147
0.0
147
1.0
147
0.0
147
0.0
147
0.0
147
0.0
147
1.0
  0
MATERIAL
  5
A32
102
{ACAD_XDICTIONARY
360
A33
102
}
102
{ACAD_REACTORS
330
A31
102
}
330
A31
100
AcDbMaterial
  1
ByLayer
 72
     0
 43
0.0208333333333333
 43
0.0
 43
0.0
 43
0.0
 43
0.0
 43
0.0208333333333333
 43
0.0
 43
0.0
 43
0.0
 43
0.0
 43
1.0
 43
0.0
 43
0.0
 43
0.0
 43
0.0
 43
1.0
 77
     0
 47
0.0208333333333333
 47
0.0
 47
0.0
 47
0.0
 47
0.0
 47
0.0208333333333333
 47
0.0
 47
0.0
 47
0.0
 47
0.0
 47
1.0
 47
0.0
 47
0.0
 47
0.0
 47
0.0
 47
1.0
171
     0
 49
0.0208333333333333
 49
0.0
 49
0.0
 49
0.0
 49
0.0
 49
0.0208333333333333
 49
0.0
 49
0.0
 49
0.0
 49
0.0
 49
1.0
 49
0.0
 49
0.0
 49
0.0
 49
0.0
 49
1.0
175
     0
142
0.0208333333333333
142
0.0
142
0.0
142
0.0
142
0.0
142
0.0208333333333333
142
0.0
142
0.0
142
0.0
142
0.0
142
1.0
142
0.0
142
0.0
142
0.0
142
0.0
142
1.0
179
     0
144
0.0208333333333333
144
0.0
144
0.0
144
0.0
144
0.0
144
0.0208333333333333
144
0.0
144
0.0
144
0.0
144
0.0
144
1.0
144
0.0
144
0.0
144
0.0
144
0.0
144
1.0
147
0.0208333333333333
147
0.0
147
0.0
147
0.0
147
0.0
147
0.0208333333333333
147
0.0
147
0.0
147
0.0
147
0.0
147
1.0
147
0.0
147
0.0
147
0.0
147
0.0
147
1.0
  0
MATERIAL
  5
A42
102
{ACAD_XDICTIONARY
360
A43
102
}
102
{ACAD_REACTORS
330
A31
102
}
330
A31
100
AcDbMaterial
  1
Global
 72
     0
 43
0.0208333333333333
 43
0.0
 43
0.0
 43
0.0
 43
0.0
 43
0.0208333333333333
 43
0.0
 43
0.0
 43
0.0
 43
0.0
 43
1.0
 43
0.0
 43
0.0
 43
0.0
 43
0.0
 43
1.0
 77
     0
 47
0.0208333333333333
 47
0.0
 47
0.0
 47
0.0
 47
0.0
 47
0.0208333333333333
 47
0.0
 47
0.0
 47
0.0
 47
0.0
 47
1.0
 47
0.0
 47
0.0
 47
0.0
 47
0.0
 47
1.0
171
     0
 49
0.0208333333333333
 49
0.0
 49
0.0
 49
0.0
 49
0.0
 49
0.0208333333333333
 49
0.0
 49
0.0
 49
0.0
 49
0.0
 49
1.0
 49
0.0
 49
0.0
 49
0.0
 49
0.0
 49
1.0
175
     0
142
0.0208333333333333
142
0.0
142
0.0
142
0.0
142
0.0
142
0.0208333333333333
142
0.0
142
0.0
142
0.0
142
0.0
142
1.0
142
0.0
142
0.0
142
0.0
142
0.0
142
1.0
179
     0
144
0.0208333333333333
144
0.0
144
0.0
144
0.0
144
0.0
144
0.0208333333333333
144
0.0
144
0.0
144
0.0
144
0.0
144
1.0
144
0.0
144
0.0
144
0.0
144
0.0
144
1.0
147
0.0208333333333333
147
0.0
147
0.0
147
0.0
147
0.0
147
0.0208333333333333
147
0.0
147
0.0
147
0.0
147
0.0
147
1.0
147
0.0
147
0.0
147
0.0
147
0.0
147
1.0
  0
MLEADERSTYLE
  5
A79
102
{ACAD_REACTORS
330
A78
102
}
330
A78
100
AcDbMLeaderStyle
179
     2
170
     2
171
     1
172
     0
 90
        2
 40
0.0
 41
0.0
173
     1
 91
-1056964608
340
14
 92
       -2
290
     1
 42
2.0
291
     1
 43
0.36
  3
Standard
 44
4.0
300

342
10
174
     1
178
     6
175
     1
176
     0
 93
-1056964608
 45
4.0
292
     0
297
     0
 46
4.0
 94
-1056964608
 47
1.0
 49
1.0
140
1.0
293
     1
141
0.0
294
     1
177
     0
142
1.0
295
     1
296
     0
143
0.125
271
     0
272
     9
273
     9
298
     1
  0
MLINESTYLE
  5
13
102
{ACAD_REACTORS
330
E
102
}
330
E
100
AcDbMlineStyle
  2
STANDARD
 70
     0
  3

 62
     0
 51
90.0
 52
90.0
 71
     2
 49
0.5
 62
   256
  6
BYLAYER
 49
-0.5
 62
   256
  6
BYLAYER
  0
PLOTSETTINGS
  5
2DD
102
{ACAD_REACTORS
330
2C3
102
}
330
2C3
100
AcDbPlotSettings
  1
A3form
  2
Laser Wind 2080W
  4
A3
  6

 40
4.773083209991455
 41
4.773059368133544
 42
4.7730712890625
 43
4.7730712890625
 44
297.0106506347656
 45
419.9889831542968
 46
0.0
 47
0.0
 48
0.0
 49
0.0
140
0.0
141
0.0
142
1.0
143
1.000041778052157
 70
   688
 72
     1
 73
     1
 74
     2
  7
monochrome.ctb
 75
     0
147
0.9999582236931756
 76
     0
 77
     2
 78
   300
148
0.0
149
0.0
  0
ACDBPLACEHOLDER
  5
2C1
102
{ACAD_REACTORS
330
2C0
102
}
330
2C0
  0
SCALE
  5
A67
102
{ACAD_REACTORS
330
A66
102
}
330
A66
100
AcDbScale
 70
     0
300
1:1
140
1.0
141
1.0
290
     1
  0
SCALE
  5
A68
102
{ACAD_REACTORS
330
A66
102
}
330
A66
100
AcDbScale
 70
     0
300
1:2
140
1.0
141
2.0
290
     0
  0
SCALE
  5
A69
102
{ACAD_REACTORS
330
A66
102
}
330
A66
100
AcDbScale
 70
     0
300
1:4
140
1.0
141
4.0
290
     0
  0
SCALE
  5
A6A
102
{ACAD_REACTORS
330
A66
102
}
330
A66
100
AcDbScale
 70
     0
300
1:5
140
1.0
141
5.0
290
     0
  0
SCALE
  5
A6B
102
{ACAD_REACTORS
330
A66
102
}
330
A66
100
AcDbScale
 70
     0
300
1:8
140
1.0
141
8.0
290
     0
  0
SCALE
  5
A6C
102
{ACAD_REACTORS
330
A66
102
}
330
A66
100
AcDbScale
 70
     0
300
1:10
140
1.0
141
10.0
290
     0
  0
SCALE
  5
A6D
102
{ACAD_REACTORS
330
A66
102
}
330
A66
100
AcDbScale
 70
     0
300
1:16
140
1.0
141
16.0
290
     0
  0
SCALE
  5
A6E
102
{ACAD_REACTORS
330
A66
102
}
330
A66
100
AcDbScale
 70
     0
300
1:20
140
1.0
141
20.0
290
     0
  0
SCALE
  5
A6F
102
{ACAD_REACTORS
330
A66
102
}
330
A66
100
AcDbScale
 70
     0
300
1:30
140
1.0
141
30.0
290
     0
  0
SCALE
  5
A70
102
{ACAD_REACTORS
330
A66
102
}
330
A66
100
AcDbScale
 70
     0
300
1:40
140
1.0
141
40.0
290
     0
  0
SCALE
  5
A71
102
{ACAD_REACTORS
330
A66
102
}
330
A66
100
AcDbScale
 70
     0
300
1:50
140
1.0
141
50.0
290
     0
  0
SCALE
  5
A72
102
{ACAD_REACTORS
330
A66
102
}
330
A66
100
AcDbScale
 70
     0
300
1:100
140
1.0
141
100.0
290
     0
  0
SCALE
  5
A73
102
{ACAD_REACTORS
330
A66
102
}
330
A66
100
AcDbScale
 70
     0
300
2:1
140
2.0
141
1.0
290
     0
  0
SCALE
  5
A74
102
{ACAD_REACTORS
330
A66
102
}
330
A66
100
AcDbScale
 70
     0
300
4:1
140
4.0
141
1.0
290
     0
  0
SCALE
  5
A75
102
{ACAD_REACTORS
330
A66
102
}
330
A66
100
AcDbScale
 70
     0
300
8:1
140
8.0
141
1.0
290
     0
  0
SCALE
  5
A76
102
{ACAD_REACTORS
330
A66
102
}
330
A66
100
AcDbScale
 70
     0
300
10:1
140
10.0
141
1.0
290
     0
  0
SCALE
  5
A77
102
{ACAD_REACTORS
330
A66
102
}
330
A66
100
AcDbScale
 70
     0
300
100:1
140
100.0
141
1.0
290
     0
  0
ACDBSECTIONVIEWSTYLE
  5
A7B
102
{ACAD_REACTORS
330
A7A
102
}
330
A7A
100
AcDbModelDocViewStyle
 70
     0
  3
Metric50
290
     1
100
AcDbSectionViewStyle
 70
     0
 71
     0
 90
      102
 71
     1
340
10
 62
   256
 40
5.0
340
0
340
0
 62
   256
 40
5.0
300
I, O, Q, S, X, Z
 40
10.0
 90
        0
 40
2.5
 90
        0
 71
     2
340
16
 90
       25
 62
   256
340
16
 90
       50
 62
   256
 40
5.0
 40
2.5
 40
5.0
 71
     3
340
10
 62
   256
 40
5.0
 90
        0
 40
15.0
 90
        1
300
%<\AcVar ViewSectionStartId>%-%<\AcVar ViewSectionEndId>% (%<\AcVar ViewScale \f "%sn">%)
 71
     4
 62
   256
 62
   257
300
ANSI31
 40
1.0
 90
        0
290
     0
290
     0
 90
        6
 40
0.0
 40
1.570796326794896
 40
0.2617993877991494
 40
1.308996938995747
 40
-0.2617993877991494
 40
1.832595714594046
  0
TABLESTYLE
  5
A65
102
{ACAD_XDICTIONARY
360
BBA
102
}
102
{ACAD_REACTORS
330
A64
102
}
330
A64
100
AcDbTableStyle
280
     0
  3
Standard
 70
     0
 71
     0
 40
1.5
 41
1.5
280
     0
281
     0
  7
STANDARD
140
4.5
170
     2
 62
     0
 63
     7
283
     0
 90
      512
 91
        0
  1

274
    -2
284
     1
 64
     0
275
    -2
285
     1
 65
     0
276
    -2
286
     1
 66
     0
277
    -2
287
     1
 67
     0
278
    -2
288
     1
 68
     0
279
    -2
289
     1
 69
     0
  7
STANDARD
140
6.0
170
     5
 62
     0
 63
     7
283
     0
 90
      512
 91
        0
  1

274
    -2
284
     1
 64
     0
275
    -2
285
     1
 65
     0
276
    -2
286
     1
 66
     0
277
    -2
287
     1
 67
     0
278
    -2
288
     1
 68
     0
279
    -2
289
     1
 69
     0
  7
STANDARD
140
4.5
170
     5
 62
     0
 63
     7
283
     0
 90
      512
 91
        0
  1

274
    -2
284
     1
 64
     0
275
    -2
285
     1
 65
     0
276
    -2
286
     1
 66
     0
277
    -2
287
     1
 67
     0
278
    -2
288
     1
 68
     0
279
    -2
289
     1
 69
     0
  0
VISUALSTYLE
  5
A50
102
{ACAD_REACTORS
330
A4A
102
}
330
A4A
100
AcDbVisualStyle
  2
2dWireframe
 70
     4
177
     3
291
     0
 70
    58
 90
        0
176
     1
 90
        2
176
     1
 90
        0
176
     1
 90
        0
176
     1
 40
0.6
176
     1
 40
30.0
176
     1
 62
     7
420
 16777215
176
     1
 90
        1
176
     1
 90
        4
176
     1
 62
     7
176
     1
 62
   257
176
     1
 90
        1
176
     1
 90
        1
176
     1
 40
1.0
176
     1
 90
        0
176
     1
 62
   257
176
     1
 40
1.0
176
     1
 90
        1
176
     1
 90
        6
176
     1
 90
        2
176
     1
 62
     7
176
     1
 90
        5
176
     1
 90
        0
176
     1
 90
        0
176
     1
290
     0
176
     1
 90
        1
176
     1
 40
0.0
176
     1
 90
        0
176
     1
290
     1
176
     1
290
     1
176
     1
290
     0
176
     1
290
     0
176
     1
290
     0
176
     1
290
     0
176
     1
290
     0
176
     1
290
     0
176
     1
290
     0
176
     1
 90
       50
176
     1
 40
0.0
176
     1
 40
1.0
176
     1
 90
        0
176
     1
 62
    18
420
        0
176
     1
 90
       50
176
     1
 90
        3
176
     1
 62
     5
420
      255
176
     1
290
     0
176
     1
 90
       50
176
     1
 90
       50
176
     1
 90
       50
176
     1
290
     0
176
     1
 90
       50
176
     1
 62
   256
176
     0
 40
1.0
176
     0
 90
        2
176
     1
  1
strokes_ogs.tif
176
     1
290
     0
176
     1
 40
1.0
176
     1
 40
1.0
176
     1
  0
VISUALSTYLE
  5
A4F
102
{ACAD_REACTORS
330
A4A
102
}
330
A4A
100
AcDbVisualStyle
  2
Basic
 70
     7
177
     3
291
     1
 70
    58
 90
        1
176
     1
 90
        0
176
     1
 90
        1
176
     1
 90
        0
176
     1
 40
0.6
176
     1
 40
30.0
176
     1
 62
     7
420
 16777215
176
     1
 90
        0
176
     1
 90
        4
176
     1
 62
     7
176
     1
 62
   257
176
     1
 90
        1
176
     1
 90
        1
176
     1
 40
1.0
176
     1
 90
        8
176
     1
 62
     7
176
     1
 40
1.0
176
     1
 90
        1
176
     1
 90
        6
176
     1
 90
        2
176
     1
 62
     7
176
     1
 90
        5
176
     1
 90
        0
176
     1
 90
        0
176
     1
290
     0
176
     1
 90
        1
176
     1
 40
0.0
176
     1
 90
        0
176
     1
290
     0
176
     1
290
     1
176
     1
290
     1
176
     1
290
     0
176
     1
290
     0
176
     1
290
     0
176
     1
290
     0
176
     1
290
     0
176
     1
290
     0
176
     1
 90
       50
176
     1
 40
0.0
176
     1
 40
1.0
176
     1
 90
        0
176
     1
 62
    18
420
        0
176
     1
 90
       50
176
     1
 90
        3
176
     1
 62
     5
420
      255
176
     1
290
     0
176
     1
 90
       50
176
     1
 90
       50
176
     1
 90
       50
176
     1
290
     0
176
     1
 90
       50
176
     1
 62
   256
176
     0
 40
1.0
176
     0
 90
        2
176
     1
  1
strokes_ogs.tif
176
     1
290
     0
176
     1
 40
1.0
176
     1
 40
1.0
176
     1
  0
VISUALSTYLE
  5
A56
102
{ACAD_REACTORS
330
A4A
102
}
330
A4A
100
AcDbVisualStyle
  2
Brighten
 70
    12
177
     3
291
     1
 70
    58
 90
        2
176
     1
 90
        2
176
     1
 90
        0
176
     1
 90
        0
176
     1
 40
0.6
176
     1
 40
30.0
176
     1
 62
     7
420
 16777215
176
     1
 90
        1
176
     1
 90
        4
176
     1
 62
     7
176
     1
 62
   257
176
     1
 90
        1
176
     1
 90
        1
176
     1
 40
1.0
176
     1
 90
        8
176
     1
 62
     7
176
     1
 40
1.0
176
     1
 90
        1
176
     1
 90
        6
176
     1
 90
        2
176
     1
 62
     7
176
     1
 90
        5
176
     1
 90
        0
176
     1
 90
        0
176
     1
290
     0
176
     1
 90
        1
176
     1
 40
50.0
176
     1
 90
        0
176
     1
290
     0
176
     1
290
     1
176
     1
290
     1
176
     1
290
     0
176
     1
290
     0
176
     1
290
     0
176
     1
290
     0
176
     1
290
     0
176
     1
290
     0
176
     1
 90
       50
176
     1
 40
0.0
176
     1
 40
1.0
176
     1
 90
        0
176
     1
 62
    18
420
        0
176
     1
 90
       50
176
     1
 90
        3
176
     1
 62
     5
420
      255
176
     1
290
     0
176
     1
 90
       50
176
     1
 90
       50
176
     1
 90
       50
176
     1
290
     0
176
     1
 90
       50
176
     1
 62
   256
176
     0
 40
1.0
176
     0
 90
        2
176
     1
  1
strokes_ogs.tif
176
     1
290
     0
176
     1
 40
1.0
176
     1
 40
1.0
176
     1
  0
VISUALSTYLE
  5
A5A
102
{ACAD_REACTORS
330
A4A
102
}
330
A4A
100
AcDbVisualStyle
  2
ColorChange
 70
    16
177
     3
291
     1
 70
    58
 90
        2
176
     1
 90
        2
176
     1
 90
        3
176
     1
 90
        0
176
     1
 40
0.6
176
     1
 40
30.0
176
     1
 62
     8
420
  8421504
176
     1
 90
        1
176
     1
 90
        4
176
     1
 62
     7
176
     1
 62
   257
176
     1
 90
        1
176
     1
 90
        1
176
     1
 40
1.0
176
     1
 90
        8
176
     1
 62
     8
420
  8421504
176
     1
 40
1.0
176
     1
 90
        1
176
     1
 90
        6
176
     1
 90
        2
176
     1
 62
     7
176
     1
 90
        5
176
     1
 90
        0
176
     1
 90
        0
176
     1
290
     0
176
     1
 90
        1
176
     1
 40
0.0
176
     1
 90
        0
176
     1
290
     0
176
     1
290
     1
176
     1
290
     1
176
     1
290
     0
176
     1
290
     0
176
     1
290
     0
176
     1
290
     0
176
     1
290
     0
176
     1
290
     0
176
     1
 90
       50
176
     1
 40
0.0
176
     1
 40
1.0
176
     1
 90
        0
176
     1
 62
    18
420
        0
176
     1
 90
       50
176
     1
 90
        3
176
     1
 62
     5
420
      255
176
     1
290
     0
176
     1
 90
       50
176
     1
 90
       50
176
     1
 90
       50
176
     1
290
     0
176
     1
 90
       50
176
     1
 62
   256
176
     0
 40
1.0
176
     0
 90
        2
176
     1
  1
strokes_ogs.tif
176
     1
290
     0
176
     1
 40
1.0
176
     1
 40
1.0
176
     1
  0
VISUALSTYLE
  5
A53
102
{ACAD_REACTORS
330
A4A
102
}
330
A4A
100
AcDbVisualStyle
  2
Conceptual
 70
     9
177
     3
291
     0
 70
    58
 90
        3
176
     1
 90
        2
176
     1
 90
        0
176
     1
 90
        0
176
     1
 40
0.6
176
     1
 40
30.0
176
     1
 62
     7
420
 16777215
176
     1
 90
        2
176
     1
 90
        2
176
     1
 62
     7
176
     1
 62
   257
176
     1
 90
        1
176
     1
 90
        1
176
     1
 40
179.0
176
     1
 90
        8
176
     1
 62
     7
176
     1
 40
1.0
176
     1
 90
        1
176
     1
 90
        6
176
     1
 90
        2
176
     1
 62
     7
176
     1
 90
        3
176
     1
 90
        0
176
     1
 90
        0
176
     1
290
     0
176
     1
 90
        1
176
     1
 40
0.0
176
     1
 90
        0
176
     1
290
     0
176
     1
290
     1
176
     1
290
     1
176
     1
290
     0
176
     1
290
     0
176
     1
290
     0
176
     1
290
     0
176
     1
290
     0
176
     1
290
     0
176
     1
 90
       50
176
     1
 40
0.0
176
     1
 40
1.0
176
     1
 90
        0
176
     1
 62
    18
420
        0
176
     1
 90
       50
176
     1
 90
        3
176
     1
 62
     5
420
      255
176
     1
290
     0
176
     1
 90
       50
176
     1
 90
       50
176
     1
 90
       50
176
     1
290
     0
176
     1
 90
       50
176
     1
 62
   256
176
     0
 40
1.0
176
     0
 90
        2
176
     1
  1
strokes_ogs.tif
176
     1
290
     0
176
     1
 40
1.0
176
     1
 40
1.0
176
     1
  0
VISUALSTYLE
  5
A55
102
{ACAD_REACTORS
330
A4A
102
}
330
A4A
100
AcDbVisualStyle
  2
Dim
 70
    11
177
     3
291
     1
 70
    58
 90
        2
176
     1
 90
        2
176
     1
 90
        0
176
     1
 90
        0
176
     1
 40
0.6
176
     1
 40
30.0
176
     1
 62
     7
420
 16777215
176
     1
 90
        1
176
     1
 90
        4
176
     1
 62
     7
176
     1
 62
   257
176
     1
 90
        1
176
     1
 90
        1
176
     1
 40
1.0
176
     1
 90
        8
176
     1
 62
     7
176
     1
 40
1.0
176
     1
 90
        1
176
     1
 90
        6
176
     1
 90
        2
176
     1
 62
     7
176
     1
 90
        5
176
     1
 90
        0
176
     1
 90
        0
176
     1
290
     0
176
     1
 90
        1
176
     1
 40
-50.0
176
     1
 90
        0
176
     1
290
     0
176
     1
290
     1
176
     1
290
     1
176
     1
290
     0
176
     1
290
     0
176
     1
290
     0
176
     1
290
     0
176
     1
290
     0
176
     1
290
     0
176
     1
 90
       50
176
     1
 40
0.0
176
     1
 40
1.0
176
     1
 90
        0
176
     1
 62
    18
420
        0
176
     1
 90
       50
176
     1
 90
        3
176
     1
 62
     5
420
      255
176
     1
290
     0
176
     1
 90
       50
176
     1
 90
       50
176
     1
 90
       50
176
     1
290
     0
176
     1
 90
       50
176
     1
 62
   256
176
     0
 40
1.0
176
     0
 90
        2
176
     1
  1
strokes_ogs.tif
176
     1
290
     0
176
     1
 40
1.0
176
     1
 40
1.0
176
     1
  0
VISUALSTYLE
  5
A62
102
{ACAD_REACTORS
330
A4A
102
}
330
A4A
100
AcDbVisualStyle
  2
EdgeColorOff
 70
    22
177
     3
291
     1
 70
    58
 90
        2
176
     0
 90
        2
176
     0
 90
        0
176
     0
 90
        0
176
     0
 40
0.6
176
     0
 40
30.0
176
     0
 62
     7
420
 16777215
176
     0
 90
        1
176
     0
 90
        4
176
     0
 62
     7
176
     0
 62
   257
176
     0
 90
        1
176
     0
 90
        1
176
     0
 40
1.0
176
     0
 90
        8
176
     2
 62
     7
176
     0
 40
1.0
176
     0
 90
        1
176
     0
 90
        6
176
     0
 90
        2
176
     0
 62
     7
176
     0
 90
        5
176
     0
 90
        0
176
     0
 90
        0
176
     0
290
     0
176
     0
 90
        1
176
     0
 40
0.0
176
     0
 90
        0
176
     0
290
     0
176
     0
290
     1
176
     0
290
     1
176
     0
290
     0
176
     0
290
     0
176
     0
290
     0
176
     0
290
     0
176
     0
290
     0
176
     0
290
     0
176
     0
 90
       50
176
     0
 40
0.0
176
     0
 40
1.0
176
     0
 90
        0
176
     0
 62
    18
420
        0
176
     0
 90
       50
176
     0
 90
        3
176
     0
 62
     5
420
      255
176
     0
290
     0
176
     0
 90
       50
176
     0
 90
       50
176
     0
 90
       50
176
     0
290
     0
176
     0
 90
       50
176
     0
 62
   256
176
     0
 40
1.0
176
     0
 90
        2
176
     0
  1
strokes_ogs.tif
176
     0
290
     0
176
     0
 40
1.0
176
     0
 40
1.0
176
     0
  0
VISUALSTYLE
  5
A59
102
{ACAD_REACTORS
330
A4A
102
}
330
A4A
100
AcDbVisualStyle
  2
Facepattern
 70
    15
177
     3
291
     1
 70
    58
 90
        2
176
     1
 90
        2
176
     1
 90
        0
176
     1
 90
        0
176
     1
 40
0.6
176
     1
 40
30.0
176
     1
 62
     7
420
 16777215
176
     1
 90
        1
176
     1
 90
        4
176
     1
 62
     7
176
     1
 62
   257
176
     1
 90
        1
176
     1
 90
        1
176
     1
 40
1.0
176
     1
 90
        8
176
     1
 62
     7
176
     1
 40
1.0
176
     1
 90
        1
176
     1
 90
        6
176
     1
 90
        2
176
     1
 62
     7
176
     1
 90
        5
176
     1
 90
        0
176
     1
 90
        0
176
     1
290
     0
176
     1
 90
        1
176
     1
 40
0.0
176
     1
 90
        0
176
     1
290
     0
176
     1
290
     1
176
     1
290
     1
176
     1
290
     0
176
     1
290
     0
176
     1
290
     0
176
     1
290
     0
176
     1
290
     0
176
     1
290
     0
176
     1
 90
       50
176
     1
 40
0.0
176
     1
 40
1.0
176
     1
 90
        0
176
     1
 62
    18
420
        0
176
     1
 90
       50
176
     1
 90
        3
176
     1
 62
     5
420
      255
176
     1
290
     0
176
     1
 90
       50
176
     1
 90
       50
176
     1
 90
       50
176
     1
290
     0
176
     1
 90
       50
176
     1
 62
   256
176
     0
 40
1.0
176
     0
 90
        2
176
     1
  1
strokes_ogs.tif
176
     1
290
     0
176
     1
 40
1.0
176
     1
 40
1.0
176
     1
  0
VISUALSTYLE
  5
A4B
102
{ACAD_REACTORS
330
A4A
102
}
330
A4A
100
AcDbVisualStyle
  2
Flat
 70
     0
177
     3
291
     1
 70
    58
 90
        2
176
     1
 90
        1
176
     1
 90
        1
176
     1
 90
        2
176
     1
 40
0.6
176
     1
 40
30.0
176
     1
 62
     7
420
 16777215
176
     1
 90
        0
176
     1
 90
        0
176
     1
 62
     7
176
     1
 62
   257
176
     1
 90
        1
176
     1
 90
        1
176
     1
 40
1.0
176
     1
 90
        8
176
     1
 62
     7
176
     1
 40
1.0
176
     1
 90
        1
176
     1
 90
        6
176
     1
 90
        2
176
     1
 62
     7
176
     1
 90
        5
176
     1
 90
        0
176
     1
 90
        0
176
     1
290
     0
176
     1
 90
       13
176
     1
 40
0.0
176
     1
 90
        0
176
     1
290
     0
176
     1
290
     1
176
     1
290
     1
176
     1
290
     0
176
     1
290
     0
176
     1
290
     0
176
     1
290
     0
176
     1
290
     0
176
     1
290
     0
176
     1
 90
       50
176
     1
 40
0.0
176
     1
 40
1.0
176
     1
 90
        0
176
     1
 62
    18
420
        0
176
     1
 90
       50
176
     1
 90
        3
176
     1
 62
     5
420
      255
176
     1
290
     0
176
     1
 90
       50
176
     1
 90
       50
176
     1
 90
       50
176
     1
290
     0
176
     1
 90
       50
176
     1
 62
   256
176
     0
 40
1.0
176
     0
 90
        2
176
     1
  1
strokes_ogs.tif
176
     1
290
     0
176
     1
 40
1.0
176
     1
 40
1.0
176
     1
  0
VISUALSTYLE
  5
A4C
102
{ACAD_REACTORS
330
A4A
102
}
330
A4A
100
AcDbVisualStyle
  2
FlatWithEdges
 70
     1
177
     3
291
     1
 70
    58
 90
        2
176
     1
 90
        1
176
     1
 90
        1
176
     1
 90
        2
176
     1
 40
0.6
176
     1
 40
30.0
176
     1
 62
     7
420
 16777215
176
     1
 90
        1
176
     1
 90
        0
176
     1
 62
     7
176
     1
 62
   257
176
     1
 90
        1
176
     1
 90
        1
176
     1
 40
1.0
176
     1
 90
        0
176
     1
 62
   257
176
     1
 40
1.0
176
     1
 90
        1
176
     1
 90
        6
176
     1
 90
        2
176
     1
 62
     7
176
     1
 90
        5
176
     1
 90
        0
176
     1
 90
        0
176
     1
290
     0
176
     1
 90
       13
176
     1
 40
0.0
176
     1
 90
        0
176
     1
290
     0
176
     1
290
     1
176
     1
290
     1
176
     1
290
     0
176
     1
290
     0
176
     1
290
     0
176
     1
290
     0
176
     1
290
     0
176
     1
290
     0
176
     1
 90
       50
176
     1
 40
0.0
176
     1
 40
1.0
176
     1
 90
        0
176
     1
 62
    18
420
        0
176
     1
 90
       50
176
     1
 90
        3
176
     1
 62
     5
420
      255
176
     1
290
     0
176
     1
 90
       50
176
     1
 90
       50
176
     1
 90
       50
176
     1
290
     0
176
     1
 90
       50
176
     1
 62
   256
176
     0
 40
1.0
176
     0
 90
        2
176
     1
  1
strokes_ogs.tif
176
     1
290
     0
176
     1
 40
1.0
176
     1
 40
1.0
176
     1
  0
VISUALSTYLE
  5
A4D
102
{ACAD_REACTORS
330
A4A
102
}
330
A4A
100
AcDbVisualStyle
  2
Gouraud
 70
     2
177
     3
291
     1
 70
    58
 90
        2
176
     1
 90
        2
176
     1
 90
        1
176
     1
 90
        2
176
     1
 40
0.6
176
     1
 40
30.0
176
     1
 62
     7
420
 16777215
176
     1
 90
        0
176
     1
 90
        0
176
     1
 62
     7
176
     1
 62
   257
176
     1
 90
        1
176
     1
 90
        1
176
     1
 40
1.0
176
     1
 90
        0
176
     1
 62
     7
176
     1
 40
1.0
176
     1
 90
        1
176
     1
 90
        6
176
     1
 90
        2
176
     1
 62
     7
176
     1
 90
        5
176
     1
 90
        0
176
     1
 90
        0
176
     1
290
     0
176
     1
 90
       13
176
     1
 40
0.0
176
     1
 90
        0
176
     1
290
     0
176
     1
290
     1
176
     1
290
     1
176
     1
290
     0
176
     1
290
     0
176
     1
290
     0
176
     1
290
     0
176
     1
290
     0
176
     1
290
     0
176
     1
 90
       50
176
     1
 40
0.0
176
     1
 40
1.0
176
     1
 90
        0
176
     1
 62
    18
420
        0
176
     1
 90
       50
176
     1
 90
        3
176
     1
 62
     5
420
      255
176
     1
290
     0
176
     1
 90
       50
176
     1
 90
       50
176
     1
 90
       50
176
     1
290
     0
176
     1
 90
       50
176
     1
 62
   256
176
     0
 40
1.0
176
     0
 90
        2
176
     1
  1
strokes_ogs.tif
176
     1
290
     0
176
     1
 40
1.0
176
     1
 40
1.0
176
     1
  0
VISUALSTYLE
  5
A4E
102
{ACAD_REACTORS
330
A4A
102
}
330
A4A
100
AcDbVisualStyle
  2
GouraudWithEdges
 70
     3
177
     3
291
     1
 70
    58
 90
        2
176
     1
 90
        2
176
     1
 90
        1
176
     1
 90
        2
176
     1
 40
0.6
176
     1
 40
30.0
176
     1
 62
     7
420
 16777215
176
     1
 90
        1
176
     1
 90
        0
176
     1
 62
     7
176
     1
 62
   257
176
     1
 90
        1
176
     1
 90
        1
176
     1
 40
1.0
176
     1
 90
        0
176
     1
 62
   257
176
     1
 40
1.0
176
     1
 90
        1
176
     1
 90
        6
176
     1
 90
        2
176
     1
 62
     7
176
     1
 90
        5
176
     1
 90
        0
176
     1
 90
        0
176
     1
290
     0
176
     1
 90
       13
176
     1
 40
0.0
176
     1
 90
        0
176
     1
290
     0
176
     1
290
     1
176
     1
290
     1
176
     1
290
     0
176
     1
290
     0
176
     1
290
     0
176
     1
290
     0
176
     1
290
     0
176
     1
290
     0
176
     1
 90
       50
176
     1
 40
0.0
176
     1
 40
1.0
176
     1
 90
        0
176
     1
 62
    18
420
        0
176
     1
 90
       50
176
     1
 90
        3
176
     1
 62
     5
420
      255
176
     1
290
     0
176
     1
 90
       50
176
     1
 90
       50
176
     1
 90
       50
176
     1
290
     0
176
     1
 90
       50
176
     1
 62
   256
176
     0
 40
1.0
176
     0
 90
        2
176
     1
  1
strokes_ogs.tif
176
     1
290
     0
176
     1
 40
1.0
176
     1
 40
1.0
176
     1
  0
VISUALSTYLE
  5
A52
102
{ACAD_REACTORS
330
A4A
102
}
330
A4A
100
AcDbVisualStyle
  2
Hidden
 70
     6
177
     3
291
     0
 70
    58
 90
        1
176
     1
 90
        2
176
     1
 90
        2
176
     1
 90
        0
176
     1
 40
0.6
176
     1
 40
30.0
176
     1
 62
     7
420
 16777215
176
     1
 90
        2
176
     1
 90
        2
176
     1
 62
     7
176
     1
 62
   257
176
     1
 90
        2
176
     1
 90
        1
176
     1
 40
40.0
176
     1
 90
        0
176
     1
 62
   257
176
     1
 40
1.0
176
     1
 90
        1
176
     1
 90
        6
176
     1
 90
        2
176
     1
 62
     7
176
     1
 90
        3
176
     1
 90
        0
176
     1
 90
        0
176
     1
290
     0
176
     1
 90
        1
176
     1
 40
0.0
176
     1
 90
        0
176
     1
290
     0
176
     1
290
     1
176
     1
290
     1
176
     1
290
     0
176
     1
290
     0
176
     1
290
     0
176
     1
290
     0
176
     1
290
     0
176
     1
290
     0
176
     1
 90
       50
176
     1
 40
0.0
176
     1
 40
1.0
176
     1
 90
        0
176
     1
 62
    18
420
        0
176
     1
 90
       50
176
     1
 90
        3
176
     1
 62
     5
420
      255
176
     1
290
     0
176
     1
 90
       50
176
     1
 90
       50
176
     1
 90
       50
176
     1
290
     0
176
     1
 90
       50
176
     1
 62
   256
176
     0
 40
1.0
176
     0
 90
        2
176
     1
  1
strokes_ogs.tif
176
     1
290
     0
176
     1
 40
1.0
176
     1
 40
1.0
176
     1
  0
VISUALSTYLE
  5
A60
102
{ACAD_REACTORS
330
A4A
102
}
330
A4A
100
AcDbVisualStyle
  2
JitterOff
 70
    20
177
     3
291
     1
 70
    58
 90
        2
176
     0
 90
        2
176
     0
 90
        0
176
     0
 90
        0
176
     0
 40
0.6
176
     0
 40
30.0
176
     0
 62
     7
420
 16777215
176
     0
 90
        1
176
     0
 90
        4
176
     0
 62
     7
176
     0
 62
   257
176
     0
 90
        1
176
     0
 90
        1
176
     0
 40
1.0
176
     0
 90
       10
176
     2
 62
     7
176
     0
 40
1.0
176
     0
 90
        1
176
     0
 90
        6
176
     0
 90
        2
176
     0
 62
     7
176
     0
 90
        5
176
     0
 90
        0
176
     0
 90
        0
176
     0
290
     0
176
     0
 90
        1
176
     0
 40
0.0
176
     0
 90
        0
176
     0
290
     0
176
     0
290
     1
176
     0
290
     1
176
     0
290
     0
176
     0
290
     0
176
     0
290
     0
176
     0
290
     0
176
     0
290
     0
176
     0
290
     0
176
     0
 90
       50
176
     0
 40
0.0
176
     0
 40
1.0
176
     0
 90
        0
176
     0
 62
    18
420
        0
176
     0
 90
       50
176
     0
 90
        3
176
     0
 62
     5
420
      255
176
     0
290
     0
176
     0
 90
       50
176
     0
 90
       50
176
     0
 90
       50
176
     0
290
     0
176
     0
 90
       50
176
     0
 62
   256
176
     0
 40
1.0
176
     0
 90
        2
176
     0
  1
strokes_ogs.tif
176
     0
290
     0
176
     0
 40
1.0
176
     0
 40
1.0
176
     0
  0
VISUALSTYLE
  5
A58
102
{ACAD_REACTORS
330
A4A
102
}
330
A4A
100
AcDbVisualStyle
  2
Linepattern
 70
    14
177
     3
291
     1
 70
    58
 90
        2
176
     1
 90
        2
176
     1
 90
        0
176
     1
 90
        0
176
     1
 40
0.6
176
     1
 40
30.0
176
     1
 62
     7
420
 16777215
176
     1
 90
        1
176
     1
 90
        4
176
     1
 62
     7
176
     1
 62
   257
176
     1
 90
        7
176
     1
 90
        7
176
     1
 40
1.0
176
     1
 90
        8
176
     1
 62
     7
176
     1
 40
1.0
176
     1
 90
        1
176
     1
 90
        6
176
     1
 90
        2
176
     1
 62
     7
176
     1
 90
        5
176
     1
 90
        0
176
     1
 90
        0
176
     1
290
     0
176
     1
 90
        1
176
     1
 40
0.0
176
     1
 90
        0
176
     1
290
     0
176
     1
290
     1
176
     1
290
     1
176
     1
290
     0
176
     1
290
     0
176
     1
290
     0
176
     1
290
     0
176
     1
290
     0
176
     1
290
     0
176
     1
 90
       50
176
     1
 40
0.0
176
     1
 40
1.0
176
     1
 90
        0
176
     1
 62
    18
420
        0
176
     1
 90
       50
176
     1
 90
        3
176
     1
 62
     5
420
      255
176
     1
290
     0
176
     1
 90
       50
176
     1
 90
       50
176
     1
 90
       50
176
     1
290
     0
176
     1
 90
       50
176
     1
 62
   256
176
     0
 40
1.0
176
     0
 90
        2
176
     1
  1
strokes_ogs.tif
176
     1
290
     0
176
     1
 40
1.0
176
     1
 40
1.0
176
     1
  0
VISUALSTYLE
  5
A61
102
{ACAD_REACTORS
330
A4A
102
}
330
A4A
100
AcDbVisualStyle
  2
OverhangOff
 70
    21
177
     3
291
     1
 70
    58
 90
        2
176
     0
 90
        2
176
     0
 90
        0
176
     0
 90
        0
176
     0
 40
0.6
176
     0
 40
30.0
176
     0
 62
     7
420
 16777215
176
     0
 90
        1
176
     0
 90
        4
176
     0
 62
     7
176
     0
 62
   257
176
     0
 90
        1
176
     0
 90
        1
176
     0
 40
1.0
176
     0
 90
        9
176
     2
 62
     7
176
     0
 40
1.0
176
     0
 90
        1
176
     0
 90
        6
176
     0
 90
        2
176
     0
 62
     7
176
     0
 90
        5
176
     0
 90
        0
176
     0
 90
        0
176
     0
290
     0
176
     0
 90
        1
176
     0
 40
0.0
176
     0
 90
        0
176
     0
290
     0
176
     0
290
     1
176
     0
290
     1
176
     0
290
     0
176
     0
290
     0
176
     0
290
     0
176
     0
290
     0
176
     0
290
     0
176
     0
290
     0
176
     0
 90
       50
176
     0
 40
0.0
176
     0
 40
1.0
176
     0
 90
        0
176
     0
 62
    18
420
        0
176
     0
 90
       50
176
     0
 90
        3
176
     0
 62
     5
420
      255
176
     0
290
     0
176
     0
 90
       50
176
     0
 90
       50
176
     0
 90
       50
176
     0
290
     0
176
     0
 90
       50
176
     0
 62
   256
176
     0
 40
1.0
176
     0
 90
        2
176
     0
  1
strokes_ogs.tif
176
     0
290
     0
176
     0
 40
1.0
176
     0
 40
1.0
176
     0
  0
VISUALSTYLE
  5
A54
102
{ACAD_REACTORS
330
A4A
102
}
330
A4A
100
AcDbVisualStyle
  2
Realistic
 70
     8
177
     3
291
     0
 70
    58
 90
        2
176
     1
 90
        3
176
     1
 90
        0
176
     1
 90
        2
176
     1
 40
0.6
176
     1
 40
30.0
176
     1
 62
     7
420
 16777215
176
     1
 90
        0
176
     1
 90
        0
176
     1
 62
     7
176
     1
 62
   257
176
     1
 90
        1
176
     1
 90
        1
176
     1
 40
1.0
176
     1
 90
        8
176
     1
 62
   257
176
     1
 40
1.0
176
     1
 90
        1
176
     1
 90
        6
176
     1
 90
        2
176
     1
 62
     7
176
     1
 90
        3
176
     1
 90
        0
176
     1
 90
        0
176
     1
290
     0
176
     1
 90
       13
176
     1
 40
0.0
176
     1
 90
        0
176
     1
290
     0
176
     1
290
     1
176
     1
290
     1
176
     1
290
     0
176
     1
290
     0
176
     1
290
     0
176
     1
290
     0
176
     1
290
     0
176
     1
290
     0
176
     1
 90
       50
176
     1
 40
0.0
176
     1
 40
1.0
176
     1
 90
        0
176
     1
 62
    18
420
        0
176
     1
 90
       50
176
     1
 90
        3
176
     1
 62
     5
420
      255
176
     1
290
     0
176
     1
 90
       50
176
     1
 90
       50
176
     1
 90
       50
176
     1
290
     0
176
     1
 90
       50
176
     1
 62
   256
176
     0
 40
1.0
176
     0
 90
        2
176
     1
  1
strokes_ogs.tif
176
     1
290
     0
176
     1
 40
1.0
176
     1
 40
1.0
176
     1
  0
VISUALSTYLE
  5
A5F
102
{ACAD_REACTORS
330
A4A
102
}
330
A4A
100
AcDbVisualStyle
  2
Shaded
 70
    27
177
     3
291
     0
 70
    58
 90
        2
176
     1
 90
        2
176
     1
 90
        1
176
     1
 90
        2
176
     1
 40
0.6
176
     1
 40
30.0
176
     1
 62
     7
420
 16777215
176
     1
 90
        0
176
     1
 90
        4
176
     1
 62
     7
176
     1
 62
   257
176
     1
 90
        1
176
     1
 90
        1
176
     1
 40
1.0
176
     1
 90
        8
176
     1
 62
   257
176
     1
 40
1.0
176
     1
 90
        1
176
     1
 90
        6
176
     1
 90
        2
176
     1
 62
     8
420
  7895160
176
     1
 90
        3
176
     1
 90
        0
176
     1
 90
        0
176
     1
290
     0
176
     1
 90
        5
176
     1
 40
0.0
176
     1
 90
        0
176
     1
290
     0
176
     1
290
     1
176
     1
290
     1
176
     1
290
     0
176
     1
290
     0
176
     1
290
     0
176
     1
290
     0
176
     1
290
     0
176
     1
290
     0
176
     1
 90
       50
176
     1
 40
0.0
176
     1
 40
1.0
176
     1
 90
        0
176
     1
 62
    18
420
        0
176
     1
 90
       50
176
     1
 90
        3
176
     1
 62
     5
420
      255
176
     1
290
     0
176
     1
 90
       50
176
     1
 90
       50
176
     1
 90
       50
176
     1
290
     0
176
     1
 90
       50
176
     1
 62
   256
176
     0
 40
1.0
176
     0
 90
        2
176
     1
  1
strokes_ogs.tif
176
     1
290
     0
176
     1
 40
1.0
176
     1
 40
1.0
176
     1
  0
VISUALSTYLE
  5
A5E
102
{ACAD_REACTORS
330
A4A
102
}
330
A4A
100
AcDbVisualStyle
  2
Shaded with edges
 70
    26
177
     3
291
     0
 70
    58
 90
        2
176
     1
 90
        2
176
     1
 90
        1
176
     1
 90
        2
176
     1
 40
0.6
176
     1
 40
30.0
176
     1
 62
     7
420
 16777215
176
     1
 90
        1
176
     1
 90
       10
176
     1
 62
     7
176
     1
 62
   257
176
     1
 90
        2
176
     1
 90
        1
176
     1
 40
1.0
176
     1
 90
        8
176
     1
 62
   257
176
     1
 40
1.0
176
     1
 90
        1
176
     1
 90
        6
176
     1
 90
        2
176
     1
 62
     7
176
     1
 90
        3
176
     1
 90
        0
176
     1
 90
        0
176
     1
290
     0
176
     1
 90
        5
176
     1
 40
0.0
176
     1
 90
        0
176
     1
290
     0
176
     1
290
     1
176
     1
290
     1
176
     1
290
     0
176
     1
290
     0
176
     1
290
     0
176
     1
290
     0
176
     1
290
     0
176
     1
290
     0
176
     1
 90
       50
176
     1
 40
0.0
176
     1
 40
1.0
176
     1
 90
        0
176
     1
 62
    18
420
        0
176
     1
 90
       50
176
     1
 90
        3
176
     1
 62
     5
420
      255
176
     1
290
     0
176
     1
 90
       50
176
     1
 90
       50
176
     1
 90
       50
176
     1
290
     0
176
     1
 90
       50
176
     1
 62
   256
176
     0
 40
1.0
176
     0
 90
        2
176
     1
  1
strokes_ogs.tif
176
     1
290
     0
176
     1
 40
1.0
176
     1
 40
1.0
176
     1
  0
VISUALSTYLE
  5
A5B
102
{ACAD_REACTORS
330
A4A
102
}
330
A4A
100
AcDbVisualStyle
  2
Shades of Gray
 70
    23
177
     3
291
     0
 70
    58
 90
        2
176
     1
 90
        2
176
     1
 90
        3
176
     1
 90
        0
176
     1
 40
0.6
176
     1
 40
30.0
176
     1
 62
     7
420
 16777215
176
     1
 90
        2
176
     1
 90
        2
176
     1
 62
     7
176
     1
 62
     7
176
     1
 90
        1
176
     1
 90
        1
176
     1
 40
40.0
176
     1
 90
        8
176
     1
 62
     7
176
     1
 40
1.0
176
     1
 90
        1
176
     1
 90
        6
176
     1
 90
        2
176
     1
 62
     7
176
     1
 90
        3
176
     1
 90
        0
176
     1
 90
        0
176
     1
290
     0
176
     1
 90
        1
176
     1
 40
0.0
176
     1
 90
        0
176
     1
290
     0
176
     1
290
     1
176
     1
290
     1
176
     1
290
     0
176
     1
290
     0
176
     1
290
     0
176
     1
290
     0
176
     1
290
     0
176
     1
290
     0
176
     1
 90
       50
176
     1
 40
0.0
176
     1
 40
1.0
176
     1
 90
        0
176
     1
 62
    18
420
        0
176
     1
 90
       50
176
     1
 90
        3
176
     1
 62
     5
420
      255
176
     1
290
     0
176
     1
 90
       50
176
     1
 90
       50
176
     1
 90
       50
176
     1
290
     0
176
     1
 90
       50
176
     1
 62
   256
176
     0
 40
1.0
176
     0
 90
        2
176
     1
  1
strokes_ogs.tif
176
     1
290
     0
176
     1
 40
1.0
176
     1
 40
1.0
176
     1
  0
VISUALSTYLE
  5
A5C
102
{ACAD_REACTORS
330
A4A
102
}
330
A4A
100
AcDbVisualStyle
  2
Sketchy
 70
    24
177
     3
291
     0
 70
    58
 90
        1
176
     1
 90
        2
176
     1
 90
        2
176
     1
 90
        0
176
     1
 40
0.6
176
     1
 40
30.0
176
     1
 62
     7
420
 16777215
176
     1
 90
        2
176
     1
 90
        2
176
     1
 62
     7
176
     1
 62
     7
176
     1
 90
        1
176
     1
 90
        1
176
     1
 40
40.0
176
     1
 90
       11
176
     1
 62
     7
176
     1
 40
1.0
176
     1
 90
        1
176
     1
 90
        6
176
     1
 90
        2
176
     1
 62
     7
176
     1
 90
        6
176
     1
 90
        0
176
     1
 90
        0
176
     1
290
     0
176
     1
 90
        1
176
     1
 40
0.0
176
     1
 90
        0
176
     1
290
     0
176
     1
290
     1
176
     1
290
     1
176
     1
290
     0
176
     1
290
     0
176
     1
290
     0
176
     1
290
     0
176
     1
290
     0
176
     1
290
     0
176
     1
 90
       50
176
     1
 40
0.0
176
     1
 40
1.0
176
     1
 90
        0
176
     1
 62
    18
420
        0
176
     1
 90
       50
176
     1
 90
        3
176
     1
 62
     5
420
      255
176
     1
290
     0
176
     1
 90
       50
176
     1
 90
       50
176
     1
 90
       50
176
     1
290
     0
176
     1
 90
       50
176
     1
 62
   256
176
     0
 40
1.0
176
     0
 90
        2
176
     1
  1
strokes_ogs.tif
176
     1
290
     0
176
     1
 40
1.0
176
     1
 40
1.0
176
     1
  0
VISUALSTYLE
  5
A57
102
{ACAD_REACTORS
330
A4A
102
}
330
A4A
100
AcDbVisualStyle
  2
Thicken
 70
    13
177
     3
291
     1
 70
    58
 90
        2
176
     1
 90
        2
176
     1
 90
        0
176
     1
 90
        0
176
     1
 40
0.6
176
     1
 40
30.0
176
     1
 62
     7
420
 16777215
176
     1
 90
        1
176
     1
 90
        4
176
     1
 62
     7
176
     1
 62
   257
176
     1
 90
        1
176
     1
 90
        1
176
     1
 40
1.0
176
     1
 90
       12
176
     1
 62
     7
176
     1
 40
1.0
176
     1
 90
        1
176
     1
 90
        6
176
     1
 90
        2
176
     1
 62
     7
176
     1
 90
        5
176
     1
 90
        0
176
     1
 90
        0
176
     1
290
     0
176
     1
 90
        1
176
     1
 40
0.0
176
     1
 90
        0
176
     1
290
     0
176
     1
290
     1
176
     1
290
     1
176
     1
290
     0
176
     1
290
     0
176
     1
290
     0
176
     1
290
     0
176
     1
290
     0
176
     1
290
     0
176
     1
 90
       50
176
     1
 40
0.0
176
     1
 40
1.0
176
     1
 90
        0
176
     1
 62
    18
420
        0
176
     1
 90
       50
176
     1
 90
        3
176
     1
 62
     5
420
      255
176
     1
290
     0
176
     1
 90
       50
176
     1
 90
       50
176
     1
 90
       50
176
     1
290
     0
176
     1
 90
       50
176
     1
 62
   256
176
     0
 40
1.0
176
     0
 90
        2
176
     1
  1
strokes_ogs.tif
176
     1
290
     0
176
     1
 40
1.0
176
     1
 40
1.0
176
     1
  0
VISUALSTYLE
  5
A51
102
{ACAD_REACTORS
330
A4A
102
}
330
A4A
100
AcDbVisualStyle
  2
Wireframe
 70
     5
177
     3
291
     0
 70
    58
 90
        0
176
     1
 90
        2
176
     1
 90
        0
176
     1
 90
        0
176
     1
 40
0.6
176
     1
 40
30.0
176
     1
 62
     7
420
 16777215
176
     1
 90
        1
176
     1
 90
        4
176
     1
 62
     7
176
     1
 62
   257
176
     1
 90
        1
176
     1
 90
        1
176
     1
 40
1.0
176
     1
 90
        0
176
     1
 62
   257
176
     1
 40
1.0
176
     1
 90
        1
176
     1
 90
        6
176
     1
 90
        2
176
     1
 62
     7
176
     1
 90
        3
176
     1
 90
        0
176
     1
 90
        0
176
     1
290
     0
176
     1
 90
        1
176
     1
 40
0.0
176
     1
 90
        0
176
     1
290
     0
176
     1
290
     1
176
     1
290
     1
176
     1
290
     0
176
     1
290
     0
176
     1
290
     0
176
     1
290
     0
176
     1
290
     0
176
     1
290
     0
176
     1
 90
       50
176
     1
 40
0.0
176
     1
 40
1.0
176
     1
 90
        0
176
     1
 62
    18
420
        0
176
     1
 90
       50
176
     1
 90
        3
176
     1
 62
     5
420
      255
176
     1
290
     0
176
     1
 90
       50
176
     1
 90
       50
176
     1
 90
       50
176
     1
290
     0
176
     1
 90
       50
176
     1
 62
   256
176
     0
 40
1.0
176
     0
 90
        2
176
     1
  1
strokes_ogs.tif
176
     1
290
     0
176
     1
 40
1.0
176
     1
 40
1.0
176
     1
  0
VISUALSTYLE
  5
A5D
102
{ACAD_REACTORS
330
A4A
102
}
330
A4A
100
AcDbVisualStyle
  2
X-Ray
 70
    25
177
     3
291
     0
 70
    58
 90
        2
176
     1
 90
        2
176
     1
 90
        1
176
     1
 90
        1
176
     1
 40
0.5
176
     1
 40
30.0
176
     1
 62
     7
420
 16777215
176
     1
 90
        1
176
     1
 90
        0
176
     1
 62
     7
176
     1
 62
   257
176
     1
 90
        1
176
     1
 90
        1
176
     1
 40
1.0
176
     1
 90
        8
176
     1
 62
     7
176
     1
 40
1.0
176
     1
 90
        1
176
     1
 90
        6
176
     1
 90
        2
176
     1
 62
     7
176
     1
 90
        3
176
     1
 90
        0
176
     1
 90
        0
176
     1
290
     0
176
     1
 90
       13
176
     1
 40
0.0
176
     1
 90
        0
176
     1
290
     0
176
     1
290
     1
176
     1
290
     1
176
     1
290
     0
176
     1
290
     0
176
     1
290
     0
176
     1
290
     0
176
     1
290
     0
176
     1
290
     0
176
     1
 90
       50
176
     1
 40
0.0
176
     1
 40
1.0
176
     1
 90
        0
176
     1
 62
    18
420
        0
176
     1
 90
       50
176
     1
 90
        3
176
     1
 62
     5
420
      255
176
     1
290
     0
176
     1
 90
       50
176
     1
 90
       50
176
     1
 90
       50
176
     1
290
     0
176
     1
 90
       50
176
     1
 62
   256
176
     0
 40
1.0
176
     0
 90
        2
176
     1
  1
strokes_ogs.tif
176
     1
290
     0
176
     1
 40
1.0
176
     1
 40
1.0
176
     1
  0
DICTIONARYVAR
  5
B7C
102
{ACAD_REACTORS
330
B76
102
}
330
B76
100
DictionaryVariables
280
     0
  1
1:1
  0
DICTIONARYVAR
  5
B78
102
{ACAD_REACTORS
330
B76
102
}
330
B76
100
DictionaryVariables
280
     0
  1
STANDARD
  0
DICTIONARYVAR
  5
B77
102
{ACAD_REACTORS
330
B76
102
}
330
B76
100
DictionaryVariables
280
     0
  1
STANDARD
  0
DICTIONARYVAR
  5
B79
102
{ACAD_REACTORS
330
B76
102
}
330
B76
100
DictionaryVariables
280
     0
  1
Metric50
  0
DICTIONARYVAR
  5
B7A
102
{ACAD_REACTORS
330
B76
102
}
330
B76
100
DictionaryVariables
280
     0
  1
Metric50
  0
DICTIONARYVAR
  5
B7E
102
{ACAD_REACTORS
330
B76
102
}
330
B76
100
DictionaryVariables
280
     0
  1
1
  0
DICTIONARYVAR
  5
B7F
102
{ACAD_REACTORS
330
B76
102
}
330
B76
100
DictionaryVariables
280
     0
  1
15
  0
DICTIONARYVAR
  5
B7D
102
{ACAD_REACTORS
330
B76
102
}
330
B76
100
DictionaryVariables
280
     0
  1
0
  0
DICTIONARYVAR
  5
B7B
102
{ACAD_REACTORS
330
B76
102
}
330
B76
100
DictionaryVariables
280
     0
  1
0
  0
DICTIONARY
  5
A3B
330
A3A
100
AcDbDictionary
280
     1
281
     1
  3
BUMPTILE
360
A3D
  3
DIFFUSETILE
360
A3C
  3
OPACITYTILE
360
A40
  3
REFLECTIONTILE
360
A3F
  3
REFRACTIONTILE
360
A41
  3
SPECULARTILE
360
A3E
  0
DICTIONARY
  5
A33
330
A32
100
AcDbDictionary
280
     1
281
     1
  3
BUMPTILE
360
A35
  3
DIFFUSETILE
360
A34
  3
OPACITYTILE
360
A38
  3
REFLECTIONTILE
360
A37
  3
REFRACTIONTILE
360
A39
  3
SPECULARTILE
360
A36
  0
DICTIONARY
  5
A43
330
A42
100
AcDbDictionary
280
     1
281
     1
  3
BUMPTILE
360
A45
  3
DIFFUSETILE
360
A44
  3
OPACITYTILE
360
A48
  3
REFLECTIONTILE
360
A47
  3
REFRACTIONTILE
360
A49
  3
SPECULARTILE
360
A46
  0
DICTIONARY
  5
BBA
330
A65
100
AcDbDictionary
280
     1
281
     1
  3
ACAD_ROUNDTRIP_2008_TABLESTYLE_CELLSTYLEMAP
360
BBB
  0
XRECORD
  5
A3D
102
{ACAD_REACTORS
330
A3B
102
}
330
A3B
100
AcDbXrecord
280
     1
270
     1
271
     1
  0
XRECORD
  5
A3C
102
{ACAD_REACTORS
330
A3B
102
}
330
A3B
100
AcDbXrecord
280
     1
270
     1
271
     1
  0
XRECORD
  5
A40
102
{ACAD_REACTORS
330
A3B
102
}
330
A3B
100
AcDbXrecord
280
     1
270
     1
271
     1
  0
XRECORD
  5
A3F
102
{ACAD_REACTORS
330
A3B
102
}
330
A3B
100
AcDbXrecord
280
     1
270
     1
271
     1
  0
XRECORD
  5
A41
102
{ACAD_REACTORS
330
A3B
102
}
330
A3B
100
AcDbXrecord
280
     1
270
     1
271
     1
  0
XRECORD
  5
A3E
102
{ACAD_REACTORS
330
A3B
102
}
330
A3B
100
AcDbXrecord
280
     1
270
     1
271
     1
  0
XRECORD
  5
A35
102
{ACAD_REACTORS
330
A33
102
}
330
A33
100
AcDbXrecord
280
     1
270
     1
271
     1
  0
XRECORD
  5
A34
102
{ACAD_REACTORS
330
A33
102
}
330
A33
100
AcDbXrecord
280
     1
270
     1
271
     1
  0
XRECORD
  5
A38
102
{ACAD_REACTORS
330
A33
102
}
330
A33
100
AcDbXrecord
280
     1
270
     1
271
     1
  0
XRECORD
  5
A37
102
{ACAD_REACTORS
330
A33
102
}
330
A33
100
AcDbXrecord
280
     1
270
     1
271
     1
  0
XRECORD
  5
A39
102
{ACAD_REACTORS
330
A33
102
}
330
A33
100
AcDbXrecord
280
     1
270
     1
271
     1
  0
XRECORD
  5
A36
102
{ACAD_REACTORS
330
A33
102
}
330
A33
100
AcDbXrecord
280
     1
270
     1
271
     1
  0
XRECORD
  5
A45
102
{ACAD_REACTORS
330
A43
102
}
330
A43
100
AcDbXrecord
280
     1
270
     1
271
     1
  0
XRECORD
  5
A44
102
{ACAD_REACTORS
330
A43
102
}
330
A43
100
AcDbXrecord
280
     1
270
     1
271
     1
  0
XRECORD
  5
A48
102
{ACAD_REACTORS
330
A43
102
}
330
A43
100
AcDbXrecord
280
     1
270
     1
271
     1
  0
XRECORD
  5
A47
102
{ACAD_REACTORS
330
A43
102
}
330
A43
100
AcDbXrecord
280
     1
270
     1
271
     1
  0
XRECORD
  5
A49
102
{ACAD_REACTORS
330
A43
102
}
330
A43
100
AcDbXrecord
280
     1
270
     1
271
     1
  0
XRECORD
  5
A46
102
{ACAD_REACTORS
330
A43
102
}
330
A43
100
AcDbXrecord
280
     1
270
     1
271
     1
  0
CELLSTYLEMAP
  5
BBB
102
{ACAD_REACTORS
330
BBA
102
}
330
BBA
100
AcDbCellStyleMap
 90
        3
300
CELLSTYLE
  1
TABLEFORMAT_BEGIN
 90
        5
170
     1
 91
        0
 92
    32768
 62
   257
 93
        1
300
CONTENTFORMAT
  1
CONTENTFORMAT_BEGIN
 90
        0
 91
        0
 92
      512
 93
        0
300

 40
0.0
140
1.0
 94
        5
 62
     0
340
10
144
6.0
309
CONTENTFORMAT_END
171
     1
301
MARGIN
  1
CELLMARGIN_BEGIN
 40
1.5
 40
1.5
 40
1.5
 40
1.5
 40
4.5
 40
4.5
309
CELLMARGIN_END
 94
        6
 95
        1
302
GRIDFORMAT
  1
GRIDFORMAT_BEGIN
 90
        0
 91
        1
 62
     0
 92
       -2
340
0
 93
        0
 40
1.125
309
GRIDFORMAT_END
 95
        2
302
GRIDFORMAT
  1
GRIDFORMAT_BEGIN
 90
        0
 91
        1
 62
     0
 92
       -2
340
0
 93
        0
 40
1.125
309
GRIDFORMAT_END
 95
        4
302
GRIDFORMAT
  1
GRIDFORMAT_BEGIN
 90
        0
 91
        1
 62
     0
 92
       -2
340
0
 93
        0
 40
1.125
309
GRIDFORMAT_END
 95
        8
302
GRIDFORMAT
  1
GRIDFORMAT_BEGIN
 90
        0
 91
        1
 62
     0
 92
       -2
340
0
 93
        0
 40
1.125
309
GRIDFORMAT_END
 95
       16
302
GRIDFORMAT
  1
GRIDFORMAT_BEGIN
 90
        0
 91
        1
 62
     0
 92
       -2
340
0
 93
        0
 40
1.125
309
GRIDFORMAT_END
 95
       32
302
GRIDFORMAT
  1
GRIDFORMAT_BEGIN
 90
        0
 91
        1
 62
     0
 92
       -2
340
0
 93
        0
 40
1.125
309
GRIDFORMAT_END
309
TABLEFORMAT_END
  1
CELLSTYLE_BEGIN
 90
        1
 91
        1
300
_TITLE
309
CELLSTYLE_END
300
CELLSTYLE
  1
TABLEFORMAT_BEGIN
 90
        5
170
     1
 91
        0
 92
        0
 62
   257
 93
        1
300
CONTENTFORMAT
  1
CONTENTFORMAT_BEGIN
 90
        0
 91
        0
 92
      512
 93
        0
300

 40
0.0
140
1.0
 94
        5
 62
     0
340
10
144
4.5
309
CONTENTFORMAT_END
171
     1
301
MARGIN
  1
CELLMARGIN_BEGIN
 40
1.5
 40
1.5
 40
1.5
 40
1.5
 40
4.5
 40
4.5
309
CELLMARGIN_END
 94
        6
 95
        1
302
GRIDFORMAT
  1
GRIDFORMAT_BEGIN
 90
        0
 91
        1
 62
     0
 92
       -2
340
0
 93
        0
 40
1.125
309
GRIDFORMAT_END
 95
        2
302
GRIDFORMAT
  1
GRIDFORMAT_BEGIN
 90
        0
 91
        1
 62
     0
 92
       -2
340
0
 93
        0
 40
1.125
309
GRIDFORMAT_END
 95
        4
302
GRIDFORMAT
  1
GRIDFORMAT_BEGIN
 90
        0
 91
        1
 62
     0
 92
       -2
340
0
 93
        0
 40
1.125
309
GRIDFORMAT_END
 95
        8
302
GRIDFORMAT
  1
GRIDFORMAT_BEGIN
 90
        0
 91
        1
 62
     0
 92
       -2
340
0
 93
        0
 40
1.125
309
GRIDFORMAT_END
 95
       16
302
GRIDFORMAT
  1
GRIDFORMAT_BEGIN
 90
        0
 91
        1
 62
     0
 92
       -2
340
0
 93
        0
 40
1.125
309
GRIDFORMAT_END
 95
       32
302
GRIDFORMAT
  1
GRIDFORMAT_BEGIN
 90
        0
 91
        1
 62
     0
 92
       -2
340
0
 93
        0
 40
1.125
309
GRIDFORMAT_END
309
TABLEFORMAT_END
  1
CELLSTYLE_BEGIN
 90
        2
 91
        1
300
_HEADER
309
CELLSTYLE_END
300
CELLSTYLE
  1
TABLEFORMAT_BEGIN
 90
        5
170
     1
 91
        0
 92
        0
 62
   257
 93
        1
300
CONTENTFORMAT
  1
CONTENTFORMAT_BEGIN
 90
        0
 91
        0
 92
      512
 93
        0
300

 40
0.0
140
1.0
 94
        2
 62
     0
340
10
144
4.5
309
CONTENTFORMAT_END
171
     1
301
MARGIN
  1
CELLMARGIN_BEGIN
 40
1.5
 40
1.5
 40
1.5
 40
1.5
 40
4.5
 40
4.5
309
CELLMARGIN_END
 94
        6
 95
        1
302
GRIDFORMAT
  1
GRIDFORMAT_BEGIN
 90
        0
 91
        1
 62
     0
 92
       -2
340
0
 93
        0
 40
1.125
309
GRIDFORMAT_END
 95
        2
302
GRIDFORMAT
  1
GRIDFORMAT_BEGIN
 90
        0
 91
        1
 62
     0
 92
       -2
340
0
 93
        0
 40
1.125
309
GRIDFORMAT_END
 95
        4
302
GRIDFORMAT
  1
GRIDFORMAT_BEGIN
 90
        0
 91
        1
 62
     0
 92
       -2
340
0
 93
        0
 40
1.125
309
GRIDFORMAT_END
 95
        8
302
GRIDFORMAT
  1
GRIDFORMAT_BEGIN
 90
        0
 91
        1
 62
     0
 92
       -2
340
0
 93
        0
 40
1.125
309
GRIDFORMAT_END
 95
       16
302
GRIDFORMAT
  1
GRIDFORMAT_BEGIN
 90
        0
 91
        1
 62
     0
 92
       -2
340
0
 93
        0
 40
1.125
309
GRIDFORMAT_END
 95
       32
302
GRIDFORMAT
  1
GRIDFORMAT_BEGIN
 90
        0
 91
        1
 62
     0
 92
       -2
340
0
 93
        0
 40
1.125
309
GRIDFORMAT_END
309
TABLEFORMAT_END
  1
CELLSTYLE_BEGIN
 90
        3
 91
        2
300
_DATA
309
CELLSTYLE_END
  0
ENDSEC
  0
SECTION
  2
ACDSDATA
 70
     2
 71
     2
  0
ACDSSCHEMA
 90
        0
  1
AcDb_Thumbnail_Schema
  2
AcDbDs::ID
280
    10
 91
        8
  2
Thumbnail_Data
280
    15
 91
        0
101
ACDSRECORD
 95
        0
 90
        1
  2
AcDbDs::TreatedAsObjectData
280
     1
291
     1
101
ACDSRECORD
 95
        0
 90
        2
  2
AcDbDs::Legacy
280
     1
291
     1
101
ACDSRECORD
  1
AcDbDs::ID
 90
        3
  2
AcDs:Indexable
280
     1
291
     1
101
ACDSRECORD
  1
AcDbDs::ID
 90
        4
  2
AcDbDs::HandleAttribute
280
     7
282
     1
  0
ACDSSCHEMA
 90
        1
  1
AcDbDs::TreatedAsObjectDataSchema
  2
AcDbDs::TreatedAsObjectData
280
     1
 91
        0
  0
ACDSSCHEMA
 90
        2
  1
AcDbDs::LegacySchema
  2
AcDbDs::Legacy
280
     1
 91
        0
  0
ACDSSCHEMA
 90
        3
  1
AcDbDs::IndexedPropertySchema
  2
AcDs:Indexable
280
     1
 91
        0
  0
ACDSSCHEMA
 90
        4
  1
AcDbDs::HandleAttributeSchema
  2
AcDbDs::HandleAttribute
280
     7
 91
        1
284
     1
  0
ACDSRECORD
 90
        0
  2
AcDbDs::ID
280
    10
320
2C4
  2
Thumbnail_Data
280
    15
 94
     1639
310
89504E470D0A1A0A0000000D4948445200000100000000B408030000004C80028300000300504C5445212830000000C8C8C80000000000000000000000000000000000000000000000000000330000660000990000CC0000FF0033000033330033660033990033CC0033FF0066000066330066660066990066CC0066FF0099
310
000099330099660099990099CC0099FF00CC0000CC3300CC6600CC9900CCCC00CCFF00FF0000FF3300FF6600FF9900FFCC00FFFF3300003300333300663300993300CC3300FF3333003333333333663333993333CC3333FF3366003366333366663366993366CC3366FF3399003399333399663399993399CC3399FF33CC00
310
33CC3333CC6633CC9933CCCC33CCFF33FF0033FF3333FF6633FF9933FFCC33FFFF6600006600336600666600996600CC6600FF6633006633336633666633996633CC6633FF6666006666336666666666996666CC6666FF6699006699336699666699996699CC6699FF66CC0066CC3366CC6666CC9966CCCC66CCFF66FF0066
310
FF3366FF6666FF9966FFCC66FFFF9900009900339900669900999900CC9900FF9933009933339933669933999933CC9933FF9966009966339966669966999966CC9966FF9999009999339999669999999999CC9999FF99CC0099CC3399CC6699CC9999CCCC99CCFF99FF0099FF3399FF6699FF9999FFCC99FFFFCC0000CC00
310
33CC0066CC0099CC00CCCC00FFCC3300CC3333CC3366CC3399CC33CCCC33FFCC6600CC6633CC6666CC6699CC66CCCC66FFCC9900CC9933CC9966CC9999CC99CCCC99FFCCCC00CCCC33CCCC66CCCC99CCCCCCCCCCFFCCFF00CCFF33CCFF66CCFF99CCFFCCCCFFFFFF0000FF0033FF0066FF0099FF00CCFF00FFFF3300FF3333
310
FF3366FF3399FF33CCFF33FFFF6600FF6633FF6666FF6699FF66CCFF66FFFF9900FF9933FF9966FF9999FF99CCFF99FFFFCC00FFCC33FFCC66FFCC99FFCCCCFFCCFFFFFF00FFFF33FFFF66FFFF99FFFFCCFFFFFF0000000D0D0D1A1A1A2828283535354343435050505D5D5D6B6B6B787878868686939393A1A1A1AEAEAEBB
310
BBBBC9C9C9D6D6D6E4E4E4F1F1F1FFFFFF000000000000000000000000000000000000000000000000000000000000B21171F6000002C94944415478DAED9C6D76AB201040594EF6BF1E16317FE67F1B6DD1C8D088ADEFC1CCBDA7271F4A3C9D1B041C21290100000000000000000000000000000000000040278200042000
310
0108088176207BDC08D869B06BC0B24777857D55110420000108400002DE8D00A208B0E20B28E0B1124380B6053C0C011A41C023B600D52260DD174CC0A1F1772F40D5EC054AC4410544AF01AFE700020C0139671FF1CB779A6BCB797D3E7CFD8968D9B5BE5C8ABB1260D480E34580EF1A705580FB6EB07931E45C40B2AF84
310
E38C04DF27441080000420C09700B2C208400002108000040416203D0224AC00752CE0D404B9E4779A9C746C75397F1201B7159E59406EE4BD2309885303BAA00D00000840F673FFFB5A27F81410A31F94CE6ED0A1807BCB23605601F2B7020401081858C0D99C60A3536C5E39EED7DCD6071C47C03621F85D56F8F3418CEF
310
D5FA7A0F11D6457418017D3746CE09A8BE60C3D12006446F10A055F531EA7D1001FA5244E715A01D02AAF89746B0A1E67FD36A8FA555FC8200DDB5B5C30A387A680475468011FFDADB8E2AC05C2D65DF1B5443409539A8165DEDA65B0F371468DE19959761CFF36D5952D114600D80D60F9723D6BF4832C829B05F25669D12
310
F544C9ADEE67794D164C770A98FFCFA536606A01FDBD40A9FB0701BBD04ADF37432F706E1C7045C0D0E3802B93A5F31A7C53C06ED16973CFC402D694F112BC8413F0ECBB9A8D602EDD41AA5AD69105F4FC9858B2046CF7127A1222C36444B42B87655E0CA5AA069C3905E61420FA5321FF024411105A80A4D80224B9152027
310
0488570176376D6C113B21B27B2BAD74CB76B89905D4F3C50F11FF7073A8A453D298C8A52D1DC7955F1CE45F0AC8D5155EBDC5A70029D1E6EFDA5C6DB9286039806CCF830AB8679AB07C05FEFCF4FA3C4D1B90FEA60D986592D95D02A6A10ACE9827E95B80BC1520CE05C45C2B411B00000000000000000000000000000000
310
00000030341FE0F139ABDB3C740C0000000049454E44AE4260826F64256067719CFF5EBD02EE1E03BC9F89D346F602DC5705943206DC25207BC2C8CCB5D2150B48BC69AA6201DF3B0A000000000000000000000000000000000000E07BFC01771F264061E19E600000000049454E44AE426082
  0
ACDSRECORD
 90
        0
  2
AcDbDs::ID
280
    10
320
2C5
  2
Thumbnail_Data
280
    15
 94
     2357
310
89504E470D0A1A0A0000000D4948445200000100000000B408030000004C80028300000300504C5445000000000000C8C8C80000000000000000000000000000000000000000000000000000330000660000990000CC0000FF0033000033330033660033990033CC0033FF0066000066330066660066990066CC0066FF0099
310
000099330099660099990099CC0099FF00CC0000CC3300CC6600CC9900CCCC00CCFF00FF0000FF3300FF6600FF9900FFCC00FFFF3300003300333300663300993300CC3300FF3333003333333333663333993333CC3333FF3366003366333366663366993366CC3366FF3399003399333399663399993399CC3399FF33CC00
310
33CC3333CC6633CC9933CCCC33CCFF33FF0033FF3333FF6633FF9933FFCC33FFFF6600006600336600666600996600CC6600FF6633006633336633666633996633CC6633FF6666006666336666666666996666CC6666FF6699006699336699666699996699CC6699FF66CC0066CC3366CC6666CC9966CCCC66CCFF66FF0066
310
FF3366FF6666FF9966FFCC66FFFF9900009900339900669900999900CC9900FF9933009933339933669933999933CC9933FF9966009966339966669966999966CC9966FF9999009999339999669999999999CC9999FF99CC0099CC3399CC6699CC9999CCCC99CCFF99FF0099FF3399FF6699FF9999FFCC99FFFFCC0000CC00
310
33CC0066CC0099CC00CCCC00FFCC3300CC3333CC3366CC3399CC33CCCC33FFCC6600CC6633CC6666CC6699CC66CCCC66FFCC9900CC9933CC9966CC9999CC99CCCC99FFCCCC00CCCC33CCCC66CCCC99CCCCCCCCCCFFCCFF00CCFF33CCFF66CCFF99CCFFCCCCFFFFFF0000FF0033FF0066FF0099FF00CCFF00FFFF3300FF3333
310
FF3366FF3399FF33CCFF33FFFF6600FF6633FF6666FF6699FF66CCFF66FFFF9900FF9933FF9966FF9999FF99CCFF99FFFFCC00FFCC33FFCC66FFCC99FFCCCCFFCCFFFFFF00FFFF33FFFF66FFFF99FFFFCCFFFFFF0000000D0D0D1A1A1A2828283535354343435050505D5D5D6B6B6B787878868686939393A1A1A1AEAEAEBB
310
BBBBC9C9C9D6D6D6E4E4E4F1F1F1FFFFFF00000000000000000000000000000000000000000000000000000000000008F1915C000003E74944415478DAEDDD5D92AB201005E05ECEEC7F3D2EE2BCF4FB941A1389FC4A44A14FD7AD196E6254BE41400523C26030180C06630EB51241002B7F68021080009700800004200001
310
084000020C0C50750A82437407A0EFDFDEB32A78BDF61F739646772540A50EE05B603800B10E000210800004200001086009207EFB617C80688E747C0015026CF1B7C5C0009A05F0213005F0671C60CD390860B30E088D402080A95620AF1FA0E302CC2F61FEB9A48C02BC5F3509A0FA79D928C07C08E4034CD37895A01454
310
82536F0000B6BB7B823700E61B5CCB6DBFF9DF3B81F575BC965916C36B0DBD0294F5035E7FF8914A402980B94AD06647A8F892D87800F141D9E30348FCEC8600A39F0D26B7640C0004E021C012303200EF0E1380000420000108201C2CCD1240001E022C012601500BE02CD0E1A429A8F16973A91DD6DA15F40E90CC1F0108
310
30368010C034C03487E9126000201E33406211D6017D038C120420000108400002FC1C20A32BDC39009202920240DF00F55D610C5D02BAE90B1380000420C02500680C0002108000CD017E776BF8AB7388641CD759FA0D12F500EEACE0B2F101730A9EFEF53175DC312D2B01C939BD6701AA9F2A8B482650BCC33891C72A00
310
AD05D05300EA5B6BA2C85F042071004900C829004DEFA53E0400570044F28FF09E5F0DA00500BBE57E09B0B60205C5A41E40ABAF197AD6900208E6DFFBDF9B01D00E40B74F04042E0608D47F48E5FA0280EFA2D0044003CB7A59C293A72B0054EE01D83F1EA2E49BCD222DF6EE9922F16D7E3DA046764FEAF02EF86B00A72F
310
BE3D3225DCE55F1FA5B2249C3EFBA1BFEB05889D00C86BF5CB735A3EE9E09EF45202C479A6CA7BBF9F53029C3A20B00184D88AEB003CB40E68D60CE2D9ADC0F51DA134807A5AA60E4BC0BEEA2B0258D6857D17A37547E8DCB94039402467CE99456380AA49534BA6A7DDCF9300B1D7EF01C89D33344D9FB104A93AE07BAF34
310
6BA9CB7A82B5578496267EBE895E00E0EED6CD005A03A0BECBA210DF455104EBCE3C00BDEC1058D77C06604D4032008EE705EA6DEE4200A9CAA9AE0EA8F9B6E718803BD4A4EABE40B26EBEAF1F80ACCFC4065B65D6010F0540EE67302600747000690C209D9500889A3E042062FA1080FC1CA0AF43E00280BB4A00CA01E05C
310
BDB10880D006FCC3228067022446A6841FB0806027B51820B4BD2E00720790678E1472D20D0092251DE73BC9458D49F20A02019A01B8D364DC372470BD6F2480E91E806DA3DFE96600EE2C9929347D66FFCE5800B7D601D832BDBABED34F00902600F5D3B1FA06787233D802E01771154064E62801C602383173743080E21A
310
C0C62160A612EC3E0840000210800004200001087078C34A0883C16030180C0683C160188F7F07F6562DE40AE3930000000049454E44AE42608282C501E611A1152555D2980766287D1F00D2274E2257F0A101205D07E08BF9BB030035014456141E4103106E01D8CF1EB80A20DC054043570184BB00EC0ED6E1AA4009009D
310
6800E60340ABF7664500E8794A8C1EDF1D80486A0EBB43EF490510D000EE7E430048CD9E4F4C95B23E3700107D3B783D48CE7226B1CF02A01D80CF825EFE1DD64A67B302501C00C5EE2902E0E84D723FB702604F1352DCFC2173CF5C001EB5017814FACB7507805D008026004ACC471B1940CF6EB005803252074060E22826
310
3E568228FD41B97B54565F751500EA1E00BBE3CB3FD641C74DC8BD2181FB9D6D27DD75839900524D54E49DFDBDE5539CFD36E4AA1DB9DF8FDFBFFE73A55C1C902C25344003D811905BF5C87911F500D43282E900B65292AB7CCE06A866032ADAE61C89D9405D17E83C33BE5700494690ED033AA5081C55C0E0DB3980F01B3F
310
8A6394CB5A5ED8DCE003A06F31A806ECC5D1240C282A2B02E8D9062400303480DFF03DE38F9349AA00BB81757FDD03086A40867FF8D60A16C0986E90F302EC06AAD518EACC0D92A7B5B0AB8000180E40A12A30A91BCCB20155122587D1804DFDFF42B2800D1814C0EA1AF031DDBFDF4F21ABB12300DA005846A047D11A003A
310
90B15AFB2AF23BD7910E927E543D0A80741BDF68ED2700B07F80693C0029800440E4A7DE87B60137018888888888888864CA7F3ACF89D6EEFDD2090000000049454E44AE426082
  0
ENDSEC
  0
EOF
